osu file format v14

[General]
AudioFilename: audio.mp3
AudioLeadIn: 0
PreviewTime: 132107
Countdown: 0
SampleSet: Normal
StackLeniency: 0.7
Mode: 0
LetterboxInBreaks: 0
WidescreenStoryboard: 0

[Editor]
DistanceSpacing: 3
BeatDivisor: 4
GridSize: 4
TimelineZoom: 2.5

[Metadata]
Title:berserk
TitleUnicode:ベルセルク
Artist:mafumafu
ArtistUnicode:まふまふ
Creator:Mafumafu
Version:Will's Insane
Source:
Tags:jrock j-rock rock japanese kuro crest story クロクレストストーリー HabiHolic William K William_K Jonarwhal regraz
BeatmapID:2669321
BeatmapSetID:1191038

[Difficulty]
HPDrainRate:6
CircleSize:4
OverallDifficulty:7
ApproachRate:9
SliderMultiplier:1.6
SliderTickRate:1

[Events]
//Background and Video events
0,0,"BG.jpg",0,0
//Break Periods
2,71999,89601
//Storyboard Layer 0 (Background)
//Storyboard Layer 1 (Fail)
//Storyboard Layer 2 (Pass)
//Storyboard Layer 3 (Foreground)
//Storyboard Layer 4 (Overlay)
//Storyboard Sound Samples

[TimingPoints]
967,309.278350515464,4,2,1,45,1,0
2521,309.278350515464,4,1,1,70,1,0
2521,-90.9090909090909,4,1,1,70,0,0
22314,-111.111111111111,4,2,1,50,0,0
29737,-200,4,1,1,70,0,0
30819,-100,4,1,1,60,0,0
32211,-100,4,1,1,70,0,0
42108,-125,4,2,1,50,0,0
46593,-125,4,1,1,70,0,0
47057,-100,4,1,1,70,0,0
51850,-83.3333333333333,4,1,1,70,0,1
56799,-76.9230769230769,4,1,1,70,0,1
57263,-83.3333333333333,4,1,1,70,0,1
71799,-83.3333333333333,4,1,1,70,0,0
91593,-166.666666666667,4,2,0,50,0,0
99015,-200,4,1,1,70,0,0
99634,-100,4,1,1,70,0,0
101490,-100,4,1,1,60,0,0
113242,309.278350515464,4,1,1,60,1,0
115406,309.278350515464,4,1,1,60,1,0
117880,-100,4,1,1,50,0,0
118189,-111.111111111111,4,1,1,50,0,0
119117,-111.111111111111,4,1,1,60,0,0
120354,-111.111111111111,4,1,1,70,0,0
120973,-100,4,1,1,70,0,0
121591,-100,4,1,1,80,0,0
122828,-125,4,2,1,50,0,0
127313,-125,4,1,1,70,0,0
127777,-100,4,1,1,70,0,0
132570,-83.3333333333333,4,1,1,70,0,1
137519,-76.9230769230769,4,1,1,70,0,1
137983,-83.3333333333333,4,1,1,70,0,1
152364,-100,4,1,1,70,0,0
162416,-90.9090909090909,4,1,1,70,0,0
184684,-83.3333333333333,4,1,1,50,0,0
187158,-83.3333333333333,4,1,1,30,0,0

[Colours]
Combo1 : 255,188,155
Combo2 : 255,151,151

[HitObjects]
94,89,967,6,0,P|102:138|109:190,1,80
107,95,1276,2,0,P|115:144|122:196,1,80
184,225,1508,1,8,0:3:0:0:
184,225,1585,2,0,P|194:186|199:171,2,40,8|8|4,3:0|3:0|3:0,0:0:0:0:
5,384,1894,1,4,3:0:0:0:
26,350,1971,1,4,3:0:0:0:
59,329,2048,1,8,3:0:0:0:
99,324,2125,1,8,3:0:0:0:
136,337,2204,2,0,P|170:354|185:361,2,40,10|0|2,3:0|1:0|3:0,0:0:0:0:
324,245,2521,6,0,B|355:254|355:254|361:264|361:264|431:285,1,88.000002685547,6|0,0:0|0:0,0:0:0:0:
463,149,2830,1,10,0:0:0:0:
484,246,2984,1,2,0:0:0:0:
484,246,3062,1,0,0:0:0:0:
484,246,3139,1,0,0:0:0:0:
443,146,3294,2,0,P|453:86|464:26,1,88.000002685547,2|10,0:0|0:0,0:0:0:0:
477,264,3603,6,0,B|415:251|415:251|393:213|393:213|306:195,1,176.000005371094,6|0,0:0|0:0,0:0:0:0:
208,85,4067,2,0,P|247:73|290:48,1,88.000002685547,10|0,0:0|0:0,0:0:0:0:
304,24,4299,1,0,0:0:0:0:
304,24,4376,1,2,0:0:0:0:
224,163,4531,1,0,0:0:0:0:
117,50,4685,2,0,P|39:30|18:23,1,88.000002685547,10|0,0:0|0:0,0:0:0:0:
197,171,4995,6,0,B|204:210|204:210|201:226|201:226|211:282,1,88.000002685547,6|0,0:0|0:0,0:0:0:0:
70,350,5304,1,10,0:0:0:0:
125,284,5459,1,2,0:0:0:0:
125,284,5536,1,0,0:0:0:0:
125,284,5613,1,0,0:0:0:0:
60,362,5768,2,0,P|38:304|20:265,1,88.000002685547,2|10,0:0|0:0,0:0:0:0:
212,353,6077,6,0,B|285:360|285:360|310:333|310:333|400:343,1,176.000005371094,6|0,0:0|0:0,0:0:0:0:
485,213,6541,2,0,P|465:243|402:255,1,88.000002685547,10|0,0:0|0:0,0:0:0:0:
393,172,6850,2,0,P|355:169|313:121,1,88.000002685547,2|0,0:0|0:0,0:0:0:0:
463,33,7160,2,0,P|479:65|458:125,1,88.000002685547,10|0,0:0|0:0,0:0:0:0:
401,92,7392,1,0,0:0:0:0:
401,92,7469,6,0,B|367:78|367:78|353:60|353:60|290:38,1,88.000002685547,6|0,0:0|0:0,0:0:0:0:
165,108,7778,1,10,0:0:0:0:
216,36,7933,1,2,0:0:0:0:
216,36,8010,1,0,0:0:0:0:
216,36,8088,1,0,0:0:0:0:
154,118,8242,2,0,P|103:101|54:85,1,88.000002685547,2|10,0:0|0:0,0:0:0:0:
308,45,8551,6,0,B|320:106|320:106|310:148|310:148|332:236,1,176.000005371094,6|0,0:0|0:0,0:0:0:0:
411,342,9015,2,0,P|421:293|436:248,1,88.000002685547,10|0,0:0|0:0,0:0:0:0:
458,238,9247,1,0,0:0:0:0:
458,238,9325,1,2,0:0:0:0:
334,334,9479,1,0,0:0:0:0:
221,223,9634,2,0,P|178:237|122:255,1,88.000002685547,10|0,0:0|0:0,0:0:0:0:
335,152,9943,6,0,B|325:187|325:187|314:199|314:199|304:253,1,88.000002685547,6|0,0:0|0:0,0:0:0:0:
188,61,10252,1,10,0:0:0:0:
256,122,10407,2,0,P|310:121|388:22,1,176.000005371094,2|2,0:0|0:0,0:0:0:0:
181,45,10871,1,10,0:0:0:0:
86,68,11026,6,0,B|102:139|102:139|91:167|91:167|111:256,1,176.000005371094,6|0,0:0|0:0,0:0:0:0:
42,367,11490,1,10,0:0:0:0:
123,335,11644,1,0,0:0:0:0:
133,337,11721,1,0,0:0:0:0:
145,341,11798,1,10,0:0:0:0:
107,238,11953,1,0,0:0:0:0:
220,317,12108,5,10,0:0:0:0:
253,316,12185,1,0,0:0:0:0:
284,303,12262,1,0,0:0:0:0:
307,277,12339,1,0,0:0:0:0:
317,245,12417,6,0,B|311:205|311:205|316:191|316:191|307:139,1,88.000002685547,6|0,0:0|0:0,0:0:0:0:
390,296,12727,1,10,0:0:0:0:
462,248,12881,1,2,0:0:0:0:
462,248,12959,1,0,0:0:0:0:
462,248,13036,1,0,0:0:0:0:
387,314,13191,2,0,P|343:335|301:355,1,88.000002685547,2|10,0:0|0:0,0:0:0:0:
290,149,13500,6,0,B|355:168|355:168|369:198|369:198|463:221,1,176.000005371094,6|0,0:0|0:0,0:0:0:0:
315,46,13964,2,0,P|269:60|219:73,1,88.000002685547,10|0,0:0|0:0,0:0:0:0:
204,56,14196,1,0,0:0:0:0:
204,56,14273,1,2,0:0:0:0:
364,129,14428,1,0,0:0:0:0:
212,239,14582,2,0,P|166:253|116:266,1,88.000002685547,10|0,0:0|0:0,0:0:0:0:
32,68,14892,6,0,P|86:72|121:124,1,88.000002685547,6|0,0:0|0:0,0:0:0:0:
45,245,15201,1,10,0:0:0:0:
42,160,15356,1,2,0:0:0:0:
42,160,15433,1,0,0:0:0:0:
42,160,15510,1,0,0:0:0:0:
48,259,15665,2,0,P|34:325|28:359,1,88.000002685547,2|10,0:0|0:0,0:0:0:0:
121,117,15974,6,0,B|186:135|186:135|200:168|200:168|285:193,1,176.000005371094,4|0,0:0|0:0,0:0:0:0:
403,297,16438,2,0,P|426:246|410:196,1,88.000002685547,10|0,0:0|0:0,0:0:0:0:
499,174,16747,2,0,P|466:127|415:116,1,88.000002685547,2|0,0:0|0:0,0:0:0:0:
268,165,17057,1,10,0:0:0:0:
268,165,17134,1,0,0:0:0:0:
268,165,17211,2,0,P|304:152|327:134,1,44.0000013427735
366,101,17366,6,0,B|360:58|360:58|366:46|366:46|361:4,1,88.000002685547,6|0,0:0|0:0,0:0:0:0:
216,99,17675,1,10,0:0:0:0:
147,46,17830,1,2,0:0:0:0:
147,46,17907,1,0,0:0:0:0:
147,46,17984,1,0,0:0:0:0:
227,93,18139,2,0,P|211:161|204:210,1,88.000002685547,2|10,0:0|0:0,0:0:0:0:
81,350,18448,6,0,B|139:320|139:320|171:328|171:328|256:286,1,176.000005371094,6|0,0:0|0:0,0:0:0:0:
408,230,18912,2,0,P|388:267|371:335,1,88.000002685547,10|0,0:0|0:0,0:0:0:0:
384,343,19144,1,0,0:0:0:0:
384,343,19222,1,2,0:0:0:0:
311,231,19376,1,0,0:0:0:0:
412,144,19531,2,0,P|428:99|448:51,1,88.000002685547,10|0,0:0|0:0,0:0:0:0:
309,207,19840,6,0,B|195:167,1,88.000002685547,6|0,0:0|0:0,0:0:0:0:
71,145,20149,1,10,0:0:0:0:
209,162,20304,2,0,B|143:179|143:179|121:215|121:215|34:237,1,176.000005371094,6|0,0:0|0:0,0:0:0:0:
204,246,20768,1,2,0:0:0:0:
60,131,20923,5,2,0:0:0:0:
64,120,21232,1,2,0:0:0:0:
67,108,21541,6,0,B|169:135|101:188|219:217,1,176.000005371094,2|8,0:0|3:0,0:0:0:0:
280,155,22005,1,8,3:0:0:0:
340,201,22160,1,4,3:0:0:0:
388,177,22314,6,0,P|402:128|416:92,1,71.9999978027344,0|0,1:0|0:0,0:0:0:0:
338,78,22624,2,0,P|324:29|310:-7,1,71.9999978027344,0|0,1:0|0:0,0:0:0:0:
425,110,22933,2,0,P|399:251|396:274,1,143.999995605469,0|0,1:0|1:0,0:0:0:0:
438,377,23397,6,0,P|459:324|476:294,1,71.9999978027344,0|0,0:0|1:0,0:0:0:0:
396,269,23706,1,0,0:0:0:0:
325,319,23861,1,0,1:0:0:0:
259,260,24015,1,0,0:0:0:0:
203,325,24170,2,0,P|170:341|136:364,1,71.9999978027344,0|0,1:0|0:0,0:0:0:0:
59,334,24479,1,0,1:0:0:0:
59,334,24789,6,0,P|76:285|81:250,1,71.9999978027344,0|0,1:0|0:0,0:0:0:0:
26,199,25098,1,0,1:0:0:0:
26,199,25252,2,0,P|66:229|179:216,1,143.999995605469
212,161,25716,2,0,P|199:103|187:68,1,71.9999978027344,0|0,1:0|0:0,0:0:0:0:
341,16,26026,6,0,P|312:58|296:158,1,143.999995605469,0|0,1:0|1:0,0:0:0:0:
372,193,26490,1,2,0:0:0:0:
372,193,26567,1,2,0:0:0:0:
372,193,26644,2,0,B|399:206|399:206|497:176,2,107.999996704102,0|2|2,1:2|0:0|0:0,0:0:0:0:
297,251,27263,5,2,1:2:0:0:
316,268,27340,2,0,P|302:321|293:382,1,107.999996704102,2|0,0:0|1:0,0:0:0:0:
221,308,27727,2,0,P|171:325|139:335,1,71.9999978027344,0|0,0:0|1:0,0:0:0:0:
37,366,28036,2,0,P|59:322|67:271,1,71.9999978027344,0|0,0:0|1:0,0:0:0:0:
133,247,28345,6,0,P|109:185|96:81,1,143.999995605469
18,73,28809,2,0,P|40:29|48:-22,1,71.9999978027344,0|0,1:0|0:0,0:0:0:0:
165,65,29118,6,0,P|205:78|220:83,3,35.9999989013672,0|0|0|0,1:0|0:0|0:0|0:0,0:0:0:0:
250,137,29428,2,0,P|290:124|305:119,3,35.9999989013672,0|0|0|0,1:0|0:0|0:0|0:0,0:0:0:0:
339,55,29737,6,0,P|323:181|309:309,1,240,4|0,0:0|2:0,0:0:0:0:
354,376,30819,5,4,0:0:0:0:
359,384,31129,5,0,0:0:0:0:
287,321,31283,1,8,3:0:0:0:
408,234,31438,1,8,3:0:0:0:
288,135,31593,1,8,3:0:0:0:
278,125,31902,5,8,0:0:0:0:
248,129,31979,1,0,0:0:0:0:
218,134,32056,1,0,0:0:0:0:
189,139,32133,1,0,0:0:0:0:
161,142,32211,6,0,P|105:128|73:121,1,80,4|0,0:0|0:0,0:0:0:0:
32,281,32521,1,8,0:0:0:0:
111,246,32675,2,0,P|101:209|96:183,2,40
181,294,32984,2,0,P|171:366|165:405,1,80,0|8,0:0|0:0,0:0:0:0:
22,293,33294,6,0,P|9:211|-5:119,1,160
63,19,33758,1,8,0:0:0:0:
140,58,33912,2,0,P|172:45|197:35,2,40
56,29,34222,1,0,0:0:0:0:
149,146,34376,2,0,P|207:121|243:107,1,80,8|0,0:0|0:0,0:0:0:0:
402,26,34685,5,4,0:0:0:0:
307,55,34840,1,0,0:0:0:0:
475,108,34995,1,8,0:0:0:0:
382,278,35149,2,0,B|370:212|370:212|386:185|386:185|372:89,1,160,4|0,0:0|0:0,0:0:0:0:
491,256,35613,2,0,P|482:296|477:328,1,40,8|0,0:0|0:0,0:0:0:0:
497,370,35768,6,0,B|471:320|471:320|340:313,1,160,4|0,0:0|0:0,0:0:0:0:
192,371,36232,1,8,0:0:0:0:
234,253,36386,2,0,P|224:282|216:309,2,40
0,373,36696,6,0,B|51:360|51:360|70:309|70:309|141:286,1,160
141,305,37082,1,0,0:0:0:0:
141,305,37160,6,0,P|155:237|162:202,1,80,4|0,0:0|0:0,0:0:0:0:
132,63,37469,1,8,0:0:0:0:
103,143,37624,2,0,P|66:157|46:164,2,40
208,84,37933,1,0,0:0:0:0:
282,170,38088,1,8,0:0:0:0:
399,85,38242,6,0,P|380:144|358:255,1,160,4|0,0:0|0:0,0:0:0:0:
469,367,38706,1,8,0:0:0:0:
458,280,38861,2,0,P|474:241|483:218,2,40
356,346,39170,1,0,0:0:0:0:
260,269,39325,2,0,P|217:290|180:301,1,80,8|0,0:0|0:0,0:0:0:0:
11,258,39634,6,0,P|56:284|91:387,1,160,4|8,0:0|0:0,0:0:0:0:
135,234,40098,1,0,0:0:0:0:
135,234,40175,1,0,0:0:0:0:
135,234,40252,2,0,P|152:175|177:126,1,80
8,233,40562,1,8,0:0:0:0:
151,124,40716,6,0,B|198:140|198:140|207:159|207:159|269:179,1,120,4|0,0:0|0:0,0:0:0:0:
296,105,41026,6,0,P|289:68|285:45,1,40,0|0,0:0|2:0,0:0:0:0:
375,107,41180,2,0,P|368:70|364:47,1,40,8|0,3:0|2:0,0:0:0:0:
434,198,41335,6,0,P|427:235|423:258,1,40,8|0,3:0|2:0,0:0:0:0:
512,203,41490,1,8,3:0:0:0:
433,249,42108,6,0,P|386:261|318:313,1,128,0|0,1:0|1:0,0:0:0:0:
356,384,42572,1,0,0:0:0:0:
356,384,42727,2,0,P|306:344|245:325,1,128,0|0,1:0|1:0,0:0:0:0:
181,370,43191,1,0,0:0:0:0:
67,311,43345,6,0,P|78:265|86:229,1,64,0|0,1:0|0:0,0:0:0:0:
148,298,43655,2,0,P|159:252|167:216,1,64,0|0,1:0|0:0,0:0:0:0:
179,160,43964,2,0,P|148:202|63:219,1,128,0|0,1:0|1:0,0:0:0:0:
62,36,44582,6,0,P|133:46|217:60,1,128,0|0,1:0|1:0,0:0:0:0:
319,16,45046,2,0,P|297:49|279:92,1,64,0|0,0:0|1:0,0:0:0:0:
166,169,45356,2,0,P|147:132|143:124,2,32,0|0|0,0:0|0:0|1:0,0:0:0:0:
285,84,45665,6,0,B|314:106|314:106|422:79,1,128,2|0,0:0|0:0,0:0:0:0:
258,170,46129,2,0,P|245:203|237:251,1,64,0|0,1:0|0:0,0:0:0:0:
244,243,46593,1,8,0:0:0:0:
267,382,46747,1,8,0:0:0:0:
274,350,46824,1,8,0:0:0:0:
292,324,46901,1,8,0:0:0:0:
318,306,46978,1,8,0:0:0:0:
349,299,47057,6,0,L|444:316,1,80,4|0,0:0|0:0,0:0:0:0:
218,248,47366,1,8,0:0:0:0:
390,193,47521,2,0,B|325:209|325:209|315:226|315:226|233:245,1,160,4|0,0:0|0:0,0:0:0:0:
428,109,47984,1,8,0:0:0:0:
428,109,48294,6,0,P|449:55|466:27,1,80,4|0,0:0|0:0,0:0:0:0:
305,193,48603,1,8,0:0:0:0:
224,16,48758,2,0,P|270:22|329:84,1,120,4|0,0:0|0:0,0:0:0:0:
322,91,49067,1,0,0:0:0:0:
204,217,49222,1,8,0:0:0:0:
204,217,49685,6,0,P|162:201|138:195,1,40,8|0,0:0|2:0,0:0:0:0:
149,275,49840,2,0,P|107:259|83:253,1,40,8|0,0:0|2:0,0:0:0:0:
418,317,50149,6,0,L|472:301,1,40,8|0,0:0|2:0,0:0:0:0:
201,130,50459,6,0,P|159:114|135:108,1,40,8|0,0:0|2:0,0:0:0:0:
146,188,50613,2,0,P|104:172|80:166,1,40,8|0,0:0|2:0,0:0:0:0:
472,315,50923,6,0,P|488:259|493:241,1,40,8|0,0:0|2:0,0:0:0:0:
431,222,51077,2,0,P|447:166|452:148,1,40,8|0,0:0|2:0,0:0:0:0:
442,183,51850,6,0,B|388:177|341:217|400:236|341:292|252:272,1,191.999994140625,4|0,0:0|0:0,0:0:0:0:
233,84,52314,2,0,P|291:97|318:153,1,95.9999970703126,8|0,0:0|0:0,0:0:0:0:
317,152,52546,1,0,0:0:0:0:
317,152,52624,2,0,P|276:195|214:191,1,95.9999970703126
58,44,52933,1,8,0:0:0:0:
110,202,53088,6,0,P|142:74|175:8,1,191.999994140625,4|0,0:0|0:0,0:0:0:0:
14,159,53551,2,0,P|25:208|33:260,1,95.9999970703126,8|0,0:0|0:0,0:0:0:0:
18,274,53783,1,0,0:0:0:0:
18,274,53861,2,0,P|87:293|135:306,1,95.9999970703126
309,353,54170,1,8,0:0:0:0:
130,376,54325,6,0,B|194:358|194:358|212:301|212:301|291:273,1,191.999994140625,4|0,0:0|0:0,0:0:0:0:
435,258,54789,2,0,P|402:315|392:361,1,95.9999970703126,8|0,0:0|0:0,0:0:0:0:
345,230,55098,2,0,P|332:148|319:72,1,143.999995605469
316,64,55407,1,8,0:0:0:0:
108,157,55562,6,0,P|60:145|10:133,1,95.9999970703126,4|0,0:0|0:0,0:0:0:0:
166,67,55871,1,0,0:0:0:0:
248,204,56026,1,8,0:0:0:0:
380,109,56180,1,0,0:0:0:0:
380,109,56258,1,0,0:0:0:0:
380,109,56335,2,0,P|426:97|473:86,1,95.9999970703126
266,14,56644,2,0,P|274:57|280:88,1,47.9999985351563,8|0,0:0|0:0,0:0:0:0:
233,224,56799,6,0,B|214:235|201:250|201:250|147:265|90:220|111:147,1,207.999990478516,4|0,0:0|0:0,0:0:0:0:
298,167,57263,2,0,P|319:202|310:260,1,95.9999970703126,8|0,0:0|0:0,0:0:0:0:
300,277,57495,1,0,0:0:0:0:
300,277,57572,2,0,P|390:302|507:330,1,191.999994140625,0|8,0:0|0:0,0:0:0:0:
233,224,58036,6,0,B|166:246|166:246|156:282|156:282|54:320,1,191.999994140625,4|0,0:0|0:0,0:0:0:0:
38,132,58500,2,0,P|66:158|87:231,1,95.9999970703126,8|0,0:0|0:0,0:0:0:0:
182,10,58809,1,0,0:0:0:0:
107,57,58964,2,0,P|142:88|188:101,1,95.9999970703126,0|8,0:0|0:0,0:0:0:0:
331,274,59273,6,0,P|300:222|173:206,1,191.999994140625,4|0,0:0|0:0,0:0:0:0:
0,384,59737,2,0,P|64:365|120:350,1,95.9999970703126,8|0,0:0|0:0,0:0:0:0:
194,309,60046,1,0,0:0:0:0:
194,309,60124,1,0,0:0:0:0:
194,309,60201,1,0,0:0:0:0:
39,147,60356,1,8,0:0:0:0:
201,186,60510,6,0,P|144:181|60:288,1,191.999994140625,4|0,0:0|0:0,0:0:0:0:
222,166,60974,2,0,B|257:199|257:199|333:181,1,95.9999970703126,8|0,0:0|0:0,0:0:0:0:
328,180,61206,1,0,0:0:0:0:
328,180,61283,2,0,L|313:234,1,47.9999985351563
367,327,61438,1,0,0:0:0:0:
367,327,61515,1,0,0:0:0:0:
367,327,61593,2,0,P|412:311|429:305,1,47.9999985351563,8|0,0:0|0:0,0:0:0:0:
505,149,61747,6,0,B|488:177|488:177|443:212|375:202|351:141,1,191.999994140625,4|0,0:0|0:0,0:0:0:0:
474,27,62211,2,0,P|444:70|429:129,1,95.9999970703126,8|0,0:0|0:0,0:0:0:0:
286,221,62521,2,0,P|269:161|214:85,1,143.999995605469
203,81,62830,1,8,0:0:0:0:
13,185,62984,6,0,B|50:150|50:150|183:196,1,191.999994140625,4|0,0:0|0:0,0:0:0:0:
134,345,63448,2,0,P|117:291|70:250,1,95.9999970703126,8|0,0:0|0:0,0:0:0:0:
248,82,63758,2,0,P|204:110|188:213,1,143.999995605469
203,210,64067,1,8,0:0:0:0:
338,324,64222,6,0,B|347:296|336:277|336:277|242:256|213:336,1,191.999994140625,4|0,0:0|0:0,0:0:0:0:
494,230,64685,2,0,P|468:264|448:329,1,95.9999970703126,8|0,0:0|0:0,0:0:0:0:
357,126,64995,2,0,P|385:164|400:209,1,95.9999970703126
487,9,65304,1,8,0:0:0:0:
504,144,65459,6,0,P|453:113|397:-15,1,191.999994140625,4|0,0:0|0:0,0:0:0:0:
238,87,65923,2,0,P|185:73|124:65,1,95.9999970703126,8|0,0:0|0:0,0:0:0:0:
124,83,66155,1,0,0:0:0:0:
124,83,66232,1,0,0:0:0:0:
299,25,66386,2,0,P|323:75|310:131,1,95.9999970703126,0|8,0:0|0:0,0:0:0:0:
49,219,66696,6,0,B|49:195|38:171|38:171|89:148|142:164|166:221,1,191.999994140625,4|0,0:0|0:0,0:0:0:0:
201,369,67160,2,0,P|148:339|100:330,1,95.9999970703126,8|0,0:0|0:0,0:0:0:0:
93,346,67392,1,0,0:0:0:0:
93,346,67469,1,0,0:0:0:0:
235,269,67624,1,0,0:0:0:0:
160,209,67778,1,8,0:0:0:0:
299,375,67933,6,0,P|314:288|335:175,1,191.999994140625,4|0,0:0|0:0,0:0:0:0:
460,133,68397,2,0,P|447:77|439:33,1,95.9999970703126,8|0,0:0|0:0,0:0:0:0:
458,12,68629,1,0,0:0:0:0:
458,12,68706,2,0,P|418:28|356:10,1,95.9999970703126
216,140,69015,1,8,0:0:0:0:
348,118,69170,6,0,P|306:78|176:68,1,191.999994140625,4|0,0:0|0:0,0:0:0:0:
44,148,69634,6,0,P|51:177|60:209,3,47.9999985351563,8|0|0|0,0:0|0:0|0:0|0:0,0:0:0:0:
145,187,69943,2,0,P|138:216|129:248,3,47.9999985351563
13,261,70252,2,0,P|23:304|34:348,1,47.9999985351563,8|0,0:0|0:0,0:0:0:0:
151,377,70407,2,0,P|180:334|279:321,1,143.999995605469,4|0,0:0|0:0,0:0:0:0:
344,296,70716,6,0,P|390:308|412:314,1,47.9999985351563,8|0,3:0|0:0,0:0:0:0:
214,153,70871,2,0,P|168:165|146:171,1,47.9999985351563,8|0,0:0|0:0,0:0:0:0:
350,215,71026,6,0,P|396:227|418:233,1,47.9999985351563,8|0,3:0|0:0,0:0:0:0:
220,72,71180,1,8,0:0:0:0:
344,296,71490,5,4,3:0:0:0:
289,119,71799,5,12,0:0:0:0:
67,56,90201,5,8,0:0:0:0:
67,56,90510,1,8,0:0:0:0:
67,56,90819,1,8,0:0:0:0:
67,56,91129,5,0,0:0:0:0:
125,137,91283,1,8,0:0:0:0:
203,89,91438,1,8,3:0:0:0:
220,108,91593,6,0,P|226:135|235:177,1,47.9999985351563,2|0,0:0|0:0,0:0:0:0:
299,117,91902,2,0,P|305:144|314:186,1,47.9999985351563
374,208,92211,1,0,0:0:0:0:
374,208,92675,2,0,P|351:231|332:296,1,95.9999970703126,2|0,0:0|0:0,0:0:0:0:
285,353,93139,2,0,P|259:335|221:329,1,47.9999985351563,2|0,0:0|0:0,0:0:0:0:
221,256,93448,2,0,P|251:247|279:221,2,47.9999985351563,2|0|0,0:0|0:0|0:0,0:0:0:0:
32,358,94067,6,0,P|4:348|-21:343,2,47.9999985351563,2|0|2,0:0|0:0|0:0,0:0:0:0:
110,355,94531,2,0,P|103:304|98:255,1,95.9999970703126,2|0,0:0|0:0,0:0:0:0:
26,238,94995,2,0,P|40:189|46:172,1,47.9999985351563,2|2,0:0|0:0,0:0:0:0:
39,191,96232,1,2,0:0:0:0:
79,34,96541,6,0,P|83:61|88:102,1,47.9999985351563,2|0,0:0|0:0,0:0:0:0:
126,146,96850,1,0,0:0:0:0:
196,108,97005,1,2,0:0:0:0:
196,108,97314,2,0,P|198:76|202:53,1,47.9999985351563
265,17,97624,2,0,P|296:44|370:58,1,95.9999970703126,2|0,0:0|0:0,0:0:0:0:
416,26,98088,1,2,0:0:0:0:
476,78,98242,1,2,0:0:0:0:
476,78,98551,5,0,0:0:0:0:
415,142,98706,1,0,0:0:0:0:
510,207,98861,1,0,0:0:0:0:
371,300,99015,6,0,B|318:277|318:277|313:255|313:255|246:227,1,140,4|0,0:0|2:0,0:0:0:0:
188,201,99634,6,0,B|171:236|171:236|195:285,1,80
291,154,99943,1,0,0:0:0:0:
86,159,100098,6,0,B|102:160|129:172|129:172|172:178|214:148|217:101,1,160,4|0,0:0|0:0,0:0:0:0:
158,49,100562,5,8,0:0:0:0:
293,136,100716,1,0,0:0:0:0:
161,284,100871,1,8,0:0:0:0:
178,299,101180,5,8,0:0:0:0:
207,304,101257,1,0,0:0:0:0:
237,309,101334,1,0,0:0:0:0:
267,313,101411,1,0,0:0:0:0:
289,342,101490,6,0,P|340:329|387:319,1,80,4|0,0:0|0:0,0:0:0:0:
476,248,101799,1,8,0:0:0:0:
451,334,101953,2,0,P|460:363|468:384,2,40
361,308,102263,2,0,P|344:257|333:225,1,80,0|8,0:0|0:0,0:0:0:0:
482,137,102572,6,0,P|441:160|327:126,1,160
319,12,103036,2,0,P|356:18|391:62,1,80,8|0,0:0|0:0,0:0:0:0:
397,69,103268,1,0,0:0:0:0:
397,69,103345,1,0,0:0:0:0:
268,98,103500,1,0,0:0:0:0:
185,6,103655,1,8,0:0:0:0:
185,6,103964,5,4,0:0:0:0:
261,75,104118,1,0,0:0:0:0:
80,35,104273,1,8,0:0:0:0:
118,205,104428,2,0,P|136:141|153:102,1,80,4|0,0:0|0:0,0:0:0:0:
156,120,104660,1,0,0:0:0:0:
156,120,104737,1,0,0:0:0:0:
171,279,104892,2,0,P|146:289|108:302,1,40
52,313,105046,6,0,B|117:331|117:331|129:350|129:350|220:369,1,160,4|0,0:0|0:0,0:0:0:0:
364,384,105510,1,8,0:0:0:0:
342,260,105665,2,0,P|348:293|352:312,2,40
133,293,105974,6,0,B|190:277|190:277|209:235|209:235|289:209,1,160
275,234,106361,1,0,0:0:0:0:
275,234,106438,6,0,P|289:149|305:71,1,160,4|8,0:0|0:0,0:0:0:0:
223,40,106902,2,0,P|219:12|217:-10,2,40
138,118,107211,1,0,0:0:0:0:
42,54,107366,1,8,0:0:0:0:
2,212,107521,6,0,P|43:201|156:256,1,160,4|0,0:0|0:0,0:0:0:0:
230,360,107984,1,8,0:0:0:0:
144,331,108139,2,0,P|117:347|98:360,2,40
241,224,108448,1,0,0:0:0:0:
354,278,108603,2,0,P|374:334|388:368,1,80,8|0,0:0|0:0,0:0:0:0:
248,240,108912,6,0,P|266:118|277:45,1,160,4|8,0:0|0:0,0:0:0:0:
209,25,109376,1,0,0:0:0:0:
209,25,109453,1,0,0:0:0:0:
209,25,109531,2,0,P|170:51|120:62,1,80
292,0,109840,1,8,0:0:0:0:
177,163,109995,6,0,B|128:154|128:154|120:139|120:139|43:122,1,120,4|0,0:0|0:0,0:0:0:0:
4,177,110304,6,0,L|17:236,1,40,0|0,0:0|2:0,0:0:0:0:
9,245,110459,2,0,L|22:304,1,40,8|0,0:0|2:0,0:0:0:0:
204,345,110613,6,0,L|212:305,1,40,0|0,0:0|2:0,0:0:0:0:
209,277,110768,1,8,0:0:0:0:
37,371,111077,6,0,B|47:371|47:371|77:350,3,40
102,279,111386,6,0,B|149:272|183:305|154:328|190:353|238:349,1,160,4|8,0:0|0:0,0:0:0:0:
309,329,111850,2,0,P|293:287|259:271,1,80
380,277,112160,2,0,P|364:235|330:219,1,80,0|8,0:0|0:0,0:0:0:0:
180,273,112469,1,0,0:0:0:0:
180,273,112778,5,0,0:0:0:0:
326,203,112933,2,0,P|389:214|430:221,1,80,8|0,0:0|0:0,0:0:0:0:
436,240,113165,1,0,0:0:0:0:
436,240,113242,6,0,P|425:183|418:131,1,80,4|0,0:0|0:0,0:0:0:0:
486,7,113551,1,8,0:0:0:0:
511,98,113705,2,0,P|430:77|331:54,1,160
291,3,114169,1,8,0:0:0:0:
138,107,114324,1,0,0:0:0:0:
138,107,114633,6,0,P|146:142|150:166,1,40
185,232,114788,5,0,0:0:0:0:
206,192,114865,1,0,0:0:0:0:
241,171,114943,1,0,0:0:0:0:
265,167,115020,1,0,0:0:0:0:
294,175,115097,2,0,L|279:224,3,40,8|0|0|0,0:0|0:0|0:0|0:0,0:0:0:0:
297,242,115406,5,4,0:0:0:0:
461,269,115560,2,0,P|491:273|523:280,2,40,0|0|8,0:0|0:0|0:0,0:0:0:0:
389,224,115869,2,0,P|407:194|473:200,1,80
340,149,116179,2,0,P|358:119|424:125,1,80,0|8,0:0|0:0,0:0:0:0:
218,27,116488,1,4,0:0:0:0:
218,27,116797,6,0,P|212:61|203:92,1,40
236,138,116952,1,8,0:0:0:0:
134,55,117107,1,0,0:0:0:0:
95,185,117261,2,0,P|109:226|116:248,3,40
134,228,117570,1,8,0:0:0:0:
124,256,117647,1,0,0:0:0:0:
117,285,117724,1,0,0:0:0:0:
110,314,117801,1,0,0:0:0:0:
106,344,117879,5,0,0:0:0:0:
106,344,118189,2,0,P|165:334|197:330,1,71.9999978027344
241,261,118498,2,0,P|205:255|169:249,1,71.9999978027344
106,178,118808,2,0,P|141:172|177:166,1,71.9999978027344
224,59,119117,5,0,0:0:0:0:
224,59,119271,1,0,0:0:0:0:
298,103,119426,2,0,P|308:149|320:201,1,71.9999978027344
384,231,119735,1,0,0:0:0:0:
384,231,119890,1,0,0:0:0:0:
463,182,120045,2,0,P|470:146|478:111,1,71.9999978027344
373,241,120354,5,0,0:0:0:0:
258,308,120509,1,0,0:0:0:0:
348,331,120663,1,0,0:0:0:0:
281,216,120818,1,0,0:0:0:0:
435,316,120973,6,0,P|485:303|517:296,1,80
223,324,121282,2,0,P|187:315|142:306,1,80
421,231,121591,5,8,0:0:0:0:
180,167,121746,1,8,0:0:0:0:
399,91,122210,5,8,0:0:0:0:
198,153,122365,1,8,0:0:0:0:
198,153,122828,6,0,P|177:216|174:283,1,128,0|0,1:0|1:0,0:0:0:0:
158,359,123292,1,0,0:0:0:0:
158,359,123447,2,0,P|202:309|258:273,1,128,0|0,1:0|1:0,0:0:0:0:
320,319,123911,1,0,0:0:0:0:
479,284,124065,6,0,P|469:231|464:193,1,64,0|0,1:0|0:0,0:0:0:0:
383,222,124375,2,0,P|393:169|398:131,1,64,0|0,1:0|0:0,0:0:0:0:
494,138,124684,2,0,P|484:85|479:47,1,64,0|0,1:0|0:0,0:0:0:0:
398,76,124994,2,0,P|408:23|413:-15,1,64,0|0,1:0|0:0,0:0:0:0:
327,116,125302,6,0,P|258:152|190:142,1,128,0|0,1:0|1:0,0:0:0:0:
49,79,125766,2,0,P|28:36|21:10,1,64,0|0,0:0|1:0,0:0:0:0:
171,31,126076,2,0,P|154:68|147:85,2,32,0|0|0,0:0|0:0|1:0,0:0:0:0:
90,173,126385,6,0,P|102:240|117:314,1,128,2|0,0:0|0:0,0:0:0:0:
9,370,126849,2,0,P|14:329|22:284,1,64,0|0,1:0|0:0,0:0:0:0:
16,285,127313,1,8,0:0:0:0:
167,361,127467,1,0,0:0:0:0:
197,352,127544,1,0,0:0:0:0:
228,344,127621,1,0,0:0:0:0:
259,337,127698,1,0,0:0:0:0:
291,329,127777,6,0,P|335:340|392:357,1,80,4|0,0:0|0:0,0:0:0:0:
206,261,128086,1,8,0:0:0:0:
401,213,128241,2,0,B|380:227|364:243|364:243|299:261|277:192,1,160,4|0,0:0|0:0,0:0:0:0:
387,18,128704,2,0,P|411:45|409:110,1,80,8|0,0:0|0:0,0:0:0:0:
225,128,129014,6,0,L|206:24,1,80,4|0,0:0|0:0,0:0:0:0:
79,207,129323,1,8,0:0:0:0:
79,207,129400,1,0,0:0:0:0:
79,207,129478,2,0,L|93:59,1,120,4|0,0:0|0:0,0:0:0:0:
99,60,129787,1,0,0:0:0:0:
177,227,129942,2,0,P|163:283|154:319,1,80,8|0,0:0|0:0,0:0:0:0:
159,321,130406,6,0,P|127:338|106:350,1,40,8|0,0:0|2:0,0:0:0:0:
99,322,130560,2,0,P|67:339|46:351,1,40,8|0,0:0|2:0,0:0:0:0:
16,271,130715,1,0,0:0:0:0:
16,271,130792,1,0,0:0:0:0:
16,271,130869,6,0,P|25:229|32:197,1,40,8|0,0:0|2:0,0:0:0:0:
31,143,131024,1,0,0:0:0:0:
31,143,131101,1,0,0:0:0:0:
31,143,131179,6,0,P|63:160|84:172,1,40,8|0,0:0|2:0,0:0:0:0:
91,144,131333,2,0,P|123:161|144:173,1,40,0|0,0:0|2:0,0:0:0:0:
354,360,131643,6,0,L|371:313,1,40,8|0,0:0|2:0,0:0:0:0:
296,303,131797,2,0,L|313:256,1,40,8|0,0:0|2:0,0:0:0:0:
449,6,132570,6,0,B|482:29|469:70|469:70|344:101,1,191.999994140625,4|0,0:0|0:0,0:0:0:0:
197,11,133034,2,0,P|225:23|252:86,1,95.9999970703126,8|0,0:0|0:0,0:0:0:0:
243,106,133266,1,0,0:0:0:0:
243,106,133344,2,0,L|145:91,1,95.9999970703126
29,265,133653,1,8,0:0:0:0:
49,80,133808,6,0,P|82:140|125:283,1,191.999994140625,4|0,0:0|0:0,0:0:0:0:
262,384,134271,2,0,L|288:289,1,95.9999970703126,8|0,0:0|0:0,0:0:0:0:
312,284,134503,1,0,0:0:0:0:
312,284,134581,2,0,P|272:288|219:256,1,95.9999970703126
29,379,134890,1,8,0:0:0:0:
182,372,135045,6,0,B|120:345|120:345|115:288|115:288|40:253,1,191.999994140625,4|0,0:0|0:0,0:0:0:0:
155,211,135509,2,0,P|170:150|186:113,1,95.9999970703126,8|0,0:0|0:0,0:0:0:0:
261,23,135818,1,0,0:0:0:0:
261,23,135973,1,0,0:0:0:0:
108,97,136127,1,8,0:0:0:0:
265,198,136282,6,0,P|316:180|363:166,1,95.9999970703126,4|0,0:0|0:0,0:0:0:0:
194,101,136591,1,0,0:0:0:0:
77,174,136746,1,8,0:0:0:0:
11,31,136900,1,0,0:0:0:0:
11,31,136978,1,0,0:0:0:0:
11,31,137055,2,0,P|62:49|109:63,1,95.9999970703126
183,249,137364,2,0,P|167:200|160:176,1,47.9999985351563,8|0,0:0|0:0,0:0:0:0:
265,50,137519,6,0,B|293:27|317:31|317:31|287:100|269:196,1,207.999990478516,4|0,0:0|0:0,0:0:0:0:
464,279,137983,2,0,P|445:218|441:172,1,95.9999970703126,8|0,0:0|0:0,0:0:0:0:
455,167,138215,1,0,0:0:0:0:
455,167,138292,2,0,P|382:180|345:189,1,95.9999970703126
197,341,138601,1,8,0:0:0:0:
352,338,138756,6,0,B|298:316|298:316|286:243|286:243|212:217,1,191.999994140625,4|0,0:0|0:0,0:0:0:0:
33,308,139220,2,0,P|73:312|136:270,1,95.9999970703126,8|0,0:0|0:0,0:0:0:0:
131,268,139452,1,0,0:0:0:0:
131,268,139529,1,0,0:0:0:0:
33,126,139684,2,0,P|53:181|58:235,1,95.9999970703126,0|8,0:0|0:0,0:0:0:0:
234,362,139993,6,0,P|244:287|337:189,1,191.999994140625,4|0,0:0|0:0,0:0:0:0:
150,75,140457,2,0,P|166:104|234:144,1,95.9999970703126,8|0,0:0|0:0,0:0:0:0:
311,94,140766,1,0,0:0:0:0:
311,94,140844,1,0,0:0:0:0:
311,94,140921,1,0,0:0:0:0:
385,280,141076,1,8,0:0:0:0:
467,117,141230,6,0,P|407:124|319:230,1,191.999994140625,4|0,0:0|0:0,0:0:0:0:
492,143,141694,1,8,0:0:0:0:
492,143,141771,2,0,B|511:101|511:101|486:48,1,95.9999970703126
435,2,142003,5,0,0:0:0:0:
428,25,142081,1,0,0:0:0:0:
403,58,142158,1,0,0:0:0:0:
365,83,142235,1,0,0:0:0:0:
317,89,142313,1,8,0:0:0:0:
271,69,142390,1,0,0:0:0:0:
269,41,142467,6,0,B|293:77|293:77|251:221,1,191.999994140625,4|0,0:0|0:0,0:0:0:0:
89,347,142931,2,0,P|77:302|45:257,1,95.9999970703126,8|0,0:0|0:0,0:0:0:0:
28,254,143163,1,0,0:0:0:0:
28,254,143241,1,0,0:0:0:0:
189,340,143395,1,0,0:0:0:0:
184,158,143550,1,8,0:0:0:0:
134,251,143704,6,0,B|194:240|194:240|239:275|239:275|323:260,1,191.999994140625,4|0,0:0|0:0,0:0:0:0:
336,81,144168,2,0,P|295:109|282:168,1,95.9999970703126,8|0,0:0|0:0,0:0:0:0:
297,181,144400,1,0,0:0:0:0:
297,181,144478,2,0,L|390:159,1,95.9999970703126
493,372,144787,1,8,0:0:0:0:
510,219,144942,6,0,B|493:214|478:195|478:195|429:207|400:270|434:323,1,191.999994140625,4|0,0:0|0:0,0:0:0:0:
254,343,145406,2,0,P|299:348|375:389,1,95.9999970703126,8|0,0:0|0:0,0:0:0:0:
165,249,145714,2,0,P|210:244|286:203,1,95.9999970703126
7,338,146024,1,8,0:0:0:0:
174,382,146179,6,0,P|116:344|63:205,1,191.999994140625,4|0,0:0|0:0,0:0:0:0:
175,86,146643,2,0,P|156:134|135:201,1,95.9999970703126,8|0,0:0|0:0,0:0:0:0:
153,210,146875,1,0,0:0:0:0:
153,210,146952,1,0,0:0:0:0:
97,44,147107,2,0,P|135:7|205:3,1,95.9999970703126,0|8,0:0|0:0,0:0:0:0:
256,179,147416,6,0,B|304:175|350:201|350:201|366:151|425:130,1,191.999994140625,4|0,0:0|0:0,0:0:0:0:
353,322,147880,2,0,P|321:281|275:263,1,95.9999970703126,8|0,0:0|0:0,0:0:0:0:
258,279,148112,1,0,0:0:0:0:
258,279,148189,1,0,0:0:0:0:
417,382,148344,1,0,0:0:0:0:
427,193,148498,1,8,0:0:0:0:
287,370,148653,6,0,L|84:338,1,191.999994140625,4|0,0:0|0:0,0:0:0:0:
15,147,149117,2,0,P|28:192|39:254,1,95.9999970703126,8|0,0:0|0:0,0:0:0:0:
27,273,149349,1,0,0:0:0:0:
27,273,149426,2,0,L|132:248,1,95.9999970703126
213,45,149735,1,8,0:0:0:0:
246,212,149890,6,0,P|184:188|136:43,1,191.999994140625,4|0,0:0|0:0,0:0:0:0:
320,164,150354,1,8,0:0:0:0:
320,164,150431,1,0,0:0:0:0:
320,164,150509,2,0,P|330:191|329:228,1,47.9999985351563
402,234,150663,2,0,L|466:225,1,47.9999985351563
453,304,150818,2,0,L|389:316,1,47.9999985351563,8|0,0:0|0:0,0:0:0:0:
335,285,150973,2,0,P|294:296|267:300,1,47.9999985351563
106,361,151127,6,0,B|143:368|159:337|159:337|195:177,1,191.999994140625,4|0,0:0|0:0,0:0:0:0:
107,71,151591,2,0,P|155:79|169:82,1,47.9999985351563,8|0,0:0|0:0,0:0:0:0:
171,111,151746,2,0,P|219:102|233:99,1,47.9999985351563
243,20,151900,5,8,3:0:0:0:
112,164,152055,1,4,3:0:0:0:
303,204,152210,1,8,0:0:0:0:
250,31,152364,6,0,L|437:65,1,160,4|0,0:0|0:0,0:0:0:0:
322,125,152828,2,0,L|415:142,1,80
427,294,153137,2,0,P|446:225|518:142,1,160,8|0,0:0|0:0,0:0:0:0:
324,250,153601,6,0,P|294:286|165:311,1,160
201,228,154065,2,0,P|177:224|132:187,1,80
241,27,154375,2,0,L|274:213,1,160,8|0,0:0|0:0,0:0:0:0:
174,105,154838,1,8,0:0:0:0:
154,277,154993,6,0,P|118:292|84:316,1,53.3333333333333,8|0,0:0|0:0,0:0:0:0:
0,342,155199,6,0,P|5:303|1:261,1,53.3333333333333,8|0,0:0|0:0,0:0:0:0:
20,177,155406,6,0,P|50:200|88:218,1,53.3333333333333,8|0,0:0|0:0,0:0:0:0:
157,257,155612,6,0,B|243:278|186:340|304:355,1,160,4|8,0:0|0:0,0:0:0:0:
425,212,156076,2,0,P|371:200|289:271,1,160,0|8,0:0|0:0,0:0:0:0:
169,132,156540,2,0,P|213:158|241:207,1,80
339,4,156849,2,0,P|321:59|298:145,1,120
369,167,157158,6,0,P|378:205|386:243,1,53.3333333333333,8|8,0:0|0:0,0:0:0:0:
410,321,157364,5,8,0:0:0:0:
428,298,157467,6,0,B|371:314|371:314|358:347|358:347|272:371,1,160,4|0,0:0|0:0,0:0:0:0:
212,381,157931,1,0,0:0:0:0:
101,275,158086,2,0,B|136:250|136:250|250:304,1,160,8|0,0:0|0:0,0:0:0:0:
45,353,158550,6,0,P|29:295|-10:201,1,160,0|8,0:0|0:0,0:0:0:0:
147,163,159014,2,0,P|171:102|197:70,1,80
199,73,159246,1,0,0:0:0:0:
199,73,159323,1,8,0:0:0:0:
56,132,159478,1,0,0:0:0:0:
56,132,159555,1,0,0:0:0:0:
56,132,159632,1,0,0:0:0:0:
256,192,159787,5,2,2:0:0:0:
256,192,159864,12,0,162107,0:0:0:0:
456,29,162416,6,0,B|449:62|449:62|436:72|436:72|428:122,1,88.000002685547,6|0,0:0|0:0,0:0:0:0:
417,277,162725,1,10,0:0:0:0:
386,199,162880,1,0,0:0:0:0:
396,194,162957,1,0,0:0:0:0:
407,192,163034,1,2,0:0:0:0:
423,291,163189,2,0,P|412:349|401:406,1,88.000002685547,0|10,0:0|0:0,0:0:0:0:
423,192,163498,6,0,B|371:184|371:184|326:232|326:232|261:223,1,176.000005371094,6|0,0:0|0:0,0:0:0:0:
114,351,163962,2,0,P|152:337|186:275,1,88.000002685547,10|0,0:0|0:0,0:0:0:0:
182,288,164194,1,0,0:0:0:0:
179,277,164271,1,2,0:0:0:0:
92,174,164426,1,0,0:0:0:0:
24,228,164581,2,0,P|55:253|125:252,1,88.000002685547,10|0,0:0|0:0,0:0:0:0:
179,100,164890,6,0,B|188:137|188:137|185:152|185:152|200:210,1,88.000002685547,6|0,0:0|0:0,0:0:0:0:
102,41,165199,1,10,0:0:0:0:
190,4,165354,2,0,P|262:27|308:37,1,88.000002685547,2|0,0:0|0:0,0:0:0:0:
285,34,165586,1,0,0:0:0:0:
297,35,165663,1,0,0:0:0:0:
421,189,165818,1,10,0:0:0:0:
414,11,165973,6,0,B|380:22|380:22|366:121|366:121|311:143,1,176.000005371094,6|0,0:0|0:0,0:0:0:0:
254,267,166436,2,0,P|303:249|362:266,1,88.000002685547,10|0,0:0|0:0,0:0:0:0:
403,197,166746,2,0,P|443:231|458:291,1,88.000002685547,2|0,0:0|0:0,0:0:0:0:
266,369,167055,2,0,L|118:350,1,132.00000402832,10|0,0:0|0:0,0:0:0:0:
61,376,167364,6,0,B|51:340|51:340|57:328|57:328|47:283,1,88.000002685547,6|0,0:0|0:0,0:0:0:0:
69,129,167674,1,10,0:0:0:0:
8,191,167828,1,0,0:0:0:0:
15,198,167905,1,0,0:0:0:0:
24,205,167982,1,0,0:0:0:0:
75,140,168137,2,0,L|56:39,1,88.000002685547,2|10,0:0|0:0,0:0:0:0:
66,275,168447,6,0,B|136:256|136:256|157:270|157:270|244:246,1,176.000005371094,6|0,0:0|0:0,0:0:0:0:
441,200,168911,2,0,P|415:251|400:308,1,88.000002685547,10|0,0:0|0:0,0:0:0:0:
406,291,169143,1,0,0:0:0:0:
409,303,169220,1,2,0:0:0:0:
316,175,169375,1,0,0:0:0:0:
423,62,169529,1,10,0:0:0:0:
423,62,169838,6,0,B|380:51|380:51|372:53|372:53|320:41,1,88.000002685547,6|0,0:0|0:0,0:0:0:0:
498,12,170148,1,8,0:0:0:0:
505,166,170302,1,2,0:0:0:0:
505,166,170380,1,0,0:0:0:0:
505,166,170457,2,0,L|405:142,1,88.000002685547,0|2,0:0|0:0,0:0:0:0:
317,319,170766,1,10,0:0:0:0:
304,160,170921,6,0,P|358:190|394:322,1,176.000005371094,2|0,0:0|0:0,0:0:0:0:
216,216,171385,2,0,P|223:151|229:109,1,88.000002685547,10|2,0:0|0:0,0:0:0:0:
236,55,171617,1,0,0:0:0:0:
238,43,171694,1,10,0:0:0:0:
306,178,171849,1,0,0:0:0:0:
133,169,172003,1,10,0:0:0:0:
101,157,172080,1,0,0:0:0:0:
70,147,172157,1,0,0:0:0:0:
39,137,172234,1,0,0:0:0:0:
7,128,172313,6,0,B|12:164|12:164|11:179|11:179|22:235,1,88.000002685547,6|0,0:0|0:0,0:0:0:0:
81,384,172622,1,10,0:0:0:0:
9,332,172777,1,0,0:0:0:0:
11,321,172854,1,0,0:0:0:0:
13,310,172931,1,2,0:0:0:0:
165,362,173086,1,0,0:0:0:0:
305,270,173241,1,10,0:0:0:0:
293,364,173395,6,0,B|243:347|243:347|231:281|231:281|142:247,1,176.000005371094,6|0,0:0|0:0,0:0:0:0:
392,356,173859,2,0,P|428:342|457:275,1,88.000002685547,10|0,0:0|0:0,0:0:0:0:
458,291,174091,1,0,0:0:0:0:
456,281,174168,1,2,0:0:0:0:
358,182,174323,1,0,0:0:0:0:
297,238,174478,2,0,P|327:262|399:253,1,88.000002685547,10|0,0:0|0:0,0:0:0:0:
463,113,174787,6,0,B|457:74|457:74|461:63|461:63|456:20,1,88.000002685547,6|0,0:0|0:0,0:0:0:0:
347,168,175096,1,10,0:0:0:0:
286,105,175251,2,0,P|239:92|201:83,1,88.000002685547,2|0,0:0|0:0,0:0:0:0:
190,85,175483,1,0,0:0:0:0:
178,88,175560,1,2,0:0:0:0:
12,169,175715,1,10,0:0:0:0:
92,14,175869,6,0,B|103:74|103:74|89:97|89:97|106:196,1,176.000005371094,6|0,0:0|0:0,0:0:0:0:
195,281,176333,2,0,P|220:223|249:180,1,88.000002685547,10|0,0:0|0:0,0:0:0:0:
121,364,176643,2,0,P|96:306|67:263,1,88.000002685547,2|0,0:0|0:0,0:0:0:0:
256,353,176952,1,10,0:0:0:0:
256,353,177029,1,0,0:0:0:0:
256,353,177107,2,0,P|284:364|338:365,1,44.0000013427735
351,305,177261,6,0,B|387:301|387:301|393:306|393:306|448:299,1,88.000002685547,6|0,0:0|0:0,0:0:0:0:
497,147,177570,1,10,0:0:0:0:
503,231,177725,1,0,0:0:0:0:
504,241,177802,1,0,0:0:0:0:
506,252,177879,1,0,0:0:0:0:
414,142,178034,1,2,0:0:0:0:
283,184,178189,1,8,0:0:0:0:
410,124,178344,6,0,B|352:105|352:105|348:58|348:58|277:31,1,176.000005371094,6|0,0:0|0:0,0:0:0:0:
137,17,178808,2,0,P|165:54|182:114,1,88.000002685547,10|0,0:0|0:0,0:0:0:0:
177,106,179040,1,0,0:0:0:0:
169,118,179117,1,2,0:0:0:0:
95,225,179271,1,0,0:0:0:0:
173,348,179426,2,0,P|248:326|296:309,1,88.000002685547,10|0,0:0|0:0,0:0:0:0:
101,244,179735,6,0,B|93:278|93:278|79:291|79:291|68:344,1,88.000002685547,6|0,0:0|0:0,0:0:0:0:
38,155,180045,1,10,0:0:0:0:
34,133,180122,1,8,0:0:0:0:
28,110,180199,2,0,P|35:73|42:44,1,44.0000013427735,8|0,3:0|0:0,0:0:0:0:
112,70,180354,2,0,P|119:33|126:4,2,44.0000013427735,4|0|0,3:0|0:0|0:0,0:0:0:0:
189,252,180663,1,10,0:0:0:0:
362,176,180818,6,0,B|405:196|405:196|405:283|405:283|455:305,1,176.000005371094,6|0,0:0|0:0,0:0:0:0:
351,157,181282,2,0,B|308:158|308:158|275:201,1,88.000002685547,10|0,0:0|0:0,0:0:0:0:
268,269,181514,1,0,0:0:0:0:
275,278,181591,6,0,P|211:293|181:302,1,88.000002685547,10|0,0:0|0:0,0:0:0:0:
128,264,181823,2,0,P|147:201|154:170,1,88.000002685547,10|0,0:0|0:0,0:0:0:0:
157,106,182055,1,10,0:0:0:0:
56,308,182210,5,4,0:0:0:0:
256,192,182287,12,4,187158,2:1:0:0:
