osu file format v14

[General]
AudioFilename: audio.mp3
AudioLeadIn: 0
PreviewTime: 132107
Countdown: 0
SampleSet: Normal
StackLeniency: 0.7
Mode: 0
LetterboxInBreaks: 0
WidescreenStoryboard: 1

[Editor]
Bookmarks: 31862,71914,122943,126500,132840,162531,182325
DistanceSpacing: 1
BeatDivisor: 4
GridSize: 4
TimelineZoom: 1.7

[Metadata]
Title:berserk
TitleUnicode:ベルセルク
Artist:mafumafu
ArtistUnicode:まふまふ
Creator:Mafumafu
Version:Jon's Normal
Source:
Tags:jrock j-rock rock japanese kuro crest story クロクレストストーリー HabiHolic William K William_K Jonarwhal regraz
BeatmapID:2637676
BeatmapSetID:1191038

[Difficulty]
HPDrainRate:4
CircleSize:3
OverallDifficulty:4
ApproachRate:5.5
SliderMultiplier:1
SliderTickRate:1

[Events]
//Background and Video events
0,0,"BG.jpg",0,0
//Break Periods
2,91793,97426
//Storyboard Layer 0 (Background)
//Storyboard Layer 1 (Fail)
//Storyboard Layer 2 (Pass)
//Storyboard Layer 3 (Foreground)
//Storyboard Layer 4 (Overlay)
//Storyboard Sound Samples

[TimingPoints]
967,309.278350515464,4,2,1,70,1,0
2521,309.278350515464,4,1,1,70,1,0
22314,-100,4,2,1,50,0,0
29737,-100,4,1,1,70,0,0
30819,-100,4,1,1,60,0,0
42108,-100,4,2,1,50,0,0
46593,-100,4,1,1,70,0,0
51850,-100,4,1,1,70,0,1
71799,-100,4,1,1,70,0,0
91593,-100,4,2,0,50,0,0
99015,-100,4,1,1,70,0,0
101490,-100,4,1,1,60,0,0
113242,309.278350515464,4,1,1,60,1,0
115406,309.278350515464,4,1,1,60,1,0
117880,-100,4,1,1,50,0,0
119271,-100,4,1,1,60,0,0
120354,-100,4,1,1,70,0,0
121591,-100,4,1,1,80,0,0
122828,-100,4,2,1,50,0,0
127313,-100,4,1,1,70,0,0
132570,-100,4,1,1,70,0,1
152519,-100,4,1,1,70,0,0

[Colours]
Combo1 : 252,199,241
Combo2 : 117,34,34
Combo3 : 253,196,196
Combo4 : 111,0,88

[HitObjects]
60,52,2521,5,6,0:0:0:0:
112,141,2830,1,10,0:0:0:0:
112,141,2984,2,0,L|212:152,1,100,2|2,0:0|0:0,0:0:0:0:
256,128,3448,1,10,0:0:0:0:
296,101,3603,2,0,L|396:112,1,100,6|0,0:0|0:0,0:0:0:0:
444,128,4067,1,10,0:0:0:0:
463,228,4376,2,0,P|442:274|447:324,1,100,2|10,0:0|0:0,0:0:0:0:
359,372,4995,5,6,0:0:0:0:
281,319,5304,1,10,0:0:0:0:
281,319,5459,2,0,L|165:315,1,100,2|2,0:0|0:0,0:0:0:0:
131,319,5923,1,10,0:0:0:0:
81,324,6077,2,0,P|87:259|37:181,1,150,6|10,0:0|0:0,0:0:0:0:
68,90,6850,2,0,B|91:73|91:73|162:81,1,100,2|10,0:0|0:0,0:0:0:0:
255,116,7469,5,6,0:0:0:0:
351,80,7778,1,10,0:0:0:0:
351,80,7933,2,0,B|422:72|422:72|446:89,1,100,2|2,0:0|0:0,0:0:0:0:
468,133,8397,1,10,0:0:0:0:
485,178,8551,2,0,P|438:247|450:324,1,150,6|10,0:0|0:0,0:0:0:0:
347,346,9325,2,0,P|297:350|252:330,1,100,2|10,0:0|0:0,0:0:0:0:
315,252,9943,5,6,0:0:0:0:
289,160,10252,1,10,0:0:0:0:
289,160,10407,2,0,L|182:152,1,100,2|2,0:0|0:0,0:0:0:0:
143,173,10871,1,10,0:0:0:0:
143,173,11026,2,0,L|141:51,2,100,6|0|0,0:0|0:0|0:0,0:0:0:0:
93,259,11953,2,0,L|96:328,1,50,0|10,0:0|0:0,0:0:0:0:
192,350,12417,5,6,0:0:0:0:
296,349,12727,1,10,0:0:0:0:
296,349,12881,2,0,L|308:239,1,100,2|2,0:0|0:0,0:0:0:0:
351,226,13345,1,10,0:0:0:0:
395,203,13500,2,0,L|384:103,1,100,6|0,0:0|0:0,0:0:0:0:
360,59,13964,2,0,P|312:43|263:51,1,100,10|2,0:0|0:0,0:0:0:0:
172,91,14582,1,10,0:0:0:0:
84,41,14892,5,6,0:0:0:0:
28,129,15201,1,10,0:0:0:0:
28,129,15356,2,0,B|53:162|53:162|46:254,1,100,2|2,0:0|0:0,0:0:0:0:
43,269,15819,1,10,0:0:0:0:
62,315,15974,2,0,P|102:339|204:321,1,150,4|10,0:0|0:0,0:0:0:0:
297,298,16747,1,2,0:0:0:0:
256,204,17057,1,10,0:0:0:0:
217,111,17366,5,6,0:0:0:0:
316,100,17675,1,10,0:0:0:0:
316,100,17830,2,0,L|428:92,1,100,2|2,0:0|0:0,0:0:0:0:
454,124,18294,1,10,0:0:0:0:
455,173,18448,2,0,P|463:233|397:293,1,150,6|10,0:0|0:0,0:0:0:0:
303,266,19222,2,0,B|256:251|256:251|208:266,1,100,2|10,0:0|0:0,0:0:0:0:
111,288,19840,5,6,0:0:0:0:
50,215,20149,1,10,0:0:0:0:
50,215,20304,2,0,L|61:95,1,100,6|0,0:0|0:0,0:0:0:0:
90,76,20768,1,2,0:0:0:0:
90,76,20923,1,2,0:0:0:0:
188,58,21232,1,2,0:0:0:0:
286,41,21541,1,2,0:0:0:0:
431,156,22314,6,0,L|438:222,1,50,0|0,1:0|0:0,0:0:0:0:
471,241,22624,2,0,L|462:358,1,100,0|0,1:0|1:0,0:0:0:0:
313,353,23397,2,0,P|262:357|218:334,1,100
182,301,23861,1,0,1:0:0:0:
204,203,24170,2,0,L|191:103,1,100,0|0,1:0|1:0,0:0:0:0:
92,76,24789,6,0,L|79:183,1,100,0|0,1:0|1:0,0:0:0:0:
43,209,25252,2,0,L|56:316,1,100
80,351,25716,2,0,L|138:362,1,50,0|0,1:0|0:0,0:0:0:0:
353,248,26644,1,2,1:2:0:0:
328,344,26953,1,0,1:0:0:0:
424,317,27263,6,0,P|456:274|455:217,1,100,0|0,1:0|1:0,0:0:0:0:
432,186,27727,2,0,P|398:145|394:84,1,100
396,50,28191,1,0,1:0:0:0:
349,27,28345,2,0,L|235:34,1,100
202,51,28809,2,0,L|136:48,1,50,0|0,1:0|0:0,0:0:0:0:
51,54,29273,1,0,0:0:0:0:
34,101,29428,2,0,L|41:150,1,50,0|0,1:0|0:0,0:0:0:0:
64,194,29737,6,0,P|61:242|92:287,1,100,4|0,0:0|0:0,0:0:0:0:
125,317,30201,2,0,B|142:347|142:347|228:352,1,100
304,350,30819,2,0,B|370:347|370:347|387:317,1,100,4|0,0:0|0:0,0:0:0:0:
436,313,31283,2,0,L|435:250,1,50,8|8,3:0|3:0,0:0:0:0:
474,231,31593,1,8,3:0:0:0:
468,33,32211,6,0,L|394:26,1,50,4|0,0:0|0:0,0:0:0:0:
373,51,32521,2,0,P|323:37|257:54,1,100,8|0,0:0|0:0,0:0:0:0:
243,138,33139,1,8,0:0:0:0:
243,138,33294,2,0,L|229:254,1,100
213,284,33758,1,8,0:0:0:0:
113,290,34067,2,0,L|61:283,1,50
19,259,34376,1,8,0:0:0:0:
15,158,34685,6,0,L|28:40,1,100,4|8,0:0|0:0,0:0:0:0:
67,31,35149,2,0,P|117:38|164:23,1,100,4|0,0:0|0:0,0:0:0:0:
196,60,35613,2,0,L|194:124,1,50,8|4,0:0|0:0,0:0:0:0:
435,28,36696,2,0,L|449:150,1,100
467,172,37160,6,0,P|433:207|423:256,1,100,4|8,0:0|0:0,0:0:0:0:
403,302,37624,2,0,L|298:312,1,100
256,328,38088,1,8,0:0:0:0:
209,311,38242,2,0,L|104:300,1,100,4|0,0:0|0:0,0:0:0:0:
69,270,38706,2,0,P|51:241|24:225,1,50,8|0,0:0|0:0,0:0:0:0:
23,132,39170,1,0,0:0:0:0:
23,132,39325,2,0,L|30:82,1,50,8|0,0:0|0:0,0:0:0:0:
61,43,39634,6,0,P|116:47|171:19,1,100,4|8,0:0|0:0,0:0:0:0:
205,43,40098,2,0,L|323:52,1,100
349,73,40562,2,0,L|409:70,1,50,8|4,0:0|0:0,0:0:0:0:
245,204,41490,2,0,P|231:266|250:317,1,100,8|0,3:0|0:0,0:0:0:0:
283,324,41953,1,0,0:0:0:0:
331,338,42108,6,0,L|466:328,1,100,0|0,1:0|1:0,0:0:0:0:
465,236,42727,2,0,L|365:228,1,100,0|0,1:0|1:0,0:0:0:0:
332,191,43191,1,0,0:0:0:0:
307,147,43345,2,0,P|319:99|305:51,1,100,0|0,1:0|1:0,0:0:0:0:
205,52,43964,2,0,P|191:99|203:147,1,100,0|0,1:0|1:0,0:0:0:0:
146,228,44582,5,0,1:0:0:0:
256,332,45046,2,0,L|391:322,1,100
404,332,45510,1,0,1:0:0:0:
448,308,45665,2,0,P|472:264|464:200,1,100,2|0,0:0|0:0,0:0:0:0:
436,180,46129,2,0,L|440:120,1,50,0|0,1:0|0:0,0:0:0:0:
428,81,46438,2,0,P|384:57|320:65,1,100,0|8,1:0|0:0,0:0:0:0:
237,36,47057,6,0,L|181:40,1,50,4|0,0:0|0:0,0:0:0:0:
146,69,47366,2,0,B|93:75|93:75|62:112,1,100,8|0,0:0|0:0,0:0:0:0:
42,208,47984,1,8,0:0:0:0:
42,208,48139,2,0,P|44:260|73:299,1,100
112,326,48603,2,0,L|187:321,1,50,8|4,0:0|0:0,0:0:0:0:
208,302,48912,2,0,P|256:315|307:302,1,100,0|8,0:0|0:0,0:0:0:0:
299,153,49685,6,0,L|290:92,1,50,8|8,0:0|0:0,0:0:0:0:
358,29,50149,1,8,0:0:0:0:
428,100,50459,2,0,L|421:150,1,50,8|8,0:0|0:0,0:0:0:0:
222,300,51386,2,0,L|114:288,1,100,2|0,2:0|2:0,2:0:0:0:
74,281,51850,6,0,P|83:226|59:169,1,100,4|0,0:0|0:0,0:0:0:0:
46,140,52314,2,0,L|57:88,1,50,8|0,0:0|0:0,0:0:0:0:
78,45,52624,1,0,0:0:0:0:
179,27,52933,1,8,0:0:0:0:
179,27,53088,2,0,P|230:38|288:21,1,100,4|0,0:0|0:0,0:0:0:0:
324,38,53551,2,0,L|388:32,1,50,8|0,0:0|0:0,0:0:0:0:
424,34,53861,1,0,0:0:0:0:
465,124,54170,1,8,0:0:0:0:
465,124,54325,6,0,B|449:175|449:175|463:219,1,100,4|0,0:0|0:0,0:0:0:0:
490,261,54789,2,0,L|484:314,1,50,8|0,0:0|0:0,0:0:0:0:
449,346,55098,1,0,0:0:0:0:
350,332,55407,1,8,0:0:0:0:
350,332,55562,2,0,P|302:319|254:331,1,100,4|0,0:0|0:0,0:0:0:0:
206,345,56026,2,0,L|146:339,1,50,8|0,0:0|0:0,0:0:0:0:
101,256,56490,1,0,0:0:0:0:
134,164,56799,6,0,B|180:145|183:178|230:161,1,100,4|0,0:0|0:0,0:0:0:0:
281,160,57263,2,0,B|328:177|331:144|377:162,1,100,8|0,0:0|0:0,0:0:0:0:
472,210,57881,1,8,0:0:0:0:
472,210,58036,2,0,P|485:157|468:109,1,100,4|0,0:0|0:0,0:0:0:0:
448,70,58500,2,0,L|391:65,1,50,8|0,0:0|0:0,0:0:0:0:
357,36,58809,2,0,L|300:31,1,50
205,31,59273,6,0,P|155:50|93:38,1,100,4|0,0:0|0:0,0:0:0:0:
63,26,59737,2,0,L|57:80,1,50,8|0,0:0|0:0,0:0:0:0:
35,120,60046,2,0,P|54:170|42:232,1,100,0|8,0:0|0:0,0:0:0:0:
88,246,60510,2,0,P|83:295|102:341,1,100,4|0,0:0|0:0,0:0:0:0:
149,359,60974,1,8,0:0:0:0:
363,359,61593,1,8,0:0:0:0:
363,359,61747,6,0,P|382:313|378:264,1,100,4|0,0:0|0:0,0:0:0:0:
384,214,62211,2,0,L|391:156,1,50,8|0,0:0|0:0,0:0:0:0:
416,121,62521,1,0,0:0:0:0:
357,44,62830,1,8,0:0:0:0:
357,44,62984,2,0,P|310:61|250:46,1,100,4|0,0:0|0:0,0:0:0:0:
213,65,63448,2,0,L|157:61,1,50,8|0,0:0|0:0,0:0:0:0:
114,75,63758,1,0,0:0:0:0:
56,156,64067,1,8,0:0:0:0:
56,156,64222,6,0,P|84:217|162:205,1,150,4|8,0:0|0:0,0:0:0:0:
256,192,64995,1,0,0:0:0:0:
354,174,65304,1,8,0:0:0:0:
354,174,65459,2,0,P|424:165|456:228,1,150,4|8,0:0|0:0,0:0:0:0:
398,309,66232,2,0,L|349:306,1,50
250,331,66697,6,0,P|201:323|155:340,1,100,4|0,0:0|0:0,0:0:0:0:
105,341,67160,1,8,0:0:0:0:
26,279,67469,2,0,L|33:159,1,100,0|8,0:0|0:0,0:0:0:0:
54,134,67933,2,0,P|109:134|152:104,1,100,4|0,0:0|0:0,0:0:0:0:
190,87,68397,1,8,0:0:0:0:
282,49,68706,2,0,L|402:57,1,100,0|8,0:0|0:0,0:0:0:0:
427,76,69170,6,0,P|423:128|459:178,1,100,4|0,0:0|0:0,0:0:0:0:
482,202,69634,2,0,L|474:276,1,50,8|0,0:0|0:0,0:0:0:0:
448,293,69943,2,0,P|397:288|347:310,1,100,0|8,0:0|0:0,0:0:0:0:
306,325,70407,1,4,0:0:0:0:
206,324,70716,1,8,3:0:0:0:
159,305,70871,2,0,P|113:287|64:293,1,100,8|8,0:0|0:0,0:0:0:0:
30,136,71799,5,12,0:0:0:0:
110,75,72108,1,8,0:0:0:0:
110,75,72263,2,0,L|222:68,1,100,2|0,0:0|0:0,0:0:0:0:
256,87,72727,1,8,0:0:0:0:
303,103,72881,2,0,L|415:96,1,100,6|0,0:0|0:0,0:0:0:0:
445,123,73345,1,10,0:0:0:0:
418,219,73655,2,0,P|380:250|328:254,1,100,2|10,0:0|0:0,0:0:0:0:
256,192,74273,5,6,0:0:0:0:
181,128,74582,1,10,0:0:0:0:
181,128,74737,2,0,P|132:133|94:165,1,100,2|0,0:0|0:0,0:0:0:0:
50,185,75201,1,8,0:0:0:0:
50,185,75356,2,0,B|37:283|37:283|78:326,1,150,6|10,0:0|0:0,0:0:0:0:
163,360,76129,2,0,P|214:344|270:357,1,100,2|10,0:0|0:0,0:0:0:0:
358,359,76747,5,6,0:0:0:0:
461,337,77057,1,8,0:0:0:0:
461,337,77211,2,0,L|472:233,1,100,2|0,0:0|0:0,0:0:0:0:
452,191,77675,1,8,0:0:0:0:
471,147,77830,2,0,P|475:75|411:51,1,150,6|10,0:0|0:0,0:0:0:0:
326,104,78603,2,0,L|209:95,1,100,2|10,0:0|0:0,0:0:0:0:
143,40,79222,5,6,0:0:0:0:
53,83,79531,1,8,0:0:0:0:
53,83,79685,2,0,L|60:190,1,100,2|0,0:0|0:0,0:0:0:0:
100,212,80149,1,8,0:0:0:0:
100,212,80304,2,0,P|168:204|207:212,1,100,6|0,0:0|0:0,0:0:0:0:
247,223,80768,1,10,0:0:0:0:
346,219,81077,2,0,L|346:158,2,50,8|8|8,0:0|0:0|0:0,0:0:0:0:
403,305,81696,5,6,0:0:0:0:
315,348,82005,1,10,0:0:0:0:
315,348,82160,2,0,L|213:342,1,100
165,342,82624,1,10,0:0:0:0:
115,339,82778,2,0,P|120:290|40:223,1,150,6|10,0:0|0:0,0:0:0:0:
61,125,83551,2,0,L|72:25,1,100,2|10,0:0|0:0,0:0:0:0:
176,32,84170,5,6,0:0:0:0:
278,55,84479,1,10,0:0:0:0:
278,55,84634,2,0,L|389:47,1,100
424,64,85098,1,10,0:0:0:0:
469,83,85252,2,0,P|469:152|405:209,1,150,6|10,0:0|0:0,0:0:0:0:
317,240,86026,2,0,L|217:232,1,100,2|10,0:0|0:0,0:0:0:0:
127,192,86644,5,6,0:0:0:0:
50,255,86953,1,10,0:0:0:0:
50,255,87108,2,0,B|45:305|45:305|85:341,1,100
130,351,87572,1,10,0:0:0:0:
177,337,87727,2,0,P|251:325|320:352,1,150,6|10,0:0|0:0,0:0:0:0:
416,325,88500,2,0,L|422:218,1,100,2|10,0:0|0:0,0:0:0:0:
483,146,89118,5,6,0:0:0:0:
439,55,89428,1,10,0:0:0:0:
439,55,89582,2,0,L|327:46,1,100,6|0,0:0|0:0,0:0:0:0:
292,66,90046,1,10,0:0:0:0:
292,66,90201,1,2,0:0:0:0:
193,81,90510,1,2,0:0:0:0:
94,96,90819,1,2,0:0:0:0:
328,183,91593,5,2,0:0:0:0:
93,94,98551,21,0,0:0:0:0:
139,76,98706,2,0,L|191:79,1,50
232,103,99015,6,0,P|286:110|336:83,1,100,4|0,0:0|0:0,0:0:0:0:
365,60,99479,2,0,P|410:41|459:48,1,100
423,142,100098,2,0,L|435:251,1,100,4|0,0:0|0:0,0:0:0:0:
395,273,100562,2,0,L|388:330,1,50,8|0,0:0|0:0,0:0:0:0:
351,356,100871,1,8,0:0:0:0:
256,328,101180,1,8,0:0:0:0:
161,356,101490,6,0,L|95:350,1,50,4|0,0:0|0:0,0:0:0:0:
64,333,101799,2,0,P|71:278|47:232,1,100,8|0,0:0|0:0,0:0:0:0:
98,152,102417,1,8,0:0:0:0:
98,152,102572,2,0,L|206:161,1,100
237,191,103036,1,8,0:0:0:0:
287,277,103345,2,0,L|351:269,1,50
379,297,103655,1,8,0:0:0:0:
455,232,103964,6,0,P|459:170|435:136,1,100,4|8,0:0|0:0,0:0:0:0:
432,90,104428,2,0,L|329:96,1,100,4|0,0:0|0:0,0:0:0:0:
289,68,104892,2,0,L|296:-1,1,50,0|4,0:0|0:0,0:0:0:0:
179,241,105974,1,0,0:0:0:0:
31,205,106438,6,0,L|46:316,1,100,4|8,0:0|0:0,0:0:0:0:
75,343,106902,2,0,P|127:334|180:355,1,100
220,339,107366,1,8,0:0:0:0:
267,322,107521,2,0,P|314:336|362:327,1,100,4|0,0:0|0:0,0:0:0:0:
412,324,107984,2,0,L|419:270,1,50,8|0,0:0|0:0,0:0:0:0:
468,187,108448,1,0,0:0:0:0:
468,187,108603,2,0,L|461:133,1,50,8|0,0:0|0:0,0:0:0:0:
430,97,108912,6,0,P|390:95|340:52,1,100,4|8,0:0|0:0,0:0:0:0:
303,29,109376,2,0,L|197:36,1,100
160,62,109840,2,0,L|100:59,1,50,8|4,0:0|0:0,0:0:0:0:
42,133,110304,1,0,0:0:0:0:
86,155,110459,2,0,L|146:158,2,50,8|0|8,0:0|0:0|0:0,0:0:0:0:
48,309,111386,6,0,L|116:302,1,50,4|0,0:0|0:0,0:0:0:0:
196,320,111850,1,0,0:0:0:0:
295,335,112160,1,0,0:0:0:0:
393,352,112469,1,0,0:0:0:0:
482,231,112933,1,8,0:0:0:0:
401,171,113242,6,0,P|350:186|290:172,1,100,4|8,0:0|0:0,0:0:0:0:
257,193,113705,2,0,P|207:185|160:200,1,100
138,244,114169,2,0,L|143:307,1,50,8|0,0:0|0:0,0:0:0:0:
52,32,115406,6,0,L|120:39,1,50,4|0,0:0|0:0,0:0:0:0:
196,62,115870,1,0,0:0:0:0:
295,49,116180,1,0,0:0:0:0:
393,32,116489,1,4,0:0:0:0:
482,153,116952,1,8,0:0:0:0:
401,213,117261,6,0,P|350:198|290:212,1,100,0|8,0:0|0:0,0:0:0:0:
256,218,117725,1,0,0:0:0:0:
256,218,117880,5,0,0:0:0:0:
230,314,118189,1,0,0:0:0:0:
133,341,118498,2,0,B|107:339|107:339|88:267,1,100
48,237,118962,6,0,P|63:188|51:142,1,100
23,100,119426,1,0,0:0:0:0:
93,29,119735,2,0,L|196:38,1,100
256,116,120354,5,0,0:0:0:0:
319,37,120663,2,0,L|419:29,2,100
256,116,121591,6,0,L|248:168,1,50,8|8,0:0|0:0,0:0:0:0:
336,288,122210,2,0,L|328:340,1,50,8|8,0:0|0:0,0:0:0:0:
178,343,122828,6,0,B|159:269|119:298|95:220,1,150,0|0,1:0|0:0,0:0:0:0:
67,180,123447,2,0,B|85:106|125:135|149:57,1,150,0|0,1:0|0:0,0:0:0:0:
195,39,124065,2,0,L|308:33,1,100,0|0,1:0|1:0,0:0:0:0:
357,111,124684,2,0,L|456:105,2,100,0|0|0,1:0|1:0|1:0,0:0:0:0:
330,258,125766,6,0,P|280:253|235:272,1,100
185,264,126230,1,0,1:0:0:0:
185,264,126385,2,0,P|139:283|90:278,1,100,2|0,0:0|0:0,0:0:0:0:
47,252,126849,1,0,1:0:0:0:
29,153,127158,2,0,B|37:85|37:85|70:73,1,100,0|0,1:0|0:0,0:0:0:0:
158,33,127777,6,0,L|219:38,1,50,4|0,0:0|0:0,0:0:0:0:
248,66,128086,2,0,P|299:51|352:67,1,100,8|0,0:0|0:0,0:0:0:0:
396,153,128704,1,8,0:0:0:0:
396,153,128859,2,0,P|348:167|300:157,1,100
250,154,129323,2,0,L|144:158,1,100,8|4,0:0|0:0,0:0:0:0:
66,213,129942,1,8,0:0:0:0:
202,275,130406,6,0,L|211:336,1,50,8|8,0:0|0:0,0:0:0:0:
291,381,130870,1,8,0:0:0:0:
365,313,131180,2,0,L|372:263,1,50,8|0,0:0|0:0,0:0:0:0:
323,25,132107,2,0,P|382:61|432:59,1,100,2|0,2:2|2:0,2:0:0:0:
438,103,132570,6,0,P|429:158|453:215,1,100,4|0,0:0|0:0,0:0:0:0:
466,244,133034,2,0,L|455:296,1,50,8|0,0:0|0:0,0:0:0:0:
434,339,133344,1,0,0:0:0:0:
343,311,133653,1,8,0:0:0:0:
343,311,133808,2,0,P|292:300|234:317,1,100,4|0,0:0|0:0,0:0:0:0:
205,282,134271,2,0,L|199:218,1,50,8|0,0:0|0:0,0:0:0:0:
208,182,134581,1,0,0:0:0:0:
256,96,134890,1,8,0:0:0:0:
256,96,135045,6,0,B|205:80|205:80|161:94,1,100,4|0,0:0|0:0,0:0:0:0:
119,121,135509,2,0,L|66:115,1,50,8|0,0:0|0:0,0:0:0:0:
19,120,135818,1,0,0:0:0:0:
33,218,136127,1,8,0:0:0:0:
33,218,136282,2,0,P|20:266|32:314,1,100,4|0,0:0|0:0,0:0:0:0:
76,336,136746,2,0,L|136:330,1,50,8|0,0:0|0:0,0:0:0:0:
222,355,137210,1,0,0:0:0:0:
311,310,137519,6,0,B|292:264|325:261|308:214,1,100,4|0,0:0|0:0,0:0:0:0:
304,162,137983,2,0,P|317:109|300:61,1,100,8|0,0:0|0:0,0:0:0:0:
208,66,138601,1,8,0:0:0:0:
208,66,138756,2,0,P|194:114|208:162,1,100,4|0,0:0|0:0,0:0:0:0:
232,205,139220,2,0,L|227:262,1,50,8|0,0:0|0:0,0:0:0:0:
198,296,139529,2,0,L|193:353,1,50
94,357,139993,6,0,P|75:307|87:245,1,100,4|0,0:0|0:0,0:0:0:0:
113,224,140457,2,0,L|107:170,1,50,8|0,0:0|0:0,0:0:0:0:
62,151,140766,2,0,P|57:101|76:55,1,100,0|8,0:0|0:0,0:0:0:0:
119,31,141230,2,0,P|164:49|213:44,1,100,4|0,0:0|0:0,0:0:0:0:
262,33,141694,1,8,0:0:0:0:
463,67,142313,1,8,0:0:0:0:
463,67,142467,6,0,P|458:118|477:162,1,100,4|0,0:0|0:0,0:0:0:0:
471,211,142931,2,0,L|464:269,1,50,8|0,0:0|0:0,0:0:0:0:
445,307,143241,1,0,0:0:0:0:
356,348,143550,1,8,0:0:0:0:
356,348,143704,2,0,P|309:331|249:346,1,100,4|0,0:0|0:0,0:0:0:0:
212,327,144168,2,0,L|156:331,1,50,8|0,0:0|0:0,0:0:0:0:
113,317,144478,1,0,0:0:0:0:
40,257,144787,1,8,0:0:0:0:
40,257,144942,6,0,P|66:189|33:125,1,150,4|8,0:0|0:0,0:0:0:0:
73,33,145715,1,0,0:0:0:0:
165,69,146024,1,8,0:0:0:0:
165,69,146179,2,0,P|229:102|296:75,1,150,4|8,0:0|0:0,0:0:0:0:
389,37,146952,2,0,L|438:40,1,50
437,140,147417,6,0,P|429:189|446:235,1,100,4|0,0:0|0:0,0:0:0:0:
447,285,147880,1,8,0:0:0:0:
376,355,148189,2,0,L|256:348,1,100,0|8,0:0|0:0,0:0:0:0:
246,308,148653,2,0,P|246:253|216:210,1,100,4|0,0:0|0:0,0:0:0:0:
199,172,149117,1,8,0:0:0:0:
210,72,149426,2,0,L|90:64,1,100,0|8,0:0|0:0,0:0:0:0:
68,93,149890,6,0,P|72:145|36:195,1,100,4|0,0:0|0:0,0:0:0:0:
37,233,150354,2,0,L|45:307,1,50,8|0,0:0|0:0,0:0:0:0:
71,323,150663,2,0,P|122:318|172:340,1,100,0|8,0:0|0:0,0:0:0:0:
208,364,151127,1,4,0:0:0:0:
305,364,151436,1,0,0:0:0:0:
346,335,151591,2,0,P|392:317|442:323,2,100,8|8|8,0:0|3:0|0:0,0:0:0:0:
305,364,152364,6,0,B|276:352|276:352|264:278,1,100,4|0,0:0|0:0,0:0:0:0:
243,239,152828,1,0,0:0:0:0:
281,146,153137,2,0,B|269:117|269:117|195:105,1,100,8|0,0:0|0:0,0:0:0:0:
172,65,153601,2,0,P|124:49|75:61,1,100
40,94,154065,1,0,0:0:0:0:
78,188,154375,2,0,L|71:301,1,100,8|0,0:0|0:0,0:0:0:0:
95,337,154838,1,8,0:0:0:0:
95,337,154993,6,0,B|198:364|186:295|290:330,1,200,8|4,0:0|0:0,0:0:0:0:
363,262,155921,1,8,0:0:0:0:
363,262,156076,2,0,P|412:268|457:248,1,100,0|8,0:0|0:0,0:0:0:0:
483,206,156540,2,0,L|470:107,1,100
394,41,157158,1,8,0:0:0:0:
301,78,157467,6,0,P|251:84|206:64,1,100,4|0,0:0|0:0,0:0:0:0:
110,94,158086,2,0,L|97:193,1,100,8|0,0:0|0:0,0:0:0:0:
126,233,158550,2,0,P|175:226|220:246,1,100,0|8,0:0|0:0,0:0:0:0:
250,286,159014,1,0,0:0:0:0:
161,332,159323,2,0,P|111:338|66:318,1,100,8|0,0:0|0:0,0:0:0:0:
256,192,159942,12,0,161643,0:0:0:0:
450,324,162416,21,6,0:0:0:0:
400,243,162725,1,10,0:0:0:0:
400,243,162879,2,0,L|300:232,1,100
256,256,163343,1,10,0:0:0:0:
216,283,163498,2,0,L|116:272,1,100,6|0,0:0|0:0,0:0:0:0:
68,256,163962,1,10,0:0:0:0:
49,156,164271,2,0,P|70:110|65:60,1,100,2|10,0:0|0:0,0:0:0:0:
153,12,164890,5,6,0:0:0:0:
237,65,165199,1,10,0:0:0:0:
237,65,165354,2,0,L|353:69,1,100,2|0,0:0|0:0,0:0:0:0:
383,48,165818,1,10,0:0:0:0:
431,60,165972,2,0,P|425:125|475:203,1,150,6|10,0:0|0:0,0:0:0:0:
444,294,166745,2,0,B|421:311|421:311|350:303,1,100,2|10,0:0|0:0,0:0:0:0:
257,268,167364,5,6,0:0:0:0:
161,304,167673,1,10,0:0:0:0:
161,304,167828,2,0,B|90:312|90:312|66:295,1,100,0|2,0:0|0:0,0:0:0:0:
44,251,168292,1,10,0:0:0:0:
27,206,168447,2,0,P|74:137|62:60,1,150,6|10,0:0|0:0,0:0:0:0:
165,38,169220,2,0,P|215:34|260:54,1,100,2|10,0:0|0:0,0:0:0:0:
197,132,169838,5,6,0:0:0:0:
218,229,170147,1,8,0:0:0:0:
218,229,170302,2,0,L|325:237,1,100,2|2,0:0|0:0,0:0:0:0:
366,249,170766,1,10,0:0:0:0:
366,249,170921,2,0,L|367:137,1,100,6|0,0:0|0:0,0:0:0:0:
406,118,171385,1,8,0:0:0:0:
426,20,171694,2,0,L|489:25,2,50,8|8|8,0:0|0:0|0:0,0:0:0:0:
320,34,172312,5,6,0:0:0:0:
216,35,172622,1,10,0:0:0:0:
216,35,172776,2,0,L|204:145,1,100
161,158,173240,1,10,0:0:0:0:
117,181,173395,2,0,L|128:281,1,100,6|0,0:0|0:0,0:0:0:0:
152,325,173859,2,0,P|200:341|249:333,1,100,10|2,0:0|0:0,0:0:0:0:
340,293,174477,1,10,0:0:0:0:
428,343,174787,5,6,0:0:0:0:
484,255,175096,1,10,0:0:0:0:
484,255,175251,2,0,B|459:222|459:222|466:130,1,100,2|2,0:0|0:0,0:0:0:0:
469,115,175714,1,10,0:0:0:0:
450,69,175869,2,0,P|410:45|308:63,1,150,6|10,0:0|0:0,0:0:0:0:
215,86,176642,1,2,0:0:0:0:
256,180,176952,1,10,0:0:0:0:
295,273,177261,5,6,0:0:0:0:
196,284,177570,1,10,0:0:0:0:
196,284,177725,2,0,L|84:292,1,100,0|2,0:0|0:0,0:0:0:0:
58,260,178189,1,8,0:0:0:0:
56,209,178344,2,0,P|72:117|123:85,1,150,6|10,0:0|0:0,0:0:0:0:
209,118,179117,2,0,B|256:133|256:133|304:118,1,100,2|10,0:0|0:0,0:0:0:0:
400,92,179735,5,6,0:0:0:0:
462,169,180044,1,10,0:0:0:0:
462,169,180199,2,0,L|451:289,1,100,8|0,3:0|0:0,0:0:0:0:
414,315,180663,1,10,0:0:0:0:
414,315,180818,2,0,P|364:308|318:324,1,100,6|0,0:0|0:0,0:0:0:0:
280,291,181282,2,0,L|278:226,1,50,2|0,0:0|0:0,0:0:0:0:
278,190,181591,6,0,B|177:220|185:148|82:183,1,200,10|4,0:0|0:0,0:0:0:0:
