osu file format v14

[General]
AudioFilename: audio.mp3
AudioLeadIn: 0
PreviewTime: 132107
Countdown: 0
SampleSet: Normal
StackLeniency: 0.7
Mode: 0
LetterboxInBreaks: 0
WidescreenStoryboard: 1

[Editor]
Bookmarks: 31862,71914,122943,126500,132840,162531,182325
DistanceSpacing: 1.2
BeatDivisor: 4
GridSize: 4
TimelineZoom: 2.3

[Metadata]
Title:berserk
TitleUnicode:ベルセルク
Artist:mafumafu
ArtistUnicode:まふまふ
Creator:Mafumafu
Version:Hard
Source:
Tags:jrock j-rock rock japanese kuro crest story クロクレストストーリー HabiHolic William K William_K Jonarwhal regraz
BeatmapID:2669106
BeatmapSetID:1191038

[Difficulty]
HPDrainRate:5.2
CircleSize:3.6
OverallDifficulty:6
ApproachRate:8
SliderMultiplier:1.4
SliderTickRate:1

[Events]
//Background and Video events
0,0,"BG.jpg",0,0
//Break Periods
2,22514,28987
2,91792,98265
//Storyboard Layer 0 (Background)
//Storyboard Layer 1 (Fail)
//Storyboard Layer 2 (Pass)
//Storyboard Layer 3 (Foreground)
//Storyboard Layer 4 (Overlay)
//Storyboard Sound Samples

[TimingPoints]
967,309.278350515464,4,2,1,70,1,0
2521,309.278350515464,4,1,1,70,1,0
22314,-100,4,2,1,50,0,0
29737,-100,4,1,1,70,0,0
30819,-100,4,1,1,60,0,0
42108,-100,4,2,1,50,0,0
46593,-100,4,1,1,70,0,0
51850,-100,4,1,1,70,0,1
71799,-100,4,1,1,70,0,0
91593,-100,4,2,0,50,0,0
99015,-100,4,1,1,70,0,0
101490,-100,4,1,1,60,0,0
113242,309.278350515464,4,1,1,60,1,0
115406,309.278350515464,4,1,1,60,1,0
117880,-100,4,1,1,50,0,0
119117,-100,4,1,1,60,0,0
120354,-100,4,1,1,70,0,0
121591,-100,4,1,1,80,0,0
122828,-100,4,2,1,50,0,0
127313,-100,4,1,1,70,0,0
132570,-100,4,1,1,70,0,1
152519,-100,4,1,1,70,0,0
184684,-83.3333333333333,4,1,1,50,0,0
187158,-83.3333333333333,4,1,1,30,0,0

[Colours]
Combo1 : 252,199,241
Combo2 : 117,34,34
Combo3 : 253,196,196
Combo4 : 111,0,88

[HitObjects]
70,158,2521,6,0,L|62:57,2,70,6|0|10,0:0|0:0|0:0,0:0:0:0:
14,220,2984,2,0,P|80:197|153:244,1,140,2|2,0:0|0:0,0:0:0:0:
185,296,3448,1,10,0:0:0:0:
243,234,3603,2,0,L|233:81,1,140,6|0,0:0|0:0,0:0:0:0:
297,38,4067,2,0,P|345:43|373:65,1,70,10|0,0:0|0:0,0:0:0:0:
353,137,4376,2,0,P|383:174|387:209,1,70,2|0,0:0|0:0,0:0:0:0:
326,252,4685,2,0,P|320:300|298:328,1,70,10|0,0:0|0:0,0:0:0:0:
174,298,4995,6,0,L|86:302,2,70,6|0|10,0:0|0:0|0:0,0:0:0:0:
205,219,5459,2,0,P|183:163|210:84,1,140,2|2,0:0|0:0,0:0:0:0:
271,37,5923,1,10,0:0:0:0:
336,90,6077,2,0,P|392:96|421:23,1,140,6|0,0:0|0:0,0:0:0:0:
503,14,6541,2,0,P|506:76|493:109,1,70,10|0,0:0|0:0,0:0:0:0:
459,154,6850,2,0,L|471:245,1,70,2|0,0:0|0:0,0:0:0:0:
449,309,7160,2,0,P|404:294|358:300,1,70,10|0,0:0|0:0,0:0:0:0:
237,322,7469,6,0,L|232:230,2,70,6|0|10,0:0|0:0|0:0,0:0:0:0:
157,348,7933,2,0,P|102:355|57:287,1,140,2|2,0:0|0:0,0:0:0:0:
28,212,8397,1,10,0:0:0:0:
109,194,8551,2,0,B|179:190|178:233|262:226,1,140,6|0,0:0|0:0,0:0:0:0:
305,170,9015,2,0,P|313:130|292:89,1,70,10|0,0:0|0:0,0:0:0:0:
219,98,9325,2,0,L|148:103,1,70,2|0,0:0|0:0,0:0:0:0:
160,19,9634,2,0,L|229:14,1,70,10|0,0:0|0:0,0:0:0:0:
300,59,9943,6,0,L|397:55,2,70,6|0|10,0:0|0:0|0:0,0:0:0:0:
272,138,10407,2,0,P|262:229|283:285,1,140,2|2,0:0|0:0,0:0:0:0:
338,331,10871,1,10,0:0:0:0:
400,274,11026,2,0,P|417:206|404:138,1,140,6|0,0:0|0:0,0:0:0:0:
351,72,11490,2,0,P|305:81|267:71,1,70,10|0,0:0|0:0,0:0:0:0:
208,45,11799,2,0,L|116:53,1,70,10|0,0:0|0:0,0:0:0:0:
43,40,12108,2,0,L|55:89,1,35,10|0,0:0|0:0,0:0:0:0:
71,100,12263,2,0,L|62:146,1,35
33,161,12417,6,0,P|81:188|90:273,1,140,6|10,0:0|0:0,0:0:0:0:
36,323,12881,2,0,L|209:309,1,140,2|2,0:0|0:0,0:0:0:0:
246,354,13345,1,10,0:0:0:0:
318,309,13500,2,0,B|362:315|362:315|344:188,1,140,6|0,0:0|0:0,0:0:0:0:
317,141,13964,2,0,P|266:139|223:161,1,70,10|0,0:0|0:0,0:0:0:0:
171,114,14273,2,0,L|163:23,2,70,2|0|10,0:0|0:0|0:0,0:0:0:0:
98,158,14737,1,0,0:0:0:0:
45,321,14892,6,0,P|121:343|173:295,1,140,6|10,0:0|0:0,0:0:0:0:
163,225,15356,2,0,P|110:200|29:254,1,140,2|0,0:0|0:0,0:0:0:0:
24,137,15819,1,8,0:0:0:0:
89,73,15974,2,0,L|248:68,1,140,4|0,0:0|0:0,0:0:0:0:
316,63,16438,2,0,P|308:96|317:130,1,70,10|0,0:0|0:0,0:0:0:0:
397,94,16747,2,0,P|406:130|398:169,1,70,2|0,0:0|0:0,0:0:0:0:
466,213,17057,2,0,L|476:261,1,35,10|0,0:0|0:0,0:0:0:0:
442,268,17211,2,0,L|433:305,1,35
443,346,17366,6,0,P|385:338|301:360,1,140,6|10,0:0|0:0,0:0:0:0:
235,315,17830,2,0,L|242:156,1,140,2|2,0:0|0:0,0:0:0:0:
307,124,18294,1,10,0:0:0:0:
372,178,18448,2,0,P|442:195|490:132,1,140,6|0,0:0|0:0,0:0:0:0:
443,84,18912,2,0,L|446:-9,1,70,10|0,0:0|0:0,0:0:0:0:
358,28,19222,1,2,0:0:0:0:
358,28,19376,1,0,0:0:0:0:
290,77,19531,2,0,P|237:74|194:82,1,70,10|0,0:0|0:0,0:0:0:0:
102,20,19840,6,0,P|152:56|143:152,1,140,6|10,0:0|0:0,0:0:0:0:
102,194,20304,2,0,P|47:202|10:286,1,140,6|0,0:0|0:0,0:0:0:0:
26,351,20768,1,2,0:0:0:0:
165,329,20923,5,2,0:0:0:0:
171,342,21232,5,2,0:0:0:0:
178,355,21541,5,2,0:0:0:0:
256,192,21618,12,0,22314,1:0:0:0:
251,104,29737,6,0,P|88:126|203:271,1,420,4|0,0:0|2:0,0:0:0:0:
270,224,30819,2,0,P|325:239|340:330,1,140,4|0,0:0|0:0,0:0:0:0:
421,363,31283,2,0,P|434:307|419:274,2,70,8|8|8,3:0|3:0|3:0,0:0:0:0:
426,183,31902,2,0,L|365:181,1,35,8|0,0:0|0:0,0:0:0:0:
369,194,32057,2,0,L|318:191,1,35
302,174,32211,6,0,P|316:228|300:319,1,140,4|8,0:0|0:0,0:0:0:0:
173,320,32830,2,0,L|79:315,1,70
23,307,33139,1,8,0:0:0:0:
37,180,33294,2,0,L|188:195,1,140
246,243,33758,2,0,L|338:237,1,70,8|0,0:0|0:0,0:0:0:0:
359,166,34067,2,0,P|367:123|352:83,1,70
297,42,34376,1,8,0:0:0:0:
87,38,34685,6,0,L|102:120,1,70,4|0,0:0|0:0,0:0:0:0:
51,180,34995,1,8,0:0:0:0:
140,188,35149,2,0,P|200:188|249:260,1,140,4|0,0:0|0:0,0:0:0:0:
295,315,35613,1,8,0:0:0:0:
372,281,35768,2,0,L|366:118,1,140,4|0,0:0|0:0,0:0:0:0:
413,70,36232,2,0,P|351:58|326:64,1,70,8|0,0:0|0:0,0:0:0:0:
171,81,36696,2,0,P|108:91|47:28,1,140
5,116,37160,6,0,P|11:155|11:203,1,70,4|0,0:0|0:0,0:0:0:0:
15,265,37469,1,8,0:0:0:0:
87,217,37624,2,0,B|147:220|145:293|210:297,1,140
260,236,38088,1,8,0:0:0:0:
232,111,38242,2,0,P|139:109|107:162,1,140,4|0,0:0|0:0,0:0:0:0:
40,181,38706,2,0,P|31:149|41:98,1,70,8|0,0:0|0:0,0:0:0:0:
87,47,39015,1,0,0:0:0:0:
87,47,39170,1,0,0:0:0:0:
157,93,39325,2,0,P|210:104|249:89,1,70,8|0,0:0|0:0,0:0:0:0:
315,34,39634,6,0,L|309:112,2,70,4|0|8,0:0|0:0|0:0,0:0:0:0:
399,33,40098,2,0,P|463:46|475:123,1,140
426,171,40562,1,8,0:0:0:0:
309,103,40716,2,0,P|232:113|202:182,1,140,4|0,0:0|0:0,0:0:0:0:
263,221,41180,2,0,P|319:221|347:236,1,70,8|8,3:0|3:0,0:0:0:0:
180,246,41490,1,8,3:0:0:0:
183,259,42108,6,0,P|84:247|33:267,1,140,0|0,1:0|1:0,0:0:0:0:
48,346,42727,2,0,P|147:358|198:338,1,140,0|0,1:0|1:0,0:0:0:0:
258,304,43345,2,0,P|325:288|393:303,1,140,0|0,1:0|1:0,0:0:0:0:
395,193,43964,2,0,P|327:208|259:193,1,140,0|0,1:0|1:0,0:0:0:0:
183,152,44582,6,0,L|191:-7,2,140,0|0|0,1:0|1:0|1:0,0:0:0:0:
100,175,45510,1,0,1:0:0:0:
43,303,45665,6,0,P|113:298|179:338,1,140,2|0,0:0|0:0,0:0:0:0:
245,286,46129,2,0,P|299:277|339:286,1,70,0|0,1:0|0:0,0:0:0:0:
479,357,46593,1,0,1:0:0:0:
388,354,46747,2,0,L|381:306,1,35,8|8,0:0|0:0,0:0:0:0:
407,305,46902,2,0,L|409:259,1,35,8|8,0:0|0:0,0:0:0:0:
412,228,47057,6,0,P|339:239|301:184,1,140,4|8,0:0|0:0,0:0:0:0:
257,123,47521,2,0,P|173:143|118:114,1,140,4|0,0:0|0:0,0:0:0:0:
63,172,47984,2,0,P|80:203|85:251,1,70,8|0,0:0|0:0,0:0:0:0:
38,353,48294,2,0,P|83:328|113:324,1,70,4|0,0:0|0:0,0:0:0:0:
168,264,48603,1,8,0:0:0:0:
231,332,48758,2,0,L|373:329,1,140,4|0,0:0|0:0,0:0:0:0:
366,245,49222,2,0,L|280:247,1,70,8|0,0:0|0:0,0:0:0:0:
120,96,49685,5,8,0:0:0:0:
120,96,49840,2,0,L|114:10,1,70,8|0,0:0|0:0,0:0:0:0:
200,25,50149,2,0,P|274:40|299:113,1,140,8|8,0:0|0:0,0:0:0:0:
175,163,50613,1,8,0:0:0:0:
175,178,50923,5,8,0:0:0:0:
301,104,51077,1,8,0:0:0:0:
449,245,51386,2,0,L|300:231,1,140,2|0,2:0|2:0,2:0:0:0:
244,287,51850,6,0,P|213:321|120:306,1,140,4|0,0:0|0:0,0:0:0:0:
71,246,52314,2,0,L|76:162,1,70,8|0,0:0|0:0,0:0:0:0:
36,108,52624,2,0,P|145:154|166:137,1,140,0|8,0:0|0:0,0:0:0:0:
270,23,53088,2,0,L|265:189,1,140,4|0,0:0|0:0,0:0:0:0:
218,241,53551,2,0,P|152:236|122:250,1,70,8|0,0:0|0:0,0:0:0:0:
128,259,53783,1,0,0:0:0:0:
128,259,53861,2,0,P|76:270|45:257,1,70
29,185,54170,1,8,0:0:0:0:
105,65,54325,6,0,P|188:78|215:142,1,140,4|0,0:0|0:0,0:0:0:0:
279,181,54789,2,0,P|263:233|278:268,1,70,8|0,0:0|0:0,0:0:0:0:
324,305,55098,1,0,0:0:0:0:
405,346,55252,2,0,L|483:343,1,70,0|8,0:0|0:0,0:0:0:0:
473,211,55562,2,0,P|489:126|475:64,1,140,4|0,0:0|0:0,0:0:0:0:
406,30,56026,1,8,0:0:0:0:
345,94,56180,2,0,P|284:119|204:73,1,140
164,27,56644,1,8,0:0:0:0:
34,121,56799,6,0,L|48:280,1,140,4|0,0:0|0:0,0:0:0:0:
129,249,57263,2,0,P|180:237|210:241,1,70,8|0,0:0|0:0,0:0:0:0:
221,212,57495,1,0,0:0:0:0:
221,212,57572,2,0,L|212:131,1,70
149,91,57881,1,8,0:0:0:0:
320,57,58036,2,0,L|310:214,1,140,4|0,0:0|0:0,0:0:0:0:
372,259,58500,2,0,P|425:264|456:241,1,70,8|0,0:0|0:0,0:0:0:0:
486,181,58809,1,0,0:0:0:0:
486,181,58964,2,0,L|478:96,1,70,0|8,0:0|0:0,0:0:0:0:
340,69,59273,6,0,B|276:66|269:134|203:107,1,140,4|0,0:0|0:0,0:0:0:0:
147,50,59737,2,0,L|55:46,1,70,8|0,0:0|0:0,0:0:0:0:
41,45,59969,1,0,0:0:0:0:
41,45,60046,2,0,P|54:92|50:125,1,70
24,194,60356,1,8,0:0:0:0:
58,337,60510,2,0,P|135:312|144:233,1,140,4|0,0:0|0:0,0:0:0:0:
236,272,60974,2,0,P|289:268|309:277,1,70,8|0,0:0|0:0,0:0:0:0:
326,293,61206,1,0,0:0:0:0:
326,293,61283,2,0,L|327:228,2,35
404,329,61593,1,8,0:0:0:0:
455,196,61747,6,0,P|393:202|358:131,1,140,4|0,0:0|0:0,0:0:0:0:
406,79,62211,2,0,L|502:81,1,70,8|0,0:0|0:0,0:0:0:0:
331,43,62521,2,0,P|266:61|214:44,1,105
200,34,62830,1,8,0:0:0:0:
96,137,62984,2,0,P|169:128|234:160,1,140,4|0,0:0|0:0,0:0:0:0:
252,237,63448,2,0,L|238:335,1,70,8|0,0:0|0:0,0:0:0:0:
320,346,63758,1,0,0:0:0:0:
396,303,63912,2,0,L|386:233,1,70,0|8,0:0|0:0,0:0:0:0:
346,79,64222,6,0,L|195:93,1,140,4|0,0:0|0:0,0:0:0:0:
202,177,64685,2,0,L|304:165,1,70,8|0,0:0|0:0,0:0:0:0:
342,209,64995,1,0,0:0:0:0:
282,267,65149,2,0,P|278:315|309:349,1,70,0|8,0:0|0:0,0:0:0:0:
436,325,65459,2,0,L|427:164,1,140,4|0,0:0|0:0,0:0:0:0:
392,105,65923,2,0,P|315:122|290:102,1,105,8|0,0:0|0:0,0:0:0:0:
277,73,66232,2,0,L|186:77,2,70,0|0|8,0:0|0:0|0:0,0:0:0:0:
436,35,66696,6,0,L|432:191,1,140,4|0,0:0|0:0,0:0:0:0:
454,263,67160,2,0,P|405:264|373:243,1,70,8|0,0:0|0:0,0:0:0:0:
302,226,67469,2,0,L|210:232,1,70
178,293,67778,1,8,0:0:0:0:
89,142,67933,2,0,L|100:306,1,140,4|0,0:0|0:0,0:0:0:0:
63,363,68397,2,0,P|115:363|144:372,1,70,8|0,0:0|0:0,0:0:0:0:
173,360,68629,1,0,0:0:0:0:
173,360,68706,2,0,P|223:374|257:364,1,70
259,289,69015,1,8,0:0:0:0:
402,331,69170,6,0,P|469:323|476:248,1,140,4|0,0:0|0:0,0:0:0:0:
415,210,69634,2,0,L|319:218,1,70,8|0,0:0|0:0,0:0:0:0:
309,200,69866,1,0,0:0:0:0:
309,200,69943,2,0,L|311:148,4,35,0|0|8|0|0,0:1|0:0|0:0|0:0|0:0,0:0:0:0:
168,226,70407,2,0,P|135:276|181:352,1,140,4|8,0:0|3:0,0:0:0:0:
251,366,70871,1,8,0:0:0:0:
251,366,71026,1,8,3:0:0:0:
320,316,71180,2,0,P|384:313|458:336,2,140,8|4|12,0:0|3:0|0:0,0:0:0:0:
196,201,72108,6,0,L|190:115,2,70,8|2|0,0:0|0:0|0:0,0:0:0:0:
111,205,72572,2,0,L|106:125,1,70,0|8,0:0|0:0,0:0:0:0:
221,53,72881,2,0,P|281:53|326:134,1,140,6|0,0:0|0:0,0:0:0:0:
417,95,73345,2,0,L|486:97,1,70,10|0,0:0|0:0,0:0:0:0:
486,185,73655,2,0,L|387:180,1,70,2|0,0:0|0:0,0:0:0:0:
351,242,73964,1,10,0:0:0:0:
183,176,74273,6,0,P|140:177|107:157,2,70,6|0|8,0:0|0:0|0:0,0:0:0:0:
193,92,74737,1,2,0:0:0:0:
280,70,74892,2,0,P|340:61|420:95,1,140,0|8,0:0|0:0,0:0:0:0:
448,164,75356,2,0,L|438:313,1,140,6|0,0:0|0:0,0:0:0:0:
367,349,75819,2,0,P|327:346|290:328,1,70,10|0,0:0|0:0,0:0:0:0:
253,266,76129,2,0,L|259:179,1,70,2|0,0:0|0:0,0:0:0:0:
308,128,76438,1,10,0:0:0:0:
156,57,76747,6,0,P|82:51|67:117,1,140,6|8,0:0|0:0,0:0:0:0:
136,143,77211,2,0,P|163:190|152:287,1,140,2|0,0:0|0:0,0:0:0:0:
91,323,77675,1,8,0:0:0:0:
158,273,77830,2,0,B|213:269|213:269|245:279|245:279|317:278,1,140,6|0,0:0|0:0,0:0:0:0:
351,216,78294,2,0,L|440:212,1,70,10|0,0:0|0:0,0:0:0:0:
475,273,78603,2,0,P|473:318|487:352,1,70,2|0,0:0|0:0,0:0:0:0:
501,196,78912,1,10,0:0:0:0:
391,58,79222,6,0,P|345:69|294:55,1,70,6|0,0:0|0:0,0:0:0:0:
240,45,79531,2,0,P|239:87|218:124,1,70,8|2,0:0|0:0,0:0:0:0:
157,155,79840,2,0,L|66:145,2,70,0|0|8,0:0|0:0|0:0,0:0:0:0:
66,262,80304,2,0,L|227:242,1,140,6|0,0:0|0:0,0:0:0:0:
278,286,80768,2,0,P|325:294|360:277,1,70,10|0,0:0|0:0,0:0:0:0:
396,217,81077,1,0,0:0:0:0:
396,217,81232,1,0,0:0:0:0:
340,142,81386,2,0,L|345:94,1,35,10|0,0:0|0:0,0:0:0:0:
321,84,81541,2,0,L|323:32,1,35
367,18,81696,6,0,P|275:41|211:19,1,140,6|10,0:0|0:0,0:0:0:0:
179,101,82160,2,0,P|106:102|61:157,1,140
44,234,82624,1,10,0:0:0:0:
118,290,82778,2,0,B|163:282|182:255|182:255|171:305|194:346,1,140,6|0,0:0|0:0,0:0:0:0:
263,359,83242,1,10,0:0:0:0:
263,359,83397,1,0,0:0:0:0:
340,321,83551,2,0,P|346:285|331:242,1,70,2|0,0:0|0:0,0:0:0:0:
384,186,83861,2,0,L|476:196,1,70,10|0,0:0|0:0,0:0:0:0:
357,72,84170,6,0,P|293:74|269:145,1,140,6|10,0:0|0:0,0:0:0:0:
308,210,84634,2,0,P|351:265|318:332,1,140
252,364,85098,1,10,0:0:0:0:
107,332,85252,1,6,0:0:0:0:
107,332,85562,2,0,L|103:243,2,70,0|10|0,0:0|0:0|0:0,0:0:0:0:
190,323,86026,2,0,P|236:322|265:329,1,70,2|0,0:0|0:0,0:0:0:0:
348,330,86335,2,0,P|365:281|331:206,1,105,10|0,0:0|0:0,0:0:0:0:
323,194,86644,6,0,P|371:237|464:219,1,140,6|10,0:0|0:0,0:0:0:0:
491,168,87108,2,0,L|480:15,1,140,2|0,0:0|0:0,0:0:0:0:
395,40,87572,1,10,0:0:0:0:
337,99,87727,2,0,P|264:103|217:57,1,140,6|0,0:0|0:0,0:0:0:0:
136,86,88191,2,0,P|78:87|51:104,1,70,10|0,0:0|0:0,0:0:0:0:
35,172,88500,2,0,L|44:257,1,70,2|0,0:0|0:0,0:0:0:0:
51,330,88809,1,10,0:0:0:0:
240,304,89118,6,0,P|306:317|364:262,1,140,6|10,0:0|0:0,0:0:0:0:
341,186,89582,2,0,P|275:173|217:228,1,140,6|0,0:0|0:0,0:0:0:0:
161,277,90046,1,10,0:0:0:0:
51,208,90201,2,0,L|38:54,2,140,2|2|2,0:0|0:0|0:0,0:0:0:0:
198,75,91129,1,0,0:0:0:0:
271,29,91283,2,0,P|316:38|341:71,2,70,8|8|2,0:0|3:0|0:0,0:0:0:0:
80,149,99015,6,0,P|144:152|207:98,1,140,4|0,0:0|0:0,0:0:0:0:
253,35,99479,2,0,P|303:45|264:119,1,140
470,193,100098,2,0,P|406:211|372:295,1,140,4|0,0:0|0:0,0:0:0:0:
318,336,100562,2,0,P|273:328|234:337,1,70,8|0,0:0|0:0,0:0:0:0:
173,358,100871,1,8,0:0:0:0:
49,230,101180,2,0,L|101:238,1,35,8|0,0:0|0:0,0:0:0:0:
107,258,101335,2,0,L|164:252,1,35
175,213,101490,6,0,P|158:136|185:68,1,140,4|8,0:0|0:0,0:0:0:0:
256,42,101953,1,0,0:0:0:0:
176,79,102108,2,0,L|25:74,1,140,0|8,0:0|0:0,0:0:0:0:
26,163,102572,2,0,P|49:209|53:305,1,140
126,346,103036,1,8,0:0:0:0:
126,346,103191,1,0,0:0:0:0:
194,289,103345,2,0,L|189:206,1,70
188,133,103655,2,0,P|247:143|272:130,1,70,8|0,0:0|0:0,0:0:0:0:
313,79,103964,6,0,L|307:7,2,70,4|0|8,0:0|0:0|0:0,0:0:0:0:
470,138,104428,2,0,P|406:155|401:233,1,140,4|0,0:0|0:0,0:0:0:0:
413,302,104892,1,0,0:0:0:0:
287,340,105046,2,0,P|235:350|188:275,1,140,4|0,0:0|0:0,0:0:0:0:
105,310,105510,2,0,P|63:312|31:327,1,70,8|0,0:0|0:0,0:0:0:0:
10,146,105974,2,0,P|99:142|138:94,1,140
176,35,106438,6,0,L|330:56,1,140,4|8,0:0|0:0,0:0:0:0:
287,125,106902,2,0,P|353:126|391:48,1,140
468,28,107366,1,8,0:0:0:0:
468,28,107521,2,0,P|495:84|488:177,1,140,4|0,0:0|0:0,0:0:0:0:
449,234,107984,1,8,0:0:0:0:
458,246,108294,2,0,L|363:233,1,70
300,239,108603,2,0,P|308:281|292:321,1,70,8|0,0:0|0:0,0:0:0:0:
163,346,108912,6,0,L|152:183,1,140,4|8,0:0|0:0,0:0:0:0:
181,126,109376,2,0,P|262:130|290:199,1,140
253,252,109840,1,8,0:0:0:0:
407,233,109995,2,0,L|407:83,1,140,4|0,0:0|0:0,0:0:0:0:
349,35,110459,2,0,P|299:53|267:48,1,70,8|0,0:0|0:0,0:0:0:0:
430,11,110768,1,8,0:0:0:0:
204,49,111386,6,0,L|45:44,1,140,4|8,0:0|0:0,0:0:0:0:
40,123,111850,2,0,P|60:166|59:194,1,70
139,214,112159,2,0,P|136:254|113:289,1,70,0|8,0:0|0:0,0:0:0:0:
59,334,112469,2,0,P|136:311|220:330,1,140
265,276,112933,2,0,P|312:295|341:287,1,70,8|0,0:0|0:0,0:0:0:0:
361,271,113165,1,0,0:0:0:0:
361,271,113242,2,0,L|353:195,2,70,4|0|8,0:0|0:0|0:0,0:0:0:0:
447,288,113705,6,0,L|430:137,1,140
477,75,114169,1,8,0:0:0:0:
477,75,114324,1,0,0:0:0:0:
306,51,114633,1,0,0:0:0:0:
237,98,114788,2,0,L|250:178,1,70
302,227,115097,2,0,P|351:230|376:215,1,70
421,151,115406,6,0,P|415:217|427:299,1,140,4|8,0:0|0:0,0:0:0:0:
361,347,115869,2,0,P|324:338|293:345,1,70
219,300,116179,2,0,P|172:319|139:319,1,70,0|8,0:0|0:0,0:0:0:0:
69,290,116488,2,0,L|76:131,1,140,4|0,0:0|0:0,0:0:0:0:
136,95,116952,2,0,P|177:101|206:121,1,70,8|0,0:0|0:0,0:0:0:0:
282,89,117261,1,0,0:0:0:0:
282,89,117416,1,0,0:0:0:0:
263,174,117570,2,0,L|260:248,1,70,8|0,0:0|0:0,0:0:0:0:
323,299,117880,5,0,0:0:0:0:
430,47,118189,2,0,P|380:67|353:59,1,70
330,137,118498,2,0,P|295:137|265:119,1,70
199,167,118808,2,0,P|170:147|157:115,1,70
88,71,119117,2,0,P|49:98|38:132,1,70
64,191,119426,2,0,P|48:235|59:269,1,70
124,294,119735,2,0,P|137:339|166:360,1,70
231,329,120045,2,0,P|259:339|324:326,1,70
357,271,120354,5,0,0:0:0:0:
357,271,120509,1,0,0:0:0:0:
298,205,120663,2,0,L|217:209,1,70
166,146,120973,2,0,P|162:103|178:63,1,70
243,28,121282,2,0,L|335:31,1,70
404,31,121591,5,8,0:0:0:0:
391,161,121746,1,8,0:0:0:0:
406,175,122210,5,8,0:0:0:0:
420,46,122365,1,8,0:0:0:0:
183,63,122828,6,0,P|113:62|58:115,2,140,0|0|0,1:0|1:0|1:0,0:0:0:0:
241,124,123601,1,0,0:0:0:0:
241,124,123756,2,0,P|231:169|242:204,1,70,0|0,1:0|0:0,0:0:0:0:
304,241,124065,2,0,L|453:235,2,140,0|0|0,1:0|1:0|1:0,0:0:0:0:
237,292,124838,1,0,0:0:0:0:
237,292,124993,2,0,P|190:291|158:305,1,70,0|0,1:0|0:0,0:0:0:0:
99,346,125302,6,0,P|114:282|89:207,1,140,0|0,1:0|1:0,0:0:0:0:
70,131,125766,1,0,0:0:0:0:
70,131,125921,2,0,L|82:56,2,70,0|0|0,1:0|0:0|1:0,0:0:0:0:
195,211,126385,6,0,P|248:190|248:102,1,140,2|0,0:0|0:0,0:0:0:0:
235,36,126849,2,0,L|159:42,1,70,0|0,1:0|0:0,0:0:0:0:
56,160,127313,1,8,0:0:0:0:
121,215,127467,2,0,L|108:266,1,35
84,274,127622,2,0,L|94:311,1,35
88,340,127777,6,0,P|153:330|247:348,1,140,4|8,0:0|0:0,0:0:0:0:
303,356,128241,2,0,L|304:186,1,140,4|0,0:0|0:0,0:0:0:0:
228,202,128704,2,0,P|186:219|153:215,1,70,8|0,0:0|0:0,0:0:0:0:
278,135,129014,2,0,L|444:140,1,140,4|8,0:0|0:0,0:0:0:0:
440,161,129400,1,0,0:0:0:0:
439,161,129478,1,4,0:0:0:0:
384,230,129632,2,0,L|329:227,2,35,4|0|0,0:0|0:0|0:0,0:0:0:0:
468,244,129942,2,0,L|460:320,1,70,8|0,0:0|0:0,0:0:0:0:
264,298,130406,5,8,0:0:0:0:
178,223,130560,1,8,0:0:0:0:
152,331,130715,1,0,0:0:0:0:
264,298,130869,2,0,P|325:306|362:234,1,140,8|8,0:0|0:0,0:0:0:0:
353,158,131333,1,0,0:0:0:0:
347,144,131643,5,8,0:0:0:0:
202,143,131797,1,8,0:0:0:0:
208,157,132570,6,0,B|145:146|148:216|71:215,1,140,4|0,0:0|0:0,0:0:0:0:
46,284,133034,2,0,P|68:316|73:355,1,70,8|0,0:0|0:0,0:0:0:0:
156,327,133344,2,0,L|237:333,1,70
308,339,133653,1,8,0:0:0:0:
414,249,133808,2,0,P|434:196|409:95,1,140,4|0,0:0|0:0,0:0:0:0:
344,74,134271,2,0,L|271:80,1,70,8|0,0:0|0:0,0:0:0:0:
240,100,134503,1,0,0:0:0:0:
200,119,134581,2,0,L|188:39,2,70,0|0|8,0:0|0:0|0:0,0:0:0:0:
149,262,135045,6,0,P|205:264|246:193,1,140,4|0,0:0|0:0,0:0:0:0:
324,233,135509,2,0,P|315:276|324:323,1,70,8|0,0:0|0:0,0:0:0:0:
401,315,135818,2,0,P|409:281|407:246,2,70,0|0|8,0:0|0:0|0:0,0:0:0:0:
237,331,136282,2,0,P|161:317|89:331,1,140,4|0,0:0|0:0,0:0:0:0:
49,261,136746,1,8,0:0:0:0:
102,202,136900,2,0,L|96:154,2,35
179,235,137210,2,0,L|261:242,1,70,0|8,0:0|0:0,0:0:0:0:
380,241,137519,6,0,L|225:222,1,140,4|0,0:0|0:0,0:0:0:0:
205,152,137983,2,0,P|194:114|211:59,1,70,8|0,0:0|0:0,0:0:0:0:
127,44,138292,2,0,L|39:48,2,70,0|0|8,0:0|0:0|0:0,0:0:0:0:
277,35,138756,2,0,P|332:39|355:128,1,140,4|0,0:0|0:0,0:0:0:0:
425,170,139220,1,8,0:0:0:0:
425,170,139375,1,0,0:0:0:0:
361,226,139529,2,0,L|269:224,1,70
229,281,139838,1,8,0:0:0:0:
98,323,139993,6,0,B|80:216|80:216|129:247,1,140,4|0,0:0|0:0,0:0:0:0:
173,190,140457,2,0,L|178:97,1,70,8|0,0:0|0:0,0:0:0:0:
115,62,140766,2,0,L|66:69,2,35
194,43,141076,1,8,0:0:0:0:
349,46,141230,2,0,P|400:58|348:117,1,140,4|0,0:0|0:0,0:0:0:0:
297,155,141694,2,0,P|286:192|295:229,1,70,8|0,0:0|0:0,0:0:0:0:
326,248,141926,1,0,0:0:0:0:
326,248,142003,2,0,L|376:251,2,35
419,310,142313,1,8,0:0:0:0:
235,295,142467,6,0,L|73:294,1,140,4|0,0:0|0:0,0:0:0:0:
24,238,142931,1,8,0:0:0:0:
24,238,143086,1,0,0:0:0:0:
25,144,143241,2,0,P|83:152|131:86,1,140,0|8,0:0|0:0,0:0:0:0:
225,208,143704,2,0,P|295:199|344:254,1,140,4|0,0:0|0:0,0:0:0:0:
390,317,144168,1,8,0:0:0:0:
390,317,144323,1,0,0:0:0:0:
467,274,144478,2,0,B|459:216|459:216|468:201|468:201|462:130,1,140,0|8,0:0|0:0,0:0:0:0:
344,62,144942,6,0,P|278:101|211:65,1,140,4|0,0:0|0:0,0:0:0:0:
139,94,145406,2,0,P|156:148|154:184,1,70,8|0,0:0|0:0,0:0:0:0:
236,208,145715,2,0,L|247:161,2,35
164,248,146024,1,8,0:0:0:0:
286,334,146179,2,0,P|360:325|365:258,1,140,4|0,0:0|0:0,0:0:0:0:
375,189,146643,2,0,L|464:191,1,70,8|0,0:0|0:0,0:0:0:0:
440,104,146952,2,0,L|350:105,1,70
303,49,147261,1,8,0:0:0:0:
143,47,147416,6,0,P|183:88|180:189,1,140,4|0,0:0|0:0,0:0:0:0:
142,237,147880,2,0,P|98:230|62:238,1,70,8|0,0:0|0:0,0:0:0:0:
39,259,148112,1,0,0:0:0:0:
39,259,148189,2,0,L|54:339,2,70,0|0|8,0:0|0:0|0:0,0:0:0:0:
42,98,148653,2,0,P|113:105|176:53,1,140,4|0,0:0|0:0,0:0:0:0:
216,138,149117,2,0,P|275:138|299:148,1,70,8|0,0:0|0:0,0:0:0:0:
356,98,149426,2,0,L|354:20,2,70,0|0|8,0:0|0:0|0:0,0:0:0:0:
254,220,149890,6,0,P|188:234|147:306,1,140,4|0,0:0|0:0,0:0:0:0:
212,349,150354,2,0,L|292:346,1,70,8|0,0:0|0:0,0:0:0:0:
308,329,150586,1,0,0:0:0:0:
308,329,150663,2,0,L|316:279,1,35
298,267,150818,2,0,L|307:226,1,35
283,195,150973,1,8,0:0:0:0:
446,123,151127,2,0,P|389:138|340:72,1,140,4|0,0:0|0:0,0:0:0:0:
394,22,151591,2,0,L|441:23,2,35,8|0|0,0:0|0:0|0:0,0:0:0:0:
251,32,151900,2,0,L|166:33,1,70,8|4,3:0|3:0,0:0:0:0:
116,88,152210,1,8,0:0:0:0:
17,18,152364,6,0,P|70:44|87:135,1,140,4|0,0:0|0:0,0:0:0:0:
37,175,152828,2,0,P|35:227|41:273,1,70
102,300,153137,1,8,0:0:0:0:
264,187,153447,1,0,0:0:0:0:
324,241,153601,2,0,P|384:246|408:160,1,140
472,114,154065,2,0,L|475:28,1,70
501,191,154375,1,8,0:0:0:0:
386,45,154684,2,0,P|321:34|293:45,1,70,0|8,0:0|0:0,0:0:0:0:
250,88,154993,6,0,P|265:147|254:190,3,93.3333333333333,8|8|8|4,0:0|0:0|0:0|0:0,0:0:0:0:
81,85,155921,1,8,0:0:0:0:
25,147,156076,2,0,P|58:193|71:300,1,140,0|8,0:0|0:0,0:0:0:0:
155,256,156540,2,0,P|208:248|251:255,1,70
295,306,156849,2,0,L|293:350,2,35
378,277,157158,2,0,L|380:225,2,46.6666666666667,8|8|8,0:0|0:0|0:0,0:0:0:0:
408,292,157467,6,0,L|407:142,1,140,4|0,0:0|0:0,0:0:0:0:
460,83,157931,1,0,0:0:0:0:
331,47,158086,2,0,B|288:43|288:43|238:67|238:67|180:60,1,140,8|0,0:0|0:0,0:0:0:0:
319,178,158550,2,0,B|362:174|362:174|412:198|412:198|470:191,1,140,0|8,0:0|0:0,0:0:0:0:
481,271,159014,1,0,0:0:0:0:
426,335,159168,2,0,L|432:374,2,35,0|0|8,0:0|0:0|0:0,0:0:0:0:
352,290,159478,2,0,L|306:289,1,35
295,306,159632,1,0,0:0:0:0:
304,193,159787,5,2,2:0:0:0:
256,192,159942,12,0,161952,0:0:0:0:
295,294,162416,6,0,P|251:297|218:280,2,70,6|0|10,0:0|0:0|0:0,0:0:0:0:
361,240,162880,2,0,L|369:81,1,140
284,56,163344,1,10,0:0:0:0:
201,82,163498,6,0,P|128:79|97:143,1,140,6|0,0:0|0:0,0:0:0:0:
91,215,163962,2,0,L|88:301,1,70,10|0,0:0|0:0,0:0:0:0:
87,311,164194,1,0,0:0:0:0:
87,311,164271,2,0,P|140:318|182:297,1,70,2|0,0:0|0:0,0:0:0:0:
228,263,164581,2,0,L|316:279,1,70,10|0,0:0|0:0,0:0:0:0:
438,335,164890,6,0,L|429:183,1,140,6|10,0:0|0:0,0:0:0:0:
342,139,165354,2,0,P|270:143|245:214,1,140,2|0,0:0|0:0,0:0:0:0:
179,255,165818,1,10,0:0:0:0:
62,196,165973,2,0,L|76:38,1,140,6|0,0:0|0:0,0:0:0:0:
155,31,166436,2,0,P|214:42|232:61,1,70,10|0,0:0|0:0,0:0:0:0:
262,125,166746,1,2,0:0:0:0:
262,125,166900,1,0,0:0:0:0:
364,27,167055,2,0,L|447:26,1,70,10|0,0:0|0:0,0:0:0:0:
459,59,167287,1,0,0:0:0:0:
459,59,167364,6,0,P|477:109|458:201,1,140,6|10,0:0|0:0,0:0:0:0:
378,237,167828,2,0,P|362:169|381:103,1,140,0|2,0:0|0:0,0:0:0:0:
309,58,168292,1,10,0:0:0:0:
156,59,168447,2,0,B|108:57|72:25|72:25|91:66|89:98,1,140,6|0,0:0|0:0,0:0:0:0:
43,140,168911,2,0,P|57:192|56:227,1,70,10|0,0:0|0:0,0:0:0:0:
30,237,169143,1,0,0:0:0:0:
30,237,169220,2,0,L|123:228,1,70,2|0,0:0|0:0,0:0:0:0:
169,171,169529,2,0,L|255:165,1,70,10|0,0:0|0:0,0:0:0:0:
159,326,169838,6,0,L|299:316,1,140,6|8,0:0|0:0,0:0:0:0:
387,307,170302,2,0,P|409:240|369:177,1,140,2|0,0:0|0:0,0:0:0:0:
296,157,170766,1,10,0:0:0:0:
216,196,170921,2,0,P|162:197|112:121,1,140,2|0,0:0|0:0,0:0:0:0:
141,51,171385,2,0,P|196:55|217:78,1,70,10|2,0:0|0:0,0:0:0:0:
236,88,171617,1,0,0:0:0:0:
236,88,171694,2,0,P|294:94|321:77,1,70,10|0,0:0|0:0,0:0:0:0:
320,60,171926,1,0,0:0:0:0:
320,60,172003,2,0,L|317:13,2,35,10|0|0,0:0|0:0|0:0,0:0:0:0:
438,24,172313,6,0,L|419:177,1,140,6|10,0:0|0:0,0:0:0:0:
464,288,172777,2,0,B|424:278|424:278|378:297|378:297|321:284,1,140
277,356,173241,1,10,0:0:0:0:
166,298,173395,2,0,B|112:302|112:302|131:196,1,140,6|0,0:0|0:0,0:0:0:0:
200,165,173859,2,0,L|289:179,1,70,10|0,0:0|0:0,0:0:0:0:
293,156,174091,1,0,0:0:0:0:
293,156,174168,2,0,L|375:166,1,70,2|0,0:0|0:0,0:0:0:0:
432,117,174478,1,10,0:0:0:0:
451,340,174787,6,0,P|385:329|371:255,1,140,6|10,0:0|0:0,0:0:0:0:
382,187,175251,1,2,0:0:0:0:
310,141,175406,2,0,L|307:100,2,35,0|0|2,0:0|0:0|0:0,0:0:0:0:
248,192,175715,1,10,0:0:0:0:
130,139,175869,2,0,B|148:185|148:185|128:236|128:236|145:281,1,140,6|0,0:0|0:0,0:0:0:0:
208,323,176333,2,0,L|302:321,1,70,10|0,0:0|0:0,0:0:0:0:
342,261,176643,2,0,P|347:217|334:174,1,70,2|0,0:0|0:0,0:0:0:0:
276,128,176952,2,0,L|197:130,1,70,10|0,0:0|0:0,0:0:0:0:
354,76,177261,6,0,B|417:76|418:155|477:138,1,140,6|10,0:0|0:0,0:0:0:0:
461,227,177725,2,0,P|418:244|430:331,1,140,0|2,0:0|0:0,0:0:0:0:
501,353,178189,1,8,0:0:0:0:
325,342,178344,2,0,L|166:337,1,140,6|0,0:0|0:0,0:0:0:0:
128,270,178808,2,0,L|135:177,1,70,10|0,0:0|0:0,0:0:0:0:
137,156,179040,1,0,0:0:0:0:
137,156,179117,2,0,P|83:159|43:148,1,70,2|0,0:0|0:0,0:0:0:0:
21,84,179426,1,10,0:0:0:0:
252,96,179735,6,0,P|302:118|241:161,1,140,6|10,0:0|0:0,0:0:0:0:
227,189,180122,1,8,0:0:0:0:
227,189,180199,2,0,P|238:234|235:266,1,70,8|4,3:0|3:0,0:0:0:0:
145,283,180509,2,0,L|55:278,1,70,0|10,0:0|0:0,0:0:0:0:
202,355,180818,2,0,L|356:348,1,140,6|0,0:0|0:0,0:0:0:0:
410,286,181282,2,0,P|418:239|408:212,1,70,10|0,0:0|0:0,0:0:0:0:
329,169,181591,2,0,L|207:177,2,105,10|10|10,0:0|0:0|0:0,0:0:0:0:
155,125,182210,5,4,0:0:0:0:
256,192,182287,12,4,187158,2:1:0:0:
