osu file format v14

[General]
AudioFilename: audio.mp3
AudioLeadIn: 0
PreviewTime: 51424
Countdown: 0
SampleSet: Normal
StackLeniency: 0.7
Mode: 0
LetterboxInBreaks: 0
WidescreenStoryboard: 0

[Editor]
DistanceSpacing: 1.6
BeatDivisor: 4
GridSize: 4
TimelineZoom: 1.7

[Metadata]
Title:Berserk
TitleUnicode:Berserk
Artist:Mafumafu
ArtistUnicode:まふまふ
Creator:HabiHolic
Version:Extra
Source:
Tags:
BeatmapID:1217056
BeatmapSetID:574665

[Difficulty]
HPDrainRate:7.3
CircleSize:4
OverallDifficulty:7.3
ApproachRate:9.3
SliderMultiplier:1.8
SliderTickRate:1

[Events]
//Background and Video events
0,0,"BG.jpg",0,0
//Break Periods
2,72114,80901
//Storyboard Layer 0 (Background)
//Storyboard Layer 1 (Fail)
//Storyboard Layer 2 (Pass)
//Storyboard Layer 3 (Foreground)
//Storyboard Sound Samples

[TimingPoints]
1082,309.278350515464,4,2,1,70,1,0
2636,309.278350515464,4,1,1,70,1,0
12532,-83.3333333333333,4,1,1,70,0,0
12996,-100,4,1,1,70,0,0
22429,-133.333333333333,4,2,1,50,0,0
29852,-100,4,1,1,70,0,0
42223,-133.333333333333,4,2,1,50,0,0
46708,-100,4,1,1,70,0,0
46862,-83.3333333333333,4,1,1,70,0,0
47172,-100,4,1,1,70,0,0
91708,-133.333333333333,4,2,0,50,0,0
99130,-100,4,1,1,70,0,0
113357,309.278350515464,4,1,1,70,1,0
115521,309.278350515464,4,1,1,70,1,0
117995,-100,4,1,1,50,0,0
121706,-100,4,1,1,70,0,0
122943,-133.333333333333,4,2,1,50,0,0
127428,-100,4,1,1,70,0,0
152479,-200,4,1,1,70,0,0
155108,-76.9230769230769,4,1,1,70,0,0
155727,-100,4,1,1,70,0,0
156191,-200,4,1,1,70,0,0
157273,-83.3333333333333,4,1,1,70,0,0
157582,-133.333333333333,4,1,1,70,0,0
162531,-83.3333333333333,4,1,1,70,0,0

[HitObjects]
52,68,1082,5,0,0:0:0:0:
48,76,1391,1,0,0:0:0:0:
144,188,1623,1,0,0:0:0:0:
148,200,1700,2,0,L|216:192,1,45,8|8,3:0|3:0,0:0:0:0:
280,184,1855,1,4,3:0:0:0:
396,20,2009,1,4,3:0:0:0:
408,28,2087,1,4,3:0:0:0:
420,36,2164,2,0,L|412:88,1,45,8|8,3:0|3:0,0:0:0:0:
472,156,2319,2,0,L|460:216,1,45,10|0,3:0|1:0,0:0:0:0:
436,292,2473,1,2,3:0:0:0:
216,204,2636,5,6,0:0:0:0:
388,112,2790,1,0,0:0:0:0:
320,312,2945,1,10,0:0:0:0:
156,123,3099,2,0,P|122:180|130:246,1,135,2|0,0:0|0:0,0:0:0:0:
152,272,3409,1,2,0:0:0:0:
312,204,3563,1,10,0:0:0:0:
376,376,3718,6,0,B|388:324|388:324|380:280|380:280|416:248|408:200,1,180,6|0,0:0|0:0,0:0:0:0:
320,36,4182,1,10,0:0:0:0:
468,124,4337,1,0,0:0:0:0:
468,124,4414,1,0,0:0:0:0:
468,124,4491,1,2,0:0:0:0:
276,244,4646,1,0,0:0:0:0:
404,32,4800,1,10,0:0:0:0:
360,332,4955,1,0,0:0:0:0:
252,248,5110,6,0,P|204:244|156:224,1,90,6|0,0:0|0:0,0:0:0:0:
116,120,5419,1,10,0:0:0:0:
264,12,5574,2,0,L|248:104,1,90,2|0,0:0|0:0,0:0:0:0:
92,24,5883,1,2,0:0:0:0:
32,264,6038,1,10,0:0:0:0:
111,360,6192,6,0,P|159:285|144:198,1,180,6|0,0:0|0:0,0:0:0:0:
64,112,6656,1,10,0:0:0:0:
276,200,6811,1,0,0:0:0:0:
264,28,6965,2,0,P|212:24|172:16,1,90,2|0,0:0|0:0,0:0:0:0:
40,88,7275,1,10,0:0:0:0:
156,344,7429,1,0,0:0:0:0:
156,344,7507,1,0,0:0:0:0:
156,344,7584,6,0,L|168:248,1,90,6|0,0:0|0:0,0:0:0:0:
72,180,7893,1,10,0:0:0:0:
256,316,8048,2,0,L|268:220,1,90,2|0,0:0|0:0,0:0:0:0:
220,60,8357,1,2,0:0:0:0:
388,184,8512,1,10,0:0:0:0:
152,276,8666,6,0,B|92:256|92:256|56:208|56:208|-4:184,1,180,6|0,0:0|0:0,0:0:0:0:
0,304,9130,1,10,0:0:0:0:
156,164,9285,1,0,0:0:0:0:
204,368,9440,2,0,P|240:336|256:292,1,90,2|0,0:0|0:0,0:0:0:0:
400,108,9749,2,0,L|392:208,1,90,10|0,0:0|0:0,0:0:0:0:
152,276,10058,5,6,0:0:0:0:
356,328,10213,1,0,0:0:0:0:
212,180,10367,1,10,0:0:0:0:
431,376,10522,2,0,P|451:313|418:257,1,135,2|0,0:0|0:0,0:0:0:0:
311,323,10831,2,0,P|333:328|356:328,1,45,2|0,0:0|0:0,0:0:0:0:
460,168,10986,2,0,P|438:162|415:163,1,45,10|0,0:0|0:0,0:0:0:0:
268,32,11141,6,0,L|288:224,1,180,6|0,0:0|0:0,0:0:0:0:
180,356,11605,2,0,P|132:344|92:304,1,90,10|0,0:0|0:0,0:0:0:0:
64,240,11837,1,0,0:0:0:0:
48,252,11914,1,10,0:0:0:0:
180,124,12068,1,0,0:0:0:0:
320,360,12223,1,10,0:0:0:0:
320,360,12300,1,0,0:0:0:0:
320,360,12377,1,0,0:0:0:0:
320,360,12454,1,0,0:0:0:0:
320,360,12532,6,0,P|356:284|316:204,1,161.999995056153,6|0,0:0|0:0,0:0:0:0:
272,144,12842,1,10,0:0:0:0:
148,280,12996,6,0,P|189:295|233:289,1,90,2|0,0:0|0:0,0:0:0:0:
284,40,13306,1,2,0:0:0:0:
80,196,13460,1,10,0:0:0:0:
19,104,13615,6,0,P|104:84|171:139,1,180,6|0,0:0|0:0,0:0:0:0:
392,284,14079,2,0,L|400:192,1,90,10|0,0:0|0:0,0:0:0:0:
356,116,14311,1,0,0:0:0:0:
340,96,14388,1,2,0:0:0:0:
256,320,14543,1,0,0:0:0:0:
152,164,14697,1,10,0:0:0:0:
312,244,14852,1,0,0:0:0:0:
72,224,15007,6,0,P|51:161|76:99,1,135,6|0,0:0|0:0,0:0:0:0:
136,56,15316,1,10,0:0:0:0:
288,220,15471,2,0,P|244:216|196:192,1,90,2|0,0:0|0:0,0:0:0:0:
208,12,15780,1,2,0:0:0:0:
144,288,15934,1,10,0:0:0:0:
368,360,16089,6,0,P|427:294|428:206,1,180,6|0,0:0|0:0,0:0:0:0:
352,16,16553,2,0,L|336:112,1,90,10|0,0:0|0:0,0:0:0:0:
292,284,16862,1,2,0:0:0:0:
128,200,17017,1,0,0:0:0:0:
252,44,17172,1,10,0:0:0:0:
252,44,17249,1,0,0:0:0:0:
252,44,17326,1,0,0:0:0:0:
252,44,17404,1,0,0:0:0:0:
252,44,17481,6,0,L|236:144,1,90,6|0,0:0|0:0,0:0:0:0:
52,264,17790,1,10,0:0:0:0:
288,204,17945,1,2,0:0:0:0:
288,204,18022,1,0,0:0:0:0:
288,204,18099,1,0,0:0:0:0:
132,332,18254,1,2,0:0:0:0:
160,80,18409,1,10,0:0:0:0:
360,272,18563,6,0,B|420:256|420:256|456:204|456:204|512:184,1,180,6|0,0:0|0:0,0:0:0:0:
344,36,19027,2,0,L|364:128,1,90,10|0,0:0|0:0,0:0:0:0:
224,280,19337,1,2,0:0:0:0:
260,96,19491,1,0,0:0:0:0:
212,292,19646,1,10,0:0:0:0:
172,24,19800,1,0,0:0:0:0:
16,224,19955,5,6,0:0:0:0:
172,116,20110,1,0,0:0:0:0:
40,60,20264,1,2,0:0:0:0:
79,319,20419,2,0,P|165:333|222:268,1,180,6|0,0:0|0:0,0:0:0:0:
260,56,20883,1,2,0:0:0:0:
496,208,21038,6,0,P|443:167|377:166,1,135,2|0,0:0|2:0,0:0:0:0:
351,372,21347,2,0,P|401:327|413:262,1,135,2|0,0:0|2:0,0:0:0:0:
296,99,21656,6,0,P|271:184|306:266,1,180,2|8,0:0|3:0,0:0:0:0:
472,232,22120,1,8,3:0:0:0:
356,352,22275,1,4,3:0:0:0:
272,288,22429,6,0,P|296:260|328:244,1,67.5000025749208,0|0,1:0|0:0,0:0:0:0:
196,356,22739,2,0,L|128:344,1,67.5000025749208,0|0,1:0|0:0,0:0:0:0:
28,232,23048,2,0,P|91:250|144:210,1,135.000005149842,0|0,1:0|1:0,0:0:0:0:
224,56,23512,1,0,0:0:0:0:
224,56,23666,6,0,L|236:124,1,67.5000025749208,0|0,1:0|0:0,0:0:0:0:
352,196,23976,2,0,L|368:120,1,67.5000025749208,0|0,1:0|0:0,0:0:0:0:
252,232,24285,5,0,1:0:0:0:
416,280,24440,1,0,0:0:0:0:
252,232,24594,1,0,1:0:0:0:
252,232,24904,6,0,L|176:224,1,67.5000025749208,0|0,1:0|0:0,0:0:0:0:
108,284,25213,1,0,1:0:0:0:
24,168,25367,2,0,P|19:134|23:101,1,67.5000025749208,0|0,0:0|1:0,0:0:0:0:
104,40,25677,1,0,0:0:0:0:
212,148,25831,2,0,L|136:136,1,67.5000025749208,0|0,1:0|0:0,0:0:0:0:
267,71,26141,6,0,P|304:126|295:192,1,135.000005149842,0|0,1:0|1:0,0:0:0:0:
160,300,26605,1,0,0:0:0:0:
344,360,26759,1,2,1:2:0:0:
232,244,26914,1,2,0:0:0:0:
336,376,27068,1,0,1:0:0:0:
312,144,27223,1,2,0:0:0:0:
476,288,27378,6,0,L|332:276,1,135.000005149842,0|0,1:0|1:0,0:0:0:0:
204,352,27842,2,0,P|168:344|136:316,1,67.5000025749208,0|0,0:0|1:0,0:0:0:0:
100,168,28151,1,0,0:0:0:0:
52,368,28306,1,0,1:0:0:0:
16,232,28460,1,0,0:0:0:0:
184,100,28615,6,0,P|198:130|203:163,1,67.5000025749208,0|0,1:0|0:0,0:0:0:0:
108,272,28924,1,0,1:0:0:0:
8,136,29079,1,0,0:0:0:0:
120,284,29233,2,0,L|196:276,1,67.5000025749208,0|0,1:0|0:0,0:0:0:0:
328,348,29543,2,0,L|404:340,1,67.5000025749208,0|0,1:0|0:0,0:0:0:0:
472,236,29852,5,4,0:0:0:0:
464,252,30780,1,0,2:0:0:0:
464,252,30857,1,0,2:0:0:0:
464,252,30934,6,0,B|444:200|444:200|456:156|456:156|436:120|440:80,1,180,4|0,0:0|0:0,0:0:0:0:
340,32,31398,1,8,3:0:0:0:
260,216,31553,1,8,3:0:0:0:
108,128,31708,1,8,3:0:0:0:
108,128,32017,2,0,P|88:124|64:124,1,45,8|0,0:0|0:0,0:0:0:0:
12,308,32172,2,0,P|34:308|56:304,1,45
228,244,32326,6,0,L|120:232,1,90,4|0,0:0|0:0,0:0:0:0:
160,372,32636,1,8,0:0:0:0:
376,304,32790,1,0,0:0:0:0:
376,304,32867,1,0,0:0:0:0:
376,304,32944,1,0,0:0:0:0:
320,112,33099,1,0,0:0:0:0:
296,376,33254,1,8,0:0:0:0:
324,216,33409,6,0,P|412:208|472:272,1,180
204,280,33873,2,0,L|192:184,1,90,8|0,0:0|0:0,0:0:0:0:
232,128,34105,1,0,0:0:0:0:
248,108,34182,1,0,0:0:0:0:
156,32,34337,1,0,0:0:0:0:
328,184,34491,2,0,P|372:184|412:160,1,90,8|0,0:0|0:0,0:0:0:0:
456,56,34800,5,4,0:0:0:0:
408,296,34955,1,0,0:0:0:0:
184,216,35110,1,8,0:0:0:0:
255,135,35264,2,0,P|283:196|272:262,1,135,4|0,0:0|0:0,0:0:0:0:
224,328,35574,1,0,0:0:0:0:
152,100,35728,1,8,0:0:0:0:
7,224,35883,6,0,P|93:211|154:273,1,180,4|0,0:0|0:0,0:0:0:0:
336,372,36347,2,0,L|348:280,1,90,8|0,0:0|0:0,0:0:0:0:
347,282,36579,1,0,0:0:0:0:
347,282,36656,1,0,0:0:0:0:
276,132,36811,1,0,0:0:0:0:
447,264,36965,2,0,P|444:241|433:222,1,45,8|0,0:0|0:0,0:0:0:0:
260,228,37120,2,0,P|249:247|245:269,1,45
348,188,37275,6,0,P|362:123|337:61,1,135,4|0,0:0|0:0,0:0:0:0:
272,16,37584,1,8,0:0:0:0:
88,164,37739,1,0,0:0:0:0:
88,164,37816,1,0,0:0:0:0:
88,164,37893,2,0,L|184:152,1,90
256,44,38203,1,8,0:0:0:0:
320,284,38357,6,0,B|380:268|380:268|412:216|412:216|468:196,1,180,4|0,0:0|0:0,0:0:0:0:
476,300,38821,1,8,0:0:0:0:
316,176,38976,1,0,0:0:0:0:
316,176,39053,1,0,0:0:0:0:
316,176,39130,1,0,0:0:0:0:
392,368,39285,1,0,0:0:0:0:
412,68,39440,1,8,0:0:0:0:
160,224,39594,1,0,0:0:0:0:
72,272,39749,6,0,P|136:324|228:296,1,180,4|8,0:0|0:0,0:0:0:0:
268,80,40213,1,0,0:0:0:0:
268,80,40290,1,0,0:0:0:0:
268,80,40367,1,0,0:0:0:0:
324,248,40522,1,0,0:0:0:0:
144,196,40677,1,8,0:0:0:0:
216,16,40831,6,0,L|240:208,1,180,4|0,0:0|0:0,0:0:0:0:
224,368,41295,1,8,3:0:0:0:
408,292,41450,1,8,3:0:0:0:
156,268,41605,1,8,3:0:0:0:
156,268,42223,6,0,L|88:256,1,67.5000025749208,0|0,1:0|0:0,0:0:0:0:
248,216,42532,2,0,L|272:148,1,67.5000025749208,0|0,1:0|0:0,0:0:0:0:
152,11,42842,2,0,P|131:74|156:136,1,135.000005149842,0|0,1:0|1:0,0:0:0:0:
248,216,43306,1,0,0:0:0:0:
384,60,43460,6,0,L|312:48,1,67.5000025749208,0|0,1:0|0:0,0:0:0:0:
464,111,43770,2,0,P|478:81|478:48,1,67.5000025749208,0|0,1:0|0:0,0:0:0:0:
376,152,44079,2,0,L|400:296,1,135.000005149842,0|0,1:0|1:0,0:0:0:0:
476,348,44543,1,0,0:0:0:0:
304,328,44697,6,0,P|268:324|240:304,1,67.5000025749208,0|0,1:0|0:0,0:0:0:0:
156,336,45007,2,0,P|148:304|156:268,1,67.5000025749208,0|0,1:0|0:0,0:0:0:0:
76,219,45316,2,0,P|95:192|124:176,1,67.5000025749208,0|0,1:0|0:0,0:0:0:0:
119,80,45625,2,0,P|153:82|183:96,1,67.5000025749208,0|0,1:0|0:0,0:0:0:0:
272,160,45934,6,0,L|292:24,1,135.000005149842,0|0,1:0|1:0,0:0:0:0:
372,132,46398,1,0,0:0:0:0:
340,232,46553,1,0,0:0:0:0:
404,32,46708,1,8,0:0:0:0:
492,208,46862,6,0,L|432:200,1,53.9999983520508
192,252,47017,2,0,L|246:260,1,53.9999983520508
135,172,47172,6,0,P|93:248|125:329,1,180,4|8,0:0|0:0,0:0:0:0:
416,249,47636,2,0,B|356:239|356:239|308:267|308:267|244:259,1,180,4|0,0:0|0:0,0:0:0:0:
284,152,48099,1,8,0:0:0:0:
388,360,48254,1,0,0:0:0:0:
500,192,48409,6,0,P|508:148|496:104,1,90,4|0,0:0|0:0,0:0:0:0:
312,24,48718,1,8,0:0:0:0:
312,24,48795,1,0,0:0:0:0:
312,24,48872,1,0,0:0:0:0:
276,232,49027,1,0,0:0:0:0:
276,232,49105,1,0,0:0:0:0:
276,232,49182,1,0,0:0:0:0:
208,80,49337,1,8,0:0:0:0:
240,328,49491,1,0,0:0:0:0:
240,328,49800,5,8,0:0:0:0:
280,32,49955,1,8,0:0:0:0:
288,44,50264,1,8,0:0:0:0:
296,56,50574,1,8,0:0:0:0:
240,352,50728,1,8,0:0:0:0:
232,340,51038,5,8,0:0:0:0:
184,128,51192,1,8,0:0:0:0:
168,100,51965,6,0,B|152:224|152:224|124:172,1,180,4|0,0:0|0:0,0:0:0:0:
108,36,52429,1,8,0:0:0:0:
48,264,52584,1,0,0:0:0:0:
276,212,52739,1,0,0:0:0:0:
40,108,52893,1,0,0:0:0:0:
40,108,52971,1,0,0:0:0:0:
40,108,53048,1,8,0:0:0:0:
223,299,53203,6,0,P|310:306|365:239,1,180,4|0,0:0|0:0,0:0:0:0:
248,32,53666,2,0,L|260:128,1,90,8|0,0:0|0:0,0:0:0:0:
259,121,53898,1,0,0:0:0:0:
259,121,53976,1,0,0:0:0:0:
223,299,54130,1,0,0:0:0:0:
76,184,54285,1,8,0:0:0:0:
232,328,54440,6,0,B|292:320|292:320|344:344|344:344|412:332,1,180,4|0,0:0|0:0,0:0:0:0:
484,108,54904,2,0,P|440:105|400:132,1,90,8|0,0:0|0:0,0:0:0:0:
336,200,55213,1,0,0:0:0:0:
232,24,55367,1,0,0:0:0:0:
232,24,55445,1,0,0:0:0:0:
232,24,55522,1,0,0:0:0:0:
140,64,55677,6,0,P|204:120|292:104,1,180,4|0,0:0|0:0,0:0:0:0:
348,28,56141,1,8,0:0:0:0:
304,248,56295,1,0,0:0:0:0:
304,248,56373,1,0,0:0:0:0:
304,248,56450,1,0,0:0:0:0:
484,176,56605,1,0,0:0:0:0:
424,84,56759,1,8,0:0:0:0:
376,356,56914,6,0,B|320:344|320:344|276:296|276:296|212:280,1,180,4|0,0:0|0:0,0:0:0:0:
36,360,57378,2,0,P|84:364|124:344,1,90,8|0,0:0|0:0,0:0:0:0:
120,346,57610,1,0,0:0:0:0:
120,346,57687,1,0,0:0:0:0:
244,152,57842,2,0,P|196:148|156:168,1,90,0|8,0:0|0:0,0:0:0:0:
12,236,58151,6,0,L|24:48,1,180,4|0,0:0|0:0,0:0:0:0:
244,152,58615,1,8,0:0:0:0:
112,8,58770,1,0,0:0:0:0:
116,284,58924,1,0,0:0:0:0:
172,80,59079,1,0,0:0:0:0:
36,212,59233,1,8,0:0:0:0:
224,272,59388,6,0,B|316:248|292:344|396:320,1,180,4|0,0:0|0:0,0:0:0:0:
488,176,59852,2,0,P|444:168|408:192,1,90,8|0,0:0|0:0,0:0:0:0:
408,191,60084,1,0,0:0:0:0:
408,191,60161,1,0,0:0:0:0:
316,240,60316,1,0,0:0:0:0:
240,176,60471,1,8,0:0:0:0:
344,8,60625,6,0,L|328:160,1,135,4|0,0:0|0:0,0:0:0:0:
328,152,60934,1,0,0:0:0:0:
176,352,61089,1,8,0:0:0:0:
160,336,61166,1,0,0:0:0:0:
140,320,61244,2,0,L|144:268,1,45
55,87,61398,2,0,L|52:132,1,45
228,284,61553,2,0,L|232:232,1,45
139,95,61708,2,0,L|136:140,1,45,8|0,0:0|0:0,0:0:0:0:
468,176,61862,6,0,B|408:168|408:168|364:124|364:124|296:112,1,180,4|0,0:0|0:0,0:0:0:0:
316,212,62326,1,8,0:0:0:0:
448,84,62481,1,0,0:0:0:0:
412,352,62636,2,0,L|424:256,1,90
423,262,62867,1,0,0:0:0:0:
423,262,62945,1,8,0:0:0:0:
224,76,63099,6,0,P|256:157|220:237,1,180,4|0,0:0|0:0,0:0:0:0:
148,152,63563,1,8,0:0:0:0:
340,244,63718,1,0,0:0:0:0:
168,356,63873,2,0,L|76:344,1,90
24,280,64105,1,0,0:0:0:0:
8,260,64182,1,8,0:0:0:0:
108,68,64337,6,0,B|100:128|100:128|116:188|116:188|106:244,1,180,4|0,0:0|0:0,0:0:0:0:
344,200,64800,2,0,P|296:152|228:160,1,135,8|0,0:0|0:0,0:0:0:0:
233,157,65110,1,0,0:0:0:0:
188,244,65264,1,0,0:0:0:0:
252,328,65419,1,8,0:0:0:0:
456,280,65574,6,0,L|472:96,1,180,4|0,0:0|0:0,0:0:0:0:
272,16,66038,1,8,0:0:0:0:
376,184,66192,1,0,0:0:0:0:
376,184,66270,1,0,0:0:0:0:
376,184,66347,1,0,0:0:0:0:
216,88,66501,1,0,0:0:0:0:
320,272,66656,1,8,0:0:0:0:
80,208,66811,6,0,L|264:192,1,180,4|0,0:0|0:0,0:0:0:0:
444,112,67275,2,0,P|404:88|360:88,1,90,8|0,0:0|0:0,0:0:0:0:
361,87,67507,1,0,0:0:0:0:
361,87,67584,1,0,0:0:0:0:
248,328,67739,2,0,P|292:324|333:306,1,90,0|8,0:0|0:0,0:0:0:0:
323,8,68048,6,0,P|273:77|305:157,1,180,4|0,0:0|0:0,0:0:0:0:
452,224,68512,1,8,0:0:0:0:
452,224,68589,1,0,0:0:0:0:
452,224,68666,1,0,0:0:0:0:
320,332,68821,1,0,0:0:0:0:
392,144,68976,1,0,0:0:0:0:
400,384,69130,1,8,0:0:0:0:
200,264,69285,6,0,B|140:248|140:248|104:196|104:196|48:180,1,180,4|0,0:0|0:0,0:0:0:0:
156,24,69749,1,8,0:0:0:0:
156,24,69826,1,0,0:0:0:0:
156,24,69904,2,0,L|148:72,1,45
212,160,70058,2,0,L|264:152,1,45
360,60,70212,2,0,L|340:108,1,45
360,248,70367,2,0,L|348:196,1,45,8|0,0:0|0:0,0:0:0:0:
311,343,70522,6,0,P|397:356|454:291,1,180,4|8,0:0|3:0,0:0:0:0:
440,144,70986,1,8,0:0:0:0:
236,232,71141,1,8,3:0:0:0:
280,16,71295,1,8,0:0:0:0:
212,324,71605,5,4,3:0:0:0:
212,324,71914,1,12,0:0:0:0:
120,48,81501,5,10,0:0:0:0:
120,48,81579,1,0,0:0:0:0:
120,48,81655,1,0,0:0:0:0:
120,48,81733,1,0,0:0:0:0:
120,48,81811,6,0,L|108:184,1,135,6|0,0:0|0:0,0:0:0:0:
96,192,82120,1,10,0:0:0:0:
276,144,82275,1,0,0:0:0:0:
224,56,82429,1,2,0:0:0:0:
188,304,82583,1,0,0:0:0:0:
400,216,82738,1,10,0:0:0:0:
252,384,82893,6,0,P|284:300|244:220,1,180,6|0,0:0|0:0,0:0:0:0:
48,288,83357,2,0,P|92:304|140:300,1,90,10|0,0:0|0:0,0:0:0:0:
134,301,83589,1,8,0:0:0:0:
134,301,83667,1,2,0:0:0:0:
308,132,83821,2,0,P|264:116|216:120,1,90,0|10,0:0|0:0,0:0:0:0:
192,372,84130,1,0,0:0:0:0:
396,196,84285,6,0,L|408:104,1,90,6|0,0:0|0:0,0:0:0:0:
276,216,84594,1,10,0:0:0:0:
484,196,84749,2,0,L|495:285,1,90,0|2,0:0|0:0,0:0:0:0:
268,236,85058,1,0,0:0:0:0:
416,336,85213,1,10,0:0:0:0:
192,320,85367,6,0,P|164:232|192:152,1,180,6|0,0:0|0:0,0:0:0:0:
328,28,85831,1,10,0:0:0:0:
288,216,85986,1,0,0:0:0:0:
392,84,86141,1,2,0:0:0:0:
232,152,86295,1,0,0:0:0:0:
456,192,86450,1,10,0:0:0:0:
456,192,86527,1,0,0:0:0:0:
456,192,86605,1,0,0:0:0:0:
456,192,86682,1,0,0:0:0:0:
456,192,86759,6,0,P|439:256|458:320,1,135,6|0,0:0|0:0,0:0:0:0:
472,332,87068,1,10,0:0:0:0:
268,240,87223,1,0,0:0:0:0:
268,240,87300,1,0,0:0:0:0:
268,240,87378,1,2,0:0:0:0:
372,72,87532,1,0,0:0:0:0:
324,324,87687,1,10,0:0:0:0:
132,180,87842,6,0,P|46:164|-14:225,1,180,6|0,0:0|0:0,0:0:0:0:
80,352,88306,2,0,B|88:308|88:308|76:260,1,90,10|0,0:0|0:0,0:0:0:0:
236,104,88615,2,0,B|225:147|225:147|233:191,1,90,2|0,0:0|0:0,0:0:0:0:
324,312,88924,1,10,0:0:0:0:
324,312,89233,5,6,0:0:0:0:
380,136,89388,1,0,0:0:0:0:
496,268,89543,1,10,0:0:0:0:
252,243,89697,2,0,P|332:212|406:257,1,180,6|0,0:0|0:0,0:0:0:0:
452,352,90161,1,10,0:0:0:0:
180,304,90316,6,0,P|156:232|180:180,1,135,2|0,0:0|2:0,0:0:0:0:
253,121,90625,2,0,P|276:182|251:243,1,135,2|0,0:0|2:0,0:0:0:0:
180,308,90934,2,0,B|120:296|120:296|64:320|64:320|0:308,1,180,2|0,0:0|0:0,0:0:0:0:
56,216,91398,1,8,0:0:0:0:
4,136,91553,1,8,3:0:0:0:
144,32,91708,6,0,L|132:104,1,67.5000025749208,2|0,0:0|0:0,0:0:0:0:
212,244,92017,2,0,L|200:177,1,67.5000025749208
272,116,92326,2,0,B|368:80|356:200|456:152,1,202.500007724762,0|2,0:0|0:0,0:0:0:0:
456,152,93099,1,0,0:0:0:0:
500,236,93254,2,0,P|456:248|424:244,1,67.5000025749208,2|0,0:0|0:0,0:0:0:0:
300,296,93563,2,0,P|333:295|365:306,1,67.5000025749208,2|0,0:0|0:0,0:0:0:0:
448,344,93873,1,0,0:0:0:0:
252,168,94182,6,0,L|244:240,2,67.5000025749208,2|0|2,0:0|0:0|0:0,0:0:0:0:
336,56,94646,2,0,L|356:192,1,135.000005149842,2|0,0:0|0:0,0:0:0:0:
160,180,95110,1,2,0:0:0:0:
328,268,95264,1,2,0:0:0:0:
328,268,96347,5,2,0:0:0:0:
496,188,96656,2,0,P|464:184|428:196,1,67.5000025749208,2|0,0:0|0:0,0:0:0:0:
272,340,96965,1,0,0:0:0:0:
208,272,97120,2,0,L|192:128,1,135.000005149842,2|0,0:0|0:0,0:0:0:0:
248,60,97584,1,0,0:0:0:0:
314,210,97739,6,0,P|378:230|434:186,1,135.000005149842,2|0,0:0|0:0,0:0:0:0:
456,96,98203,1,2,0:0:0:0:
436,312,98357,1,2,0:0:0:0:
432,324,98666,5,0,0:0:0:0:
304,296,98821,1,0,0:0:0:0:
184,272,98975,1,0,0:0:0:0:
384,216,99130,1,4,0:0:0:0:
376,196,99749,1,0,0:0:0:0:
492,96,99904,2,0,L|484:192,1,90
280,232,100213,6,0,P|328:288|432:288,1,180,4|0,0:0|0:0,0:0:0:0:
492,96,100677,1,8,0:0:0:0:
428,292,100831,1,0,0:0:0:0:
368,28,100986,1,8,0:0:0:0:
368,28,101295,6,0,P|345:23|323:24,1,45,8|0,0:0|0:0,0:0:0:0:
292,316,101450,2,0,P|314:320|336:319,1,45
340,104,101605,2,0,B|328:148|336:196|336:196|320:252,1,135,4|0,0:0|0:0,0:0:0:0:
324,236,101914,1,8,0:0:0:0:
144,200,102068,1,0,0:0:0:0:
144,200,102146,1,0,0:0:0:0:
144,200,102223,1,0,0:0:0:0:
252,108,102378,1,0,0:0:0:0:
208,308,102532,1,8,0:0:0:0:
16,316,102687,6,0,L|36:128,1,180
144,16,103151,2,0,P|192:24|224:48,1,90,8|0,0:0|0:0,0:0:0:0:
272,116,103383,1,0,0:0:0:0:
272,116,103460,2,0,L|260:208,1,90
240,336,103770,1,8,0:0:0:0:
240,336,104079,5,4,0:0:0:0:
372,236,104233,1,0,0:0:0:0:
172,276,104388,1,8,0:0:0:0:
439,316,104543,2,0,P|471:234|435:154,1,180,4|0,0:0|0:0,0:0:0:0:
300,16,105007,1,0,0:0:0:0:
300,16,105084,1,0,0:0:0:0:
300,16,105161,6,0,L|280:204,1,180,4|0,0:0|0:0,0:0:0:0:
320,328,105625,1,8,0:0:0:0:
164,236,105780,1,0,0:0:0:0:
380,156,105934,1,0,0:0:0:0:
164,236,106089,2,0,L|120:220,1,45
48,112,106244,2,0,L|56:164,1,45,8|0,0:0|0:0,0:0:0:0:
0,280,106398,2,0,L|30:244,1,45
219,159,106553,6,0,P|254:239|213:316,1,180,4|8,0:0|0:0,0:0:0:0:
56,156,107017,1,0,0:0:0:0:
56,156,107094,1,0,0:0:0:0:
56,156,107172,1,0,0:0:0:0:
216,60,107326,1,0,0:0:0:0:
144,264,107481,1,8,0:0:0:0:
368,200,107636,6,0,L|184:184,1,180,4|0,0:0|0:0,0:0:0:0:
96,344,108099,1,8,0:0:0:0:
40,72,108254,1,0,0:0:0:0:
40,72,108331,1,0,0:0:0:0:
40,72,108408,1,0,0:0:0:0:
8,272,108563,1,0,0:0:0:0:
136,112,108717,1,8,0:0:0:0:
232,304,108872,1,0,0:0:0:0:
43,364,109027,6,0,P|99:296|87:210,1,180,4|8,0:0|0:0,0:0:0:0:
40,72,109491,1,0,0:0:0:0:
40,72,109568,1,0,0:0:0:0:
40,72,109645,1,0,0:0:0:0:
188,200,109800,1,0,0:0:0:0:
296,40,109955,1,8,0:0:0:0:
132,16,110110,6,0,L|104:196,1,180,4|0,0:0|0:0,0:0:0:0:
248,304,110574,1,8,0:0:0:0:
276,208,110728,1,0,0:0:0:0:
344,280,110883,1,8,0:0:0:0:
344,280,111192,2,0,L|336:328,1,45
444,192,111347,2,0,L|452:240,1,45
376,8,111501,6,0,L|356:160,1,135,4|0,0:0|0:0,0:0:0:0:
344,156,111811,1,8,0:0:0:0:
120,224,111965,2,0,P|76:216|40:188,1,90
152,12,112275,2,0,L|164:108,1,90,0|8,0:0|0:0,0:0:0:0:
200,340,112584,1,0,0:0:0:0:
200,340,112893,1,0,0:0:0:0:
312,312,113048,1,0,0:0:0:0:
424,288,113203,1,0,0:0:0:0:
424,288,113280,1,0,0:0:0:0:
424,288,113357,5,4,0:0:0:0:
300,192,113511,1,0,0:0:0:0:
504,220,113666,1,8,0:0:0:0:
348,100,113820,6,0,P|264:88|196:156,1,180
144,224,114207,1,0,0:0:0:0:
144,224,114284,2,0,L|160:316,1,90,8|0,0:0|0:0,0:0:0:0:
348,288,114594,5,0,0:0:0:0:
348,288,114671,1,0,0:0:0:0:
348,288,114748,1,0,0:0:0:0:
468,128,114903,2,0,L|480:172,3,45
384,164,115212,2,0,L|364:208,3,45
288,160,115521,6,0,L|244:168,1,45,4|0,0:0|0:0,0:0:0:0:
148,76,115675,2,0,L|164:120,1,45
132,248,115830,2,0,L|160:208,1,45,8|0,0:0|0:0,0:0:0:0:
80,8,115984,2,0,P|56:48|52:92,1,90
280,344,116294,2,0,P|275:299|251:261,1,90,0|8,0:0|0:0,0:0:0:0:
380,56,116603,6,0,L|364:240,1,180,4|0,0:0|0:0,0:0:0:0:
464,344,116990,1,0,0:0:0:0:
471,332,117067,2,0,P|474:287|459:245,1,90,8|0,0:0|0:0,0:0:0:0:
300,304,117299,1,0,0:0:0:0:
300,304,117376,2,0,L|256:292,1,45
208,208,117531,2,0,L|168:232,1,45
80,176,117685,1,8,0:0:0:0:
83,207,117762,1,0,0:0:0:0:
86,238,117839,1,0,0:0:0:0:
89,269,117916,1,0,0:0:0:0:
93,301,117994,5,0,0:0:0:0:
152,364,118149,1,0,0:0:0:0:
288,196,118304,1,0,0:0:0:0:
256,100,118459,1,0,0:0:0:0:
352,116,118613,1,0,0:0:0:0:
192,184,118768,1,0,0:0:0:0:
320,292,118923,1,0,0:0:0:0:
352,116,119077,1,0,0:0:0:0:
144,92,119232,5,0,0:0:0:0:
132,100,119387,1,0,0:0:0:0:
136,220,119541,1,0,0:0:0:0:
132,232,119696,1,0,0:0:0:0:
240,276,119850,1,0,0:0:0:0:
248,292,120005,1,0,0:0:0:0:
344,232,120160,1,0,0:0:0:0:
360,244,120314,1,0,0:0:0:0:
412,148,120469,5,0,0:0:0:0:
252,192,120624,1,0,0:0:0:0:
412,148,120778,1,0,0:0:0:0:
216,96,120933,1,0,0:0:0:0:
412,148,121088,1,0,0:0:0:0:
284,20,121242,1,0,0:0:0:0:
240,204,121397,1,0,0:0:0:0:
412,148,121551,1,0,0:0:0:0:
200,68,121706,5,8,0:0:0:0:
228,336,121861,1,8,0:0:0:0:
184,56,122325,1,8,0:0:0:0:
212,324,122480,1,8,0:0:0:0:
212,324,122943,6,0,L|284:332,1,67.5000025749208,0|0,1:0|0:0,0:0:0:0:
376,295,123252,2,0,P|383:263|382:229,1,67.5000025749208,0|0,1:0|0:0,0:0:0:0:
287,56,123562,2,0,P|272:121|283:187,1,135.000005149842,0|0,1:0|1:0,0:0:0:0:
172,252,124026,1,0,0:0:0:0:
172,252,124180,6,0,L|104:240,1,67.5000025749208,0|0,1:0|0:0,0:0:0:0:
12,112,124490,2,0,P|45:107|75:120,1,67.5000025749208,0|0,1:0|0:0,0:0:0:0:
188,348,124799,2,0,L|52:324,1,135.000005149842,0|0,1:0|1:0,0:0:0:0:
55,324,125263,1,0,0:0:0:0:
220,128,125417,6,0,P|252:188|244:256,1,135.000005149842,0|0,1:0|1:0,0:0:0:0:
160,204,125881,1,0,0:0:0:0:
184,31,126036,2,0,P|217:28|251:30,1,67.5000025749208,0|0,1:0|0:0,0:0:0:0:
364,128,126345,2,0,L|432:120,1,67.5000025749208,0|0,1:0|0:0,0:0:0:0:
500,256,126655,6,0,P|446:217|381:227,1,135.000005149842,0|0,1:0|1:0,0:0:0:0:
304,272,127118,1,0,0:0:0:0:
252,128,127273,1,0,0:0:0:0:
240,336,127428,1,8,0:0:0:0:
160,44,127582,6,0,L|168:92,1,45
52,132,127737,2,0,L|40:180,1,45
107,272,127892,6,0,P|177:220|260:246,1,180,4|8,0:0|0:0,0:0:0:0:
436,368,128356,2,0,B|452:312|452:312|444:248|444:248|456:192,1,180,4|0,0:0|0:0,0:0:0:0:
412,48,128819,1,8,0:0:0:0:
360,296,128974,1,0,0:0:0:0:
296,96,129129,6,0,L|312:192,1,90,4|0,0:0|0:0,0:0:0:0:
252,364,129438,2,0,L|260:320,2,45,8|0|0,0:0|0:0|0:0,0:0:0:0:
168,208,129747,1,4,0:0:0:0:
368,248,129902,1,0,0:0:0:0:
368,248,129979,1,0,0:0:0:0:
368,248,130057,1,8,0:0:0:0:
120,296,130211,1,0,0:0:0:0:
108,304,130521,5,8,0:0:0:0:
56,48,130675,1,8,0:0:0:0:
48,64,130752,1,0,0:0:0:0:
40,80,130829,1,0,0:0:0:0:
224,236,130984,2,0,L|212:144,1,90,8|0,0:0|0:0,0:0:0:0:
212,146,131216,1,0,0:0:0:0:
212,146,131294,1,8,0:0:0:0:
196,32,131448,5,0,0:0:0:0:
196,32,131758,1,8,0:0:0:0:
176,332,131912,1,8,0:0:0:0:
176,331,132685,6,0,P|210:251|178:169,1,180,4|0,0:0|0:0,0:0:0:0:
0,232,133149,2,0,P|40:252|88:252,1,90,8|0,0:0|0:0,0:0:0:0:
208,52,133459,2,0,P|163:52|123:72,1,90
28,56,133691,1,0,0:0:0:0:
12,32,133768,1,8,0:0:0:0:
136,168,133923,6,0,L|104:352,1,180,4|0,0:0|0:0,0:0:0:0:
268,376,134386,2,0,P|264:331|248:289,1,90,8|0,0:0|0:0,0:0:0:0:
136,168,134696,1,0,0:0:0:0:
344,220,134850,2,0,L|336:268,2,45,0|0|8,0:0|0:0|0:0,0:0:0:0:
224,96,135160,6,0,B|160:80|160:80|124:36|124:36|64:20,1,180,4|0,0:0|0:0,0:0:0:0:
48,208,135624,2,0,P|68:164|68:116,1,90,8|0,0:0|0:0,0:0:0:0:
208,200,135933,2,0,P|168:228|144:269,1,90
147,263,136165,1,0,0:0:0:0:
147,263,136242,1,8,0:0:0:0:
328,380,136397,6,0,P|360:298|328:216,1,180,4|0,0:0|0:0,0:0:0:0:
152,112,136861,1,8,0:0:0:0:
328,16,137015,1,0,0:0:0:0:
324,28,137093,1,0,0:0:0:0:
320,40,137170,1,0,0:0:0:0:
244,264,137325,1,0,0:0:0:0:
204,16,137479,1,8,0:0:0:0:
55,119,137634,6,0,P|102:193|188:195,1,180,4|0,0:0|0:0,0:0:0:0:
424,172,138098,2,0,P|384:124|316:132,1,135,8|0,0:0|0:0,0:0:0:0:
304,144,138407,1,0,0:0:0:0:
460,264,138562,2,0,P|500:236|516:192,1,90,0|8,0:0|0:0,0:0:0:0:
264,56,138871,6,0,L|276:244,1,180,4|0,0:0|0:0,0:0:0:0:
184,359,139335,2,0,P|179:315|160:274,1,90,8|0,0:0|0:0,0:0:0:0:
88,228,139567,1,0,0:0:0:0:
96,208,139644,1,0,0:0:0:0:
128,104,139799,1,0,0:0:0:0:
88,340,139953,1,8,0:0:0:0:
0,12,140108,6,0,B|28:56|28:56|12:200,1,180,4|0,0:0|0:0,0:0:0:0:
260,144,140572,1,8,0:0:0:0:
120,260,140727,1,0,0:0:0:0:
148,32,140881,2,0,L|160:128,1,90
159,121,141113,1,0,0:0:0:0:
159,121,141191,1,8,0:0:0:0:
296,356,141345,6,0,B|332:296|296:220|296:220|332:256,1,180,4|0,0:0|0:0,0:0:0:0:
476,152,141809,1,8,0:0:0:0:
476,152,141886,1,0,0:0:0:0:
476,152,141964,2,0,L|488:204,1,45
322,246,142118,1,0,0:0:0:0:
262,273,142195,1,0,0:0:0:0:
199,254,142272,1,0,0:0:0:0:
163,198,142349,1,0,0:0:0:0:
172,133,142427,1,8,0:0:0:0:
320,40,142582,6,0,B|360:4|360:4|344:132,1,180,4|0,0:0|0:0,0:0:0:0:
199,254,143046,1,8,0:0:0:0:
416,192,143201,1,0,0:0:0:0:
264,328,143356,2,0,P|290:292|296:248,1,90
252,160,143588,1,0,0:0:0:0:
240,176,143665,1,8,0:0:0:0:
64,376,143819,6,0,L|36:188,1,180,4|0,0:0|0:0,0:0:0:0:
184,16,144283,2,0,P|196:60|180:104,1,90,8|0,0:0|0:0,0:0:0:0:
120,144,144515,2,0,L|72:136,1,45
24,44,144747,1,0,0:0:0:0:
24,44,144825,1,0,0:0:0:0:
24,44,144902,1,8,0:0:0:0:
191,224,145057,6,0,P|260:169|346:184,1,180,4|0,0:0|0:0,0:0:0:0:
436,264,145521,2,0,L|420:352,1,90,8|0,0:0|0:0,0:0:0:0:
480,140,145830,2,0,L|464:52,1,90
463,51,146062,1,0,0:0:0:0:
463,51,146139,1,8,0:0:0:0:
348,176,146294,6,0,L|320:360,1,180,4|0,0:0|0:0,0:0:0:0:
204,244,146758,2,0,P|172:224|120:220,1,90,8|0,0:0|0:0,0:0:0:0:
120,219,146990,1,0,0:0:0:0:
120,219,147067,1,0,0:0:0:0:
32,292,147222,1,0,0:0:0:0:
0,104,147376,1,8,0:0:0:0:
24,4,147531,6,0,P|92:57|91:144,1,180,4|0,0:0|0:0,0:0:0:0:
172,372,147995,2,0,L|184:276,1,90,8|0,0:0|0:0,0:0:0:0:
183,282,148227,1,0,0:0:0:0:
183,282,148304,1,0,0:0:0:0:
344,100,148459,2,0,L|355:189,1,90,0|8,0:0|0:0,0:0:0:0:
296,308,148768,6,0,P|379:330|445:274,1,180,4|0,0:0|0:0,0:0:0:0:
464,156,149232,1,8,0:0:0:0:
240,216,149386,1,0,0:0:0:0:
240,216,149464,1,0,0:0:0:0:
240,216,149541,1,0,0:0:0:0:
376,88,149696,1,0,0:0:0:0:
348,352,149850,1,8,0:0:0:0:
199,132,150005,6,0,P|147:200|171:284,1,180,4|0,0:0|0:0,0:0:0:0:
348,352,150469,1,8,0:0:0:0:
389,367,150546,1,0,0:0:0:0:
433,360,150623,1,0,0:0:0:0:
467,332,150700,1,0,0:0:0:0:
483,290,150778,2,0,L|472:236,1,45
472,108,150933,2,0,L|452:156,1,45
328,216,151088,2,0,L|372:200,1,45,8|0,0:0|0:0,0:0:0:0:
304,112,151242,6,0,L|120:88,1,180,4|0,0:0|0:0,0:0:0:0:
8,240,151706,2,0,P|56:240|96:216,1,90,8|0,0:0|0:0,0:0:0:0:
91,219,151938,1,0,0:0:0:0:
91,219,152015,1,8,3:0:0:0:
56,20,152170,1,4,3:0:0:0:
91,219,152325,1,8,0:0:0:0:
176,172,152479,6,0,P|191:213|184:257,1,90,4|0,0:0|0:0,0:0:0:0:
128,336,152943,1,0,0:0:0:0:
44,296,153098,1,0,0:0:0:0:
184,256,153252,2,0,L|280:248,1,90,8|0,0:0|0:0,0:0:0:0:
344,196,153716,1,0,0:0:0:0:
280,56,153871,6,0,L|288:104,1,45
416,268,154180,2,0,P|440:224|436:180,2,90,0|8|0,0:0|0:0|0:0,0:0:0:0:
244,348,154953,1,8,0:0:0:0:
244,348,155108,6,0,L|156:324,1,77.9999964294435,8|0,0:0|0:0,0:0:0:0:
88,268,155314,2,0,L|56:348,1,77.9999964294435,8|0,0:0|0:0,0:0:0:0:
180,232,155521,2,0,L|160:152,1,77.9999964294435,8|0,0:0|0:0,0:0:0:0:
304,4,155727,6,0,P|331:87|298:169,1,180,4|8,0:0|0:0,0:0:0:0:
298,169,156191,1,0,0:0:0:0:
416,260,156345,6,0,L|420:216,1,45,0|8,0:0|0:0,0:0:0:0:
476,32,156655,2,0,L|484:128,1,90
416,260,157118,1,0,0:0:0:0:
364,352,157273,6,0,P|332:328|316:296,1,71.9999978027344,8|0,0:0|0:0,0:0:0:0:
324,180,157479,1,0,0:0:0:0:
224,348,157582,6,0,L|88:336,1,135.000005149842,4|0,0:0|0:0,0:0:0:0:
28,248,158046,1,0,0:0:0:0:
27,248,158201,2,0,P|47:183|43:116,1,135.000005149842,8|0,0:0|0:0,0:0:0:0:
104,48,158665,1,0,0:0:0:0:
104,48,158819,6,0,L|172:64,1,67.5000025749208,0|8,0:0|0:0,0:0:0:0:
344,128,159129,2,0,L|352:52,1,67.5000025749208
351,60,159361,1,0,0:0:0:0:
351,60,159438,1,8,0:0:0:0:
328,240,159593,1,0,0:0:0:0:
328,240,159670,1,0,0:0:0:0:
328,240,159747,1,0,0:0:0:0:
496,168,159902,5,2,2:0:0:0:
256,192,160057,12,0,162222,0:0:0:0:
64,272,162531,6,0,P|92:192|60:120,1,161.999995056153,6|0,0:0|0:0,0:0:0:0:
48,112,162840,1,10,0:0:0:0:
80,360,162995,1,0,0:0:0:0:
80,360,163072,1,0,0:0:0:0:
80,360,163149,1,2,0:0:0:0:
268,216,163304,1,0,0:0:0:0:
196,128,163459,1,10,0:0:0:0:
236,360,163613,6,0,B|308:336|308:336|344:280|344:280|420:248,1,215.999993408203,6|0,0:0|0:0,0:0:0:0:
492,92,164077,2,0,P|440:79|394:104,1,107.999996704102,10|0,0:0|0:0,0:0:0:0:
304,180,164309,1,0,0:0:0:0:
288,160,164386,1,2,0:0:0:0:
328,24,164541,1,0,0:0:0:0:
216,280,164696,2,0,L|108:264,1,107.999996704102,10|0,0:0|0:0,0:0:0:0:
16,140,165005,5,6,0:0:0:0:
188,32,165160,1,0,0:0:0:0:
109,264,165314,1,10,0:0:0:0:
231,128,165469,2,0,P|128:122|76:32,1,215.999993408203,2|0,0:0|0:0,0:0:0:0:
288,36,165933,1,10,0:0:0:0:
352,168,166088,6,0,B|328:324|328:324|312:267,1,215.999993408203,6|0,0:0|0:0,0:0:0:0:
160,212,166551,1,10,0:0:0:0:
272,120,166706,1,0,0:0:0:0:
272,120,166783,1,0,0:0:0:0:
272,120,166861,1,2,0:0:0:0:
212,288,167015,1,0,0:0:0:0:
168,56,167170,1,10,0:0:0:0:
8,192,167325,1,0,0:0:0:0:
8,192,167402,1,0,0:0:0:0:
8,192,167479,6,0,B|24:252|8:308|8:308|20:360,1,161.999995056153,6|0,0:0|0:0,0:0:0:0:
24,368,167789,1,10,0:0:0:0:
208,196,167943,1,0,0:0:0:0:
208,196,168021,1,0,0:0:0:0:
208,196,168098,1,0,0:0:0:0:
144,32,168252,2,0,L|132:144,1,107.999996704102,2|10,0:0|0:0,0:0:0:0:
228,348,168562,6,0,B|300:328|300:328|344:268|344:268|408:252,1,215.999993408203,6|0,0:0|0:0,0:0:0:0:
483,39,169026,2,0,P|500:90|484:141,1,107.999996704102,10|0,0:0|0:0,0:0:0:0:
484,141,169258,1,0,0:0:0:0:
484,141,169335,1,2,0:0:0:0:
264,108,169490,1,0,0:0:0:0:
400,356,169644,2,0,P|384:305|400:254,1,107.999996704102,10|0,0:0|0:0,0:0:0:0:
208,208,169953,6,0,B|136:196|136:196|96:136|96:136|20:116,1,215.999993408203,6|8,0:0|0:0,0:0:0:0:
36,228,170417,1,2,0:0:0:0:
36,228,170495,1,0,0:0:0:0:
36,228,170572,1,0,0:0:0:0:
204,80,170727,1,2,0:0:0:0:
264,316,170881,1,10,0:0:0:0:
28,328,171036,6,0,P|117:277|116:174,1,215.999993408203,2|0,0:0|0:0,0:0:0:0:
68,72,171500,1,10,0:0:0:0:
328,192,171655,1,2,0:0:0:0:
340,176,171732,1,0,0:0:0:0:
352,156,171809,2,0,L|336:100,1,53.9999983520508,10|0,0:0|0:0,0:0:0:0:
472,20,171964,2,0,L|460:80,1,53.9999983520508
480,268,172118,1,10,0:0:0:0:
429,250,172195,1,0,0:0:0:0:
376,258,172272,1,0,0:0:0:0:
334,291,172349,1,0,0:0:0:0:
313,340,172428,6,0,P|244:352|172:292,1,161.999995056153,6|0,0:0|0:0,0:0:0:0:
152,228,172737,1,10,0:0:0:0:
264,56,172892,1,0,0:0:0:0:
260,72,172969,1,0,0:0:0:0:
256,88,173047,1,2,0:0:0:0:
152,228,173201,1,0,0:0:0:0:
372,152,173356,1,10,0:0:0:0:
123,124,173510,6,0,P|52:199|73:300,1,215.999993408203,6|0,0:0|0:0,0:0:0:0:
288,376,173974,2,0,L|300:268,1,107.999996704102,10|0,0:0|0:0,0:0:0:0:
299,268,174206,1,0,0:0:0:0:
299,268,174283,1,2,0:0:0:0:
328,64,174438,1,0,0:0:0:0:
208,232,174593,1,10,0:0:0:0:
344,36,174747,1,0,0:0:0:0:
508,196,174902,6,0,L|288:176,1,215.999993408203,6|10,0:0|0:0,0:0:0:0:
184,68,175366,1,0,0:0:0:0:
256,312,175521,1,0,0:0:0:0:
128,152,175675,1,2,0:0:0:0:
344,260,175830,1,10,0:0:0:0:
128,152,175984,6,0,B|104:312|104:312|84:256,1,215.999993408203,6|0,0:0|0:0,0:0:0:0:
28,64,176448,1,10,0:0:0:0:
8,336,176603,1,0,0:0:0:0:
240,216,176758,1,2,0:0:0:0:
36,76,176912,1,0,0:0:0:0:
264,32,177067,2,0,L|256:92,1,53.9999983520508,10|0,0:0|0:0,0:0:0:0:
392,96,177222,2,0,L|400:156,1,53.9999983520508
488,268,177376,6,0,P|408:264|344:320,1,161.999995056153,6|0,0:0|0:0,0:0:0:0:
296,376,177685,1,10,0:0:0:0:
244,148,177840,1,0,0:0:0:0:
244,148,177917,1,0,0:0:0:0:
244,148,177995,1,0,0:0:0:0:
208,316,178149,1,2,0:0:0:0:
264,60,178304,1,8,0:0:0:0:
88,16,178459,6,0,L|120:236,1,215.999993408203,6|0,0:0|0:0,0:0:0:0:
320,180,178923,1,10,0:0:0:0:
176,368,179077,2,0,L|116:356,2,53.9999983520508,0|0|2,0:0|0:0|0:0,0:0:0:0:
264,100,179386,1,0,0:0:0:0:
388,364,179541,2,0,L|404:256,1,107.999996704102,10|0,0:0|0:0,0:0:0:0:
220,15,179850,6,0,P|175:80|191:157,1,161.999995056153,6|0,0:0|0:0,0:0:0:0:
264,232,180160,1,10,0:0:0:0:
264,232,180237,1,0,0:0:0:0:
264,232,180314,2,0,L|316:220,1,53.9999983520508,8|0,3:0|0:0,0:0:0:0:
192,316,180469,6,0,L|140:300,1,53.9999983520508,4|0,3:0|0:0,0:0:0:0:
64,168,180624,2,0,L|76:232,1,53.9999983520508
12,356,180779,2,0,L|49:316,1,53.9999983520508,10|0,0:0|0:0,0:0:0:0:
0,83,180933,6,0,P|103:74|167:156,1,215.999993408203,6|0,0:0|0:0,0:0:0:0:
276,344,181397,1,10,0:0:0:0:
276,344,181474,1,0,0:0:0:0:
276,344,181551,2,0,L|288:280,1,53.9999983520508
352,56,181706,6,0,L|372:168,1,107.999996704102,10|0,0:0|0:0,0:0:0:0:
444,240,181938,2,0,L|462:133,1,107.999996704102,10|0,0:0|0:0,0:0:0:0:
480,48,182170,1,10,0:0:0:0:
260,156,182325,5,4,0:0:0:0:
