osu file format v14

[General]
AudioFilename: audio.mp3
AudioLeadIn: 0
PreviewTime: 62400
Countdown: 0
SampleSet: Soft
StackLeniency: 0.4
Mode: 0
LetterboxInBreaks: 0
WidescreenStoryboard: 0

[Editor]
DistanceSpacing: 1.1
BeatDivisor: 4
GridSize: 32
TimelineZoom: 1

[Metadata]
Title:Ame to Petra
TitleUnicode:雨とペトラ
Artist:mafumafu
ArtistUnicode:まふまふ
Creator:Battle
Version:Petrichor
Source:
Tags:flower vocaloid male utaite rain japanese rock cut version jrock j-rock
BeatmapID:2081961
BeatmapSetID:995255

[Difficulty]
HPDrainRate:6
CircleSize:4
OverallDifficulty:8.7
ApproachRate:9.3
SliderMultiplier:1.6
SliderTickRate:1

[Events]
//Background and Video events
0,0,"ame-to-petra.jpg",0,0
//Break Periods
//Storyboard Layer 0 (Background)
//Storyboard Layer 1 (Fail)
//Storyboard Layer 2 (Pass)
//Storyboard Layer 3 (Foreground)
//Storyboard Layer 4 (Overlay)
//Storyboard Sound Samples

[TimingPoints]
1400,307.692307692308,4,2,1,70,1,0
1400,-153.846153846153,4,2,1,70,0,0
3861,-100,4,2,1,80,0,0
23553,-153.846153846153,4,2,1,70,0,0
25861,-153.846153846153,4,2,1,50,0,0
26015,-153.846153846153,4,2,1,70,0,0
33400,-117.647058823529,4,2,1,80,0,0
43246,-153.846153846153,4,2,1,70,0,0
53092,-181.818181818181,4,2,1,60,0,0
58015,-133.333333333333,4,2,1,70,0,0
60476,-133.333333333333,4,2,1,60,0,0
62476,-133.333333333333,4,2,1,70,0,0
62938,-90.9090909090909,4,2,1,80,0,1
71553,-90.9090909090909,4,2,1,80,0,0
72784,-90.9090909090909,4,2,1,80,0,1
82015,-90.9090909090909,4,2,1,80,0,0

[Colours]
Combo1 : 117,180,255
Combo2 : 207,137,245

[HitObjects]
45,332,1246,5,8,0:0:0:0:
45,332,1323,1,8,0:0:0:0:
45,332,1400,2,0,L|58:395,1,51.999997619629,4|0,0:1|0:0,0:0:0:0:
112,257,1707,2,0,L|125:320,1,51.999997619629,2|0,0:3|0:0,0:0:0:0:
207,314,2015,1,2,0:3:0:0:
180,173,2169,2,0,L|193:236,1,51.999997619629,0|8,0:0|0:0,0:0:0:0:
251,94,2476,1,4,0:1:0:0:
272,103,2784,5,2,0:3:0:0:
246,115,2938,1,2,0:3:0:0:
239,86,3092,1,2,0:3:0:0:
271,84,3246,1,2,0:3:0:0:
168,107,3400,5,0,0:0:0:0:
213,194,3553,1,2,0:0:0:0:
317,175,3707,1,0,0:0:0:0:
76,130,3861,6,0,L|127:213,1,80,6|2,0:0|0:3,0:0:0:0:
213,260,4169,2,0,L|140:220,1,80,10|2,0:0|0:3,0:0:0:0:
29,304,4476,1,2,3:2:0:0:
109,232,4630,1,2,0:3:0:0:
120,338,4784,1,8,0:0:0:0:
144,79,4938,6,0,P|92:50|32:66,1,120,2|0,0:0|0:0,0:0:0:0:
41,85,5246,1,2,0:3:0:0:
213,21,5400,1,10,0:0:0:0:
157,101,5553,1,2,0:3:0:0:
207,174,5707,2,0,L|290:172,1,80,2|2,3:2|0:3,0:3:0:0:
465,12,6015,6,0,P|412:65|431:133,1,120,10|2,0:2|0:3,0:0:0:0:
432,118,6323,2,0,P|457:179|447:206,1,80,2|2,3:2|0:3,0:0:0:0:
338,381,6630,2,0,P|331:325|366:269,1,120,10|2,0:0|0:3,0:0:0:0:
375,263,6938,2,0,L|296:252,1,80,2|2,3:2|0:3,0:0:0:0:
343,157,7246,1,8,0:0:0:0:
225,308,7400,6,0,P|205:269|212:226,1,80,2|0,0:2|3:0,0:0:0:0:
311,350,7707,1,2,0:2:0:0:
121,240,7861,1,10,0:0:0:0:
199,144,8015,1,2,0:3:0:0:
138,339,8169,1,2,3:2:0:0:
112,157,8323,5,2,0:3:0:0:
208,234,8476,1,8,0:0:0:0:
330,195,8630,1,8,0:0:0:0:
330,195,8707,1,8,0:0:0:0:
330,195,8784,6,0,L|379:269,1,80,6|2,3:2|0:3,0:0:0:0:
322,361,9092,2,0,L|371:287,1,80,10|2,0:0|0:3,0:0:0:0:
512,356,9400,1,2,3:2:0:0:
397,276,9553,1,2,0:3:0:0:
431,361,9707,1,8,0:0:0:0:
490,142,9861,6,0,P|467:213|491:269,1,120,2|0,0:2|0:0,0:0:0:0:
507,253,10169,1,2,0:3:0:0:
361,48,10323,1,10,0:0:0:0:
396,130,10476,1,2,0:3:0:0:
342,205,10630,2,0,L|251:200,1,80,2|2,3:2|0:3,0:0:0:0:
108,18,10938,6,0,P|173:75|178:124,1,120,10|2,0:0|0:3,0:0:0:0:
168,123,11246,2,0,P|146:167|151:206,1,80,2|2,3:2|0:3,0:0:0:0:
280,324,11553,2,0,P|209:310|163:341,1,120,10|2,0:0|0:3,0:0:0:0:
157,352,11861,2,0,P|98:365|67:350,1,80,2|2,3:2|0:3,0:0:0:0:
10,285,12169,1,8,0:0:0:0:
290,244,12323,6,0,L|277:340,1,80,2|8,0:2|0:3,0:0:0:0:
217,163,12630,2,4,L|209:215,1,40,4|4,0:3|0:3,0:3:0:0:
310,88,12784,1,8,0:0:0:0:
124,238,12938,2,0,L|116:290,1,40,8|0,0:0|0:0,0:0:0:0:
217,163,13092,1,8,0:0:0:0:
23,315,13246,5,8,0:0:0:0:
58,296,13323,1,8,0:3:0:0:
97,299,13400,1,10,0:0:0:0:
129,322,13476,1,8,0:3:0:0:
144,359,13553,2,0,P|178:382|190:382,1,40,10|0,0:0|0:0,0:0:0:0:
288,162,13707,6,0,L|309:267,1,80,6|2,0:0|0:3,0:0:0:0:
411,286,14015,2,0,L|308:252,1,80,10|2,0:0|0:3,0:0:0:0:
209,298,14323,1,2,3:2:0:0:
298,265,14476,1,2,0:3:0:0:
272,361,14630,1,8,0:0:0:0:
69,227,14784,6,0,B|110:244|110:244|212:219,1,120,2|0,0:2|0:0,0:0:0:0:
206,217,15092,1,2,0:3:0:0:
10,56,15246,1,10,0:0:0:0:
5,147,15400,1,2,0:3:0:0:
153,99,15553,2,0,B|113:92|113:92|75:105,1,80,2|2,3:2|0:3,0:0:0:0:
284,15,15861,6,0,P|246:74|260:122,1,120,10|2,0:0|0:3,0:0:0:0:
272,135,16169,2,0,P|292:189|283:212,1,80,2|2,3:2|0:3,0:0:0:0:
101,364,16476,2,0,P|150:311|208:307,1,120,10|2,0:0|0:3,0:0:0:0:
217,316,16784,2,0,P|265:341|296:340,1,80,2|2,3:2|0:3,0:0:0:0:
451,215,17092,1,8,0:0:0:0:
354,196,17246,6,0,L|381:290,1,80,2|0,0:2|3:0,0:0:0:0:
407,86,17553,1,2,0:2:0:0:
265,252,17707,1,10,0:0:0:0:
324,119,17861,1,2,0:3:0:0:
297,353,18015,1,2,3:2:0:0:
354,196,18169,5,2,0:3:0:0:
268,270,18323,1,8,0:0:0:0:
142,284,18476,1,2,0:3:0:0:
246,26,18630,6,0,L|261:122,1,80,2|2,3:2|0:3,0:0:0:0:
354,160,18938,2,0,L|263:124,1,80,10|2,0:0|0:3,0:0:0:0:
149,183,19246,1,2,3:2:0:0:
243,135,19400,1,2,0:3:0:0:
244,250,19553,1,8,0:0:0:0:
60,168,19707,6,0,P|73:127|146:92,1,120,2|0,0:2|0:0,0:0:0:0:
162,91,20015,1,2,0:2:0:0:
61,262,20169,1,10,0:0:0:0:
146,219,20323,1,2,0:3:0:0:
205,289,20476,2,0,L|194:368,1,80,2|2,3:2|0:3,0:0:0:0:
423,256,20784,6,0,P|354:223|292:244,1,120,10|2,0:0|0:3,0:0:0:0:
306,248,21092,2,0,L|295:327,1,80,2|2,3:2|0:2,0:0:0:0:
126,180,21400,2,0,P|202:183|251:139,1,120,10|2,0:0|0:3,0:0:0:0:
252,143,21707,2,0,L|244:57,1,80,2|2,3:2|0:3,0:0:0:0:
181,332,22015,1,8,0:0:0:0:
333,105,22169,1,4,0:3:0:0:
105,368,22323,5,8,0:0:0:0:
93,330,22400,1,4,0:3:0:0:
101,291,22476,2,0,P|136:250|155:246,1,40,8|0,0:0|0:0,0:0:0:0:
291,345,22630,2,0,L|230:352,1,40,8|0,0:0|0:0,0:0:0:0:
18,125,22784,1,8,0:0:0:0:
30,162,22861,1,4,0:3:0:0:
61,186,22938,5,10,0:0:0:0:
152,173,23092,1,4,0:3:0:0:
211,94,23246,1,8,0:3:0:0:
190,7,23400,1,4,0:3:0:0:
102,270,23553,6,0,L|165:257,1,51.999997619629,6|2,0:0|0:3,0:0:0:0:
224,312,23861,2,0,L|181:263,1,51.999997619629,2|2,3:2|0:3,0:0:0:0:
194,189,24169,2,0,L|173:250,1,51.999997619629,2|2,3:2|0:3,0:0:0:0:
278,225,24476,1,2,3:2:0:0:
223,112,24630,1,2,0:3:0:0:
375,228,24784,6,0,P|353:156|321:143,1,103.999995239258,2|0,3:2|3:2,0:0:0:0:
425,87,25246,1,2,0:2:0:0:
283,64,25400,2,0,P|323:63|348:48,1,51.999997619629,2|2,3:2|0:3,0:0:0:0:
210,4,25707,1,0,3:0:0:0:
181,110,25861,1,8,0:0:0:0:
181,110,25938,1,8,0:0:0:0:
181,110,26015,6,0,L|107:103,1,51.999997619629,2|2,3:2|0:3,0:0:0:0:
49,14,26323,2,0,L|100:9,1,51.999997619629,2|2,3:2|0:3,0:0:0:0:
198,192,26630,2,0,L|92:179,1,103.999995239258,2|2,3:2|3:2,0:0:0:0:
49,104,27092,1,2,0:3:0:0:
61,259,27246,6,0,P|35:245|12:210,2,51.999997619629,2|2|0,3:2|0:3|3:2,0:0:0:0:
267,292,27707,1,2,0:3:0:0:
190,360,27861,2,0,L|178:278,1,77.9999964294435,2|2,3:2|0:0,0:0:0:0:
178,260,28169,6,0,P|223:295|276:289,1,103.999995239258,10|0,0:2|3:0,0:0:0:0:
244,203,28630,1,2,0:3:0:0:
355,361,28784,2,0,L|367:310,1,51.999997619629,2|2,3:2|0:3,0:0:0:0:
436,260,29092,2,0,L|386:274,1,51.999997619629,2|2,3:2|0:3,0:0:0:0:
243,297,29400,1,2,3:2:0:0:
344,279,29553,6,0,L|252:191,1,103.999995239258,2|2,0:0|0:3,0:0:0:0:
356,166,30015,1,2,3:2:0:0:
243,297,30169,1,2,0:3:0:0:
428,215,30323,2,0,P|442:170|435:152,1,51.999997619629,2|2,3:2|0:3,0:0:0:0:
280,100,30630,1,0,3:0:0:0:
356,166,30784,1,2,0:0:0:0:
387,73,30938,6,0,L|438:81,1,51.999997619629,2|2,3:2|0:3,0:0:0:0:
323,255,31246,1,2,3:2:0:0:
273,184,31400,2,0,L|324:175,1,51.999997619629,2|0,0:2|3:2,0:0:0:0:
133,101,31707,1,2,0:2:0:0:
213,30,31861,1,2,3:2:0:0:
178,190,32015,1,2,0:2:0:0:
178,190,32092,1,2,0:3:0:0:
178,190,32169,6,0,P|164:219|164:252,1,51.999997619629,0|0,3:0|3:0,0:0:0:0:
77,294,32400,1,0,0:0:0:0:
87,308,32476,2,0,P|101:337|102:351,1,25.9999988098145,0|0,1:0|0:0,0:0:0:0:
266,209,32630,1,0,1:0:0:0:
253,231,32707,1,2,0:0:0:0:
250,257,32784,5,4,0:3:0:0:
304,329,32938,1,0,0:3:0:0:
416,313,33092,1,2,0:0:0:0:
441,205,33246,1,0,0:0:0:0:
172,161,33400,6,0,P|149:212|171:282,1,102.000001945496,4|0,3:2|0:0,0:0:0:0:
256,223,33707,1,0,1:0:0:0:
54,143,33861,1,2,3:2:0:0:
54,143,34169,1,0,3:0:0:0:
105,0,34323,1,8,0:0:0:0:
30,58,34476,1,0,0:0:0:0:
205,141,34630,6,0,P|163:104|160:74,1,68.0000012969971,2|0,3:2|0:0,0:0:0:0:
266,206,34938,2,0,P|217:234|188:228,1,68.0000012969971,10|0,0:2|3:0,0:0:0:0:
232,62,35246,1,2,3:2:0:0:
289,130,35400,1,0,3:0:0:0:
324,44,35553,1,0,1:0:0:0:
324,44,35861,6,0,P|341:84|368:108,1,68.0000012969971,2|0,3:2|0:0,0:0:0:0:
224,0,36169,2,0,P|213:43|222:78,1,68.0000012969971,2|0,1:2|0:0,0:0:0:0:
370,188,36476,1,2,3:2:0:0:
260,148,36630,1,0,3:0:0:0:
407,291,36784,1,10,0:2:0:0:
297,251,36938,1,0,0:0:0:0:
316,357,37092,6,0,L|386:382,1,68.0000012969971,2|0,3:2|0:0,0:0:0:0:
207,355,37400,1,0,1:0:0:0:
270,283,37553,1,2,3:2:0:0:
159,204,37707,2,0,L|182:284,1,68.0000012969971,0|0,3:0|3:0,0:0:0:0:
215,121,38015,1,0,1:0:0:0:
215,121,38323,6,0,P|245:76|242:29,1,102.000001945496,0|0,3:2|0:0,0:0:0:0:
149,46,38630,1,2,1:2:0:0:
310,150,38784,1,0,3:0:0:0:
142,150,38938,2,0,L|165:220,1,68.0000012969971,2|0,3:2|3:0,0:0:0:0:
250,252,39246,1,8,0:0:0:0:
40,106,39400,6,0,L|81:244,1,136.000002593994,2|0,3:2|0:0,0:0:0:0:
133,127,39861,1,10,1:2:0:0:
163,214,40015,1,0,3:0:0:0:
288,162,40169,2,0,L|218:139,1,68.0000012969971,2|0,3:2|3:0,0:0:0:0:
154,307,40476,2,0,L|218:285,1,68.0000012969971,10|0,0:2|0:0,0:0:0:0:
366,332,40784,6,0,P|323:299|316:228,1,102.000001945496,2|0,3:2|0:0,0:0:0:0:
271,360,41092,1,0,1:0:0:0:
405,251,41246,2,0,L|375:189,1,68.0000012969971,2|0,3:2|0:0,0:0:0:0:
463,185,41553,1,2,3:2:0:0:
289,156,41707,2,0,L|338:109,1,68.0000012969971,8|0,0:0|0:0,0:0:0:0:
375,189,42015,5,2,3:2:0:0:
244,59,42169,1,0,3:0:0:0:
354,93,42323,1,8,0:0:0:0:
166,89,42476,2,0,P|159:47|216:-12,1,102.000001945496,2|0,3:2|0:0,0:0:0:0:
244,59,42784,1,2,3:2:0:0:
0,150,42938,1,4,1:3:0:0:
64,85,43246,6,0,P|92:126|87:177,1,103.999995239258,6|8,3:2|0:0,0:0:0:0:
193,29,43707,1,0,3:0:0:0:
193,29,43861,2,0,P|174:65|155:75,1,51.999997619629,2|0,0:0|3:0,0:0:0:0:
282,184,44169,2,0,P|263:148|244:138,1,51.999997619629,8|0,0:0|0:0,0:0:0:0:
399,18,44476,6,0,P|380:61|323:81,1,103.999995239258,2|8,3:2|0:0,0:0:0:0:
394,249,45092,2,0,P|372:203|324:185,1,103.999995239258,2|8,3:2|0:0,0:0:0:0:
427,133,45553,1,0,0:0:0:0:
201,162,45707,6,0,P|230:137|238:114,1,51.999997619629,2|0,3:2|0:0,0:0:0:0:
275,263,46015,2,0,P|283:225|276:202,1,51.999997619629,8|0,0:0|3:0,0:0:0:0:
229,47,46323,2,0,P|254:84|329:88,1,103.999995239258,2|8,0:0|0:0,0:0:0:0:
453,245,46784,1,0,3:0:0:0:
459,166,46938,6,0,P|408:174|378:214,1,103.999995239258,2|8,3:2|0:0,0:0:0:0:
272,372,47553,2,0,P|322:363|352:323,1,103.999995239258,2|8,3:2|0:0,0:0:0:0:
197,265,48015,1,0,0:0:0:0:
288,239,48169,6,0,L|277:310,1,51.999997619629,0|0,3:0|0:0,0:0:0:0:
209,161,48476,2,0,L|194:286,1,103.999995239258,10|2,0:0|3:2,0:0:0:0:
128,194,48938,1,0,0:0:0:0:
293,129,49092,2,0,P|271:98|248:89,1,51.999997619629,10|0,0:0|0:0,0:0:0:0:
73,103,49400,6,0,P|149:105|178:68,1,103.999995239258,2|8,3:2|0:0,0:0:0:0:
111,22,49861,1,2,3:2:0:0:
48,202,50015,2,0,P|93:225|100:244,1,51.999997619629,2|0,3:2|0:0,0:0:0:0:
226,156,50323,2,0,P|203:201|208:220,1,51.999997619629,10|0,0:0|0:0,0:0:0:0:
135,334,50630,6,0,P|169:300|223:331,1,103.999995239258,4|8,3:2|0:0,0:0:0:0:
305,376,51092,1,2,3:2:0:0:
305,237,51246,2,0,P|300:278|316:302,1,51.999997619629,2|0,0:0|0:0,0:0:0:0:
417,384,51553,2,0,P|422:343|406:319,1,51.999997619629,2|0,1:3|0:0,0:0:0:0:
343,158,51861,5,0,3:0:0:0:
477,231,52015,1,8,0:3:0:0:
443,243,52092,1,8,0:3:0:0:
408,235,52169,1,4,0:3:0:0:
443,145,52323,1,0,1:0:0:0:
418,334,52476,1,8,0:0:0:0:
343,158,52630,1,8,0:0:0:0:
512,384,52784,1,4,1:3:0:0:
312,280,53092,6,0,B|257:273|282:299|225:293,1,88.000002685547,6|2,3:2|0:3,0:0:0:0:
188,215,53553,1,0,0:0:0:0:
188,215,53707,2,0,P|152:236|141:298,1,88.000002685547,2|2,1:2|0:3,0:0:0:0:
63,329,54169,1,0,3:0:0:0:
17,242,54323,6,0,L|79:236,1,44.0000013427735,2|8,0:2|0:0,0:0:0:0:
46,162,54630,2,0,L|108:156,1,44.0000013427735,2|0,3:2|0:0,0:0:0:0:
249,158,54938,2,0,L|187:152,1,44.0000013427735,10|0,0:0|3:0,0:0:0:0:
220,77,55246,2,0,L|158:71,1,44.0000013427735,10|0,0:0|3:0,0:0:0:0:
236,237,55553,6,0,L|330:248,1,88.000002685547,2|2,3:2|0:3,0:0:0:0:
408,203,56015,1,0,0:0:0:0:
408,203,56169,2,0,P|372:166|367:122,1,88.000002685547,10|0,0:0|3:0,0:0:0:0:
451,124,56630,1,0,3:0:0:0:
478,315,56784,6,0,P|465:340|465:365,1,44.0000013427735,2|8,0:2|0:0,0:0:0:0:
385,225,57092,2,0,P|389:252|403:273,1,44.0000013427735,2|8,3:2|0:0,0:0:0:0:
479,220,57323,1,8,0:0:0:0:
479,220,57400,1,10,0:0:0:0:
346,353,57553,1,8,3:2:0:0:
175,166,57707,1,0,1:0:0:0:
302,242,57861,1,4,0:3:0:0:
149,344,58015,6,0,P|161:275|223:282,1,120.000004577637,6|0,0:0|1:0,0:0:0:0:
241,351,58476,1,0,0:0:0:0:
59,304,58630,2,0,P|68:265|86:242,1,60.0000022888184,2|0,3:2|3:0,0:0:0:0:
213,192,58938,2,0,P|170:194|143:188,1,60.0000022888184,10|0,0:0|0:0,0:0:0:0:
17,87,59246,5,2,3:2:0:0:
68,167,59400,1,0,3:0:0:0:
140,11,59553,1,10,0:0:0:0:
133,109,59707,2,0,P|184:97|228:39,1,120.000004577637,2|2,3:2|0:0,0:0:0:0:
191,192,60169,1,10,0:0:0:0:
296,141,60323,1,4,0:3:0:0:
296,141,60400,1,4,0:3:0:0:
296,141,60476,6,0,P|302:206|306:270,1,120.000004577637,4|0,3:2|3:0,0:0:0:0:
386,186,60938,1,0,3:0:0:0:
200,365,61092,2,8,P|203:305|209:245,1,120.000004577637,8|0,0:0|3:2,0:0:0:0:
114,303,61553,1,4,0:3:0:0:
114,303,61630,1,4,0:3:0:0:
114,303,61707,5,0,1:0:0:0:
280,231,61938,5,4,1:3:0:0:
50,120,62169,5,4,1:3:0:0:
167,35,62323,5,2,0:0:0:0:
254,81,62476,5,2,0:2:0:0:
166,132,62630,1,2,0:2:0:0:
80,79,62784,1,2,0:2:0:0:
323,24,62938,6,0,P|294:99|305:152,1,132.00000402832,6|0,3:2|0:0,0:0:0:0:
378,88,63246,1,8,0:0:0:0:
200,197,63400,2,0,P|236:257|234:300,1,88.000002685547,2|0,0:2|3:0,0:3:0:0:
173,384,63707,1,2,0:2:0:0:
325,318,63861,1,10,0:0:0:0:
132,263,64015,1,2,0:2:0:0:
222,108,64169,6,0,P|234:67|242:22,1,88.000002685547,2|2,3:2|0:3,0:0:0:0:
42,139,64476,1,10,0:0:0:0:
133,74,64630,1,2,0:3:0:0:
206,199,64784,2,0,P|259:197|299:159,1,88.000002685547,2|2,3:2|0:3,0:0:0:0:
460,50,65092,2,0,P|407:57|371:99,1,88.000002685547,10|2,0:0|0:3,0:0:0:0:
426,230,65400,6,0,P|443:185|502:231,1,132.00000402832,0|0,3:0|0:0,0:0:0:0:
470,304,65707,1,10,0:0:0:0:
283,352,65861,1,2,0:3:0:0:
369,380,66015,2,0,P|359:306|340:272,1,88.000002685547,2|2,3:2|0:3,0:0:0:0:
466,336,66246,1,2,0:3:0:0:
466,336,66323,1,8,0:0:0:0:
268,245,66476,6,0,P|179:229|140:170,1,132.00000402832,6|0,0:0|0:0,0:0:0:0:
234,162,66784,1,2,0:2:0:0:
191,337,66938,1,8,0:0:0:0:
46,131,67092,1,2,0:3:0:0:
19,230,67246,2,0,P|36:302|41:333,1,88.000002685547,2|2,3:2|0:3,0:0:0:0:
108,384,67476,1,8,0:0:0:0:
108,384,67553,1,8,0:0:0:0:
134,98,67707,6,0,P|73:105|14:171,1,132.00000402832,6|0,3:2|0:0,0:0:0:0:
37,40,68015,1,2,0:3:0:0:
207,239,68169,1,10,0:0:0:0:
105,187,68323,1,2,0:3:0:0:
276,66,68476,2,0,P|244:116|244:180,1,88.000002685547,2|2,3:2|0:3,0:0:0:0:
173,45,68707,1,8,0:0:0:0:
173,45,68784,1,8,0:0:0:0:
469,189,68938,6,0,P|398:175|331:133,1,132.00000402832,6|0,3:2|0:0,0:0:0:0:
431,101,69246,1,2,0:3:0:0:
247,317,69400,2,0,P|305:285|339:281,1,88.000002685547,10|0,0:0|0:0,0:0:0:0:
215,193,69707,1,2,3:2:0:0:
365,362,69861,1,2,0:3:0:0:
264,103,70015,1,8,0:0:0:0:
73,343,70169,1,2,0:2:0:0:
140,270,70323,6,0,P|171:306|170:359,1,88.000002685547,2|2,3:2|0:3,0:0:0:0:
14,204,70630,1,10,0:0:0:0:
73,343,70784,2,0,L|3:344,1,44.0000013427735,2|8,0:3|0:0,0:0:0:0:
132,104,70938,1,10,0:0:0:0:
248,240,71092,1,2,0:3:0:0:
206,250,71169,1,8,0:0:0:0:
168,230,71246,1,8,0:0:0:0:
0,37,71400,6,0,B|59:66|59:66|147:51,1,132.00000402832,6|0,0:0|0:0,0:0:0:0:
100,152,71707,1,10,0:0:0:0:
245,9,71861,2,0,P|231:64|244:100,1,88.000002685547,8|2,0:0|0:3,0:0:0:0:
370,209,72092,1,4,0:3:0:0:
370,209,72169,2,0,P|363:156|356:147,1,44.0000013427735,4|0,0:3|0:0,0:0:0:0:
280,356,72323,5,10,0:0:0:0:
245,328,72400,1,8,0:0:0:0:
202,323,72476,1,10,0:0:0:0:
163,340,72553,1,8,0:0:0:0:
128,367,72630,1,10,0:0:0:0:
85,372,72707,1,8,0:0:0:0:
46,355,72784,6,0,P|11:280|52:204,1,132.00000402832,6|0,3:2|0:0,0:0:0:0:
96,282,73092,1,8,0:0:0:0:
16,121,73246,2,0,P|72:120|106:92,1,88.000002685547,2|0,0:2|3:0,0:0:0:0:
171,282,73553,1,2,0:2:0:0:
262,252,73707,2,0,P|208:194|171:183,1,88.000002685547,10|0,0:0|0:0,0:0:0:0:
294,127,74015,5,2,3:2:0:0:
161,294,74169,1,2,0:3:0:0:
224,25,74323,1,10,0:0:0:0:
171,153,74476,1,2,0:2:0:0:
379,22,74630,2,0,P|357:93|376:132,1,88.000002685547,2|2,3:2|0:3,0:0:0:0:
504,266,74938,2,0,P|505:222|484:184,1,88.000002685547,10|2,0:0|0:3,0:0:0:0:
324,279,75246,6,0,L|416:244,1,88.000002685547,0|2,3:0|0:3,0:0:0:0:
370,362,75553,1,10,0:0:0:0:
352,169,75707,1,2,0:3:0:0:
232,243,75861,2,0,P|220:292|240:335,1,88.000002685547,2|2,3:2|0:3,0:0:0:0:
14,140,76169,1,10,0:0:0:0:
83,69,76323,6,0,P|107:146|88:205,1,132.00000402832,6|0,0:0|0:0,0:0:0:0:
14,140,76630,1,2,0:3:0:0:
210,67,76784,1,10,0:0:0:0:
58,369,76938,1,2,0:3:0:0:
25,276,77092,2,0,L|137:296,1,88.000002685547,2|2,3:2|0:3,0:0:0:0:
180,183,77323,1,8,0:0:0:0:
180,183,77400,1,8,0:0:0:0:
299,384,77553,6,0,P|277:342|292:256,1,132.00000402832,6|0,3:2|0:0,0:0:0:0:
363,321,77861,1,2,0:3:0:0:
180,183,78015,2,0,P|227:172|265:127,1,88.000002685547,10|2,0:0|0:3,0:0:0:0:
77,57,78323,2,0,P|88:122|95:171,1,88.000002685547,2|2,3:2|0:3,0:0:0:0:
109,248,78553,1,8,0:0:0:0:
109,248,78630,1,8,0:0:0:0:
277,10,78784,6,0,P|206:45|187:119,1,132.00000402832,6|0,3:2|0:0,0:0:0:0:
183,17,79092,1,2,0:3:0:0:
358,143,79246,1,10,0:0:0:0:
266,100,79400,1,2,0:3:0:0:
253,204,79553,2,0,P|290:250|324:294,1,88.000002685547,2|2,3:2|0:3,0:0:0:0:
205,306,79861,1,8,0:0:0:0:
397,146,80015,2,0,L|374:198,1,44.0000013427735,2|2,0:3|0:3,0:0:0:0:
155,155,80169,5,12,0:0:0:0:
346,29,80323,1,8,0:0:0:0:
327,68,80400,1,8,0:0:0:0:
308,108,80476,2,0,L|236:79,1,44.0000013427735,8|0,0:0|0:0,0:0:0:0:
36,8,80630,2,0,P|80:76|74:127,1,132.00000402832,14|0,0:0|0:0,0:0:0:0:
5,82,80938,1,14,0:0:0:0:
234,181,81092,1,2,0:0:0:0:
17,322,81246,5,4,1:2:0:0:
317,249,81553,5,4,1:2:0:0:
75,123,81861,5,4,1:2:0:0:
222,21,82015,5,4,1:2:0:0:
321,80,82169,5,2,0:0:0:0:
210,109,82323,1,2,0:0:0:0:
127,49,82476,1,2,0:0:0:0:
320,172,82630,6,0,P|300:230|317:267,1,88.000002685547,6|2,3:2|0:3,0:0:0:0:
468,351,82938,2,0,P|427:304|387:300,1,88.000002685547,10|2,0:0|0:3,0:0:0:0:
226,384,83246,1,2,3:2:0:0:
318,341,83400,1,2,0:3:0:0:
117,287,83553,1,8,0:0:0:0:
189,166,83707,6,0,L|214:309,1,132.00000402832,2|0,0:2|0:0,0:0:0:0:
284,207,84015,1,2,0:3:0:0:
28,85,84169,1,10,0:0:0:0:
105,176,84323,1,2,0:3:0:0:
237,92,84476,2,0,P|184:73|151:81,1,88.000002685547,2|2,3:2|0:3,0:0:0:0:
284,207,84784,6,0,P|353:219|406:172,1,132.00000402832,10|2,0:0|0:3,0:0:0:0:
413,66,85092,2,0,P|401:120|421:160,1,88.000002685547,2|2,3:2|0:3,0:0:0:0:
509,294,85400,2,0,P|440:282|387:329,1,132.00000402832,10|2,0:0|0:3,0:0:0:0:
284,366,85707,2,0,P|344:363|370:339,1,88.000002685547,2|2,3:2|0:3,0:0:0:0:
196,293,86015,1,8,0:0:0:0:
294,181,86169,6,0,L|309:289,1,88.000002685547,2|0,0:2|3:0,0:0:0:0:
234,97,86476,1,2,0:0:0:0:
376,226,86630,1,10,0:0:0:0:
125,91,86784,1,2,0:3:0:0:
322,27,86938,1,2,3:2:0:0:
200,191,87092,6,0,L|189:249,1,44.0000013427735,8|8,0:0|0:0,0:0:0:0:
296,130,87246,1,2,3:2:0:0:
90,320,87400,2,0,L|98:276,1,44.0000013427735,8|8,0:0|0:0,0:0:0:0:
9,78,87553,6,2,P|35:119|78:132,1,88.000002685547,6|2,3:2|0:3,0:0:0:0:
185,2,87861,2,0,P|188:50|160:86,1,88.000002685547,10|2,0:0|0:3,0:0:0:0:
180,270,88169,1,2,3:2:0:0:
149,162,88323,1,2,0:3:0:0:
274,337,88476,1,8,0:0:0:0:
439,277,88630,6,0,L|352:259,1,88.000002685547,2|0,0:2|3:0,0:0:0:0:
346,76,88938,1,2,0:3:0:0:
410,190,89092,1,10,0:0:0:0:
211,95,89246,1,2,0:3:0:0:
303,169,89400,1,2,3:2:0:0:
111,232,89553,1,0,0:3:0:0:
209,189,89707,2,0,P|192:245|212:297,1,88.000002685547,10|2,0:0|0:3,0:0:0:0:
285,349,89938,1,8,0:0:0:0:
285,349,90015,6,0,L|383:320,1,88.000002685547,2|2,3:2|0:3,0:0:0:0:
324,156,90246,1,8,0:0:0:0:
324,156,90323,2,0,L|300:255,1,88.000002685547,10|2,0:0|0:3,0:0:0:0:
512,333,90630,1,2,3:2:0:0:
405,201,90784,1,2,0:3:0:0:
195,230,90938,1,8,0:0:0:0:
78,80,91092,5,2,0:2:0:0:
78,80,91400,1,2,0:2:0:0:
195,230,91553,1,2,0:2:0:0:
405,201,91707,1,2,0:2:0:0:
512,333,91861,1,2,0:2:0:0:
