osu file format v14

[General]
AudioFilename: audio.mp3
AudioLeadIn: 0
PreviewTime: 62400
Countdown: 0
SampleSet: Soft
StackLeniency: 0.4
Mode: 0
LetterboxInBreaks: 0
WidescreenStoryboard: 1

[Editor]
DistanceSpacing: 1.1
BeatDivisor: 4
GridSize: 32
TimelineZoom: 1

[Metadata]
Title:Ame to Petra
TitleUnicode:雨とペトラ
Artist:mafumafu
ArtistUnicode:まふまふ
Creator:Battle
Version:Insane
Source:
Tags:flower vocaloid male utaite rain japanese rock cut version jrock j-rock
BeatmapID:2083838
BeatmapSetID:995255

[Difficulty]
HPDrainRate:5
CircleSize:4
OverallDifficulty:8
ApproachRate:9
SliderMultiplier:1.4
SliderTickRate:1

[Events]
//Background and Video events
0,0,"ame-to-petra.jpg",0,0
//Break Periods
//Storyboard Layer 0 (Background)
//Storyboard Layer 1 (Fail)
//Storyboard Layer 2 (Pass)
//Storyboard Layer 3 (Foreground)
//Storyboard Layer 4 (Overlay)
//Storyboard Sound Samples

[TimingPoints]
1400,307.692307692308,4,2,1,70,1,0
1400,-133.333333333333,4,2,1,70,0,0
2784,-153.846153846153,4,2,1,70,0,0
3861,-100,4,2,1,80,0,0
23553,-153.846153846153,4,2,1,70,0,0
25861,-153.846153846153,4,2,1,50,0,0
26015,-153.846153846153,4,2,1,70,0,0
33400,-117.647058823529,4,2,1,80,0,0
43246,-153.846153846153,4,2,1,70,0,0
53092,-181.818181818181,4,2,1,60,0,0
58015,-133.333333333333,4,2,1,70,0,0
60476,-133.333333333333,4,2,1,60,0,0
62476,-133.333333333333,4,2,1,70,0,0
62938,-90.9090909090909,4,2,1,80,0,1
71553,-90.9090909090909,4,2,1,80,0,0
72784,-90.9090909090909,4,2,1,80,0,1
82015,-90.9090909090909,4,2,1,80,0,0

[Colours]
Combo1 : 117,180,255
Combo2 : 207,137,245

[HitObjects]
59,344,1246,5,8,0:0:0:0:
59,344,1323,1,8,0:0:0:0:
59,344,1400,2,0,P|40:301|47:274,1,51.999997619629,4|0,0:1|0:0,0:0:0:0:
147,244,1707,2,0,P|128:287|135:314,1,52.5000020027161,2|0,0:3|0:0,0:0:0:0:
238,344,2015,2,0,P|219:301|226:274,1,52.5000020027161,2|0,0:3|0:0,0:0:0:0:
302,286,2323,1,8,0:0:0:0:
122,372,2476,5,4,0:1:0:0:
122,372,2784,2,0,L|67:371,3,45.4999979171754,2|2|2|2,0:3|0:3|0:3|0:3,0:0:0:0:
215,309,3400,1,0,0:0:0:0:
137,243,3553,1,2,0:0:0:0:
252,184,3707,1,0,0:0:0:0:
179,70,3861,6,0,P|165:120|172:140,1,70,6|2,0:0|0:3,0:0:0:0:
252,266,4169,2,0,P|266:216|259:196,1,70,10|2,0:0|0:3,0:0:0:0:
67,267,4476,2,0,L|145:246,1,70,2|2,3:2|0:3,0:0:0:0:
82,180,4784,1,8,0:0:0:0:
47,357,4938,6,0,L|185:319,1,140,2|2,0:0|0:3,0:0:0:0:
347,270,5400,1,10,0:0:0:0:
257,214,5553,1,2,0:3:0:0:
247,384,5707,2,0,L|272:319,1,70,2|2,3:2|0:3,0:0:0:0:
198,157,6015,2,0,P|175:200|178:231,1,70,10|0,0:2|0:0,0:0:0:0:
346,373,6323,6,0,L|375:290,1,70,2|2,3:2|0:3,0:0:0:0:
270,151,6630,1,10,0:0:0:0:
308,240,6784,1,0,0:0:0:0:
454,286,6938,2,0,P|429:242|405:231,1,70,2|2,3:2|0:3,0:0:0:0:
308,240,7246,1,8,0:0:0:0:
366,35,7400,6,0,B|342:88|342:88|362:169,1,140,2|2,0:2|0:2,0:0:0:0:
504,131,7861,2,0,L|431:114,2,70,10|2|2,0:0|0:3|3:2,0:0:0:0:
361,167,8323,1,2,0:3:0:0:
447,244,8476,1,8,0:0:0:0:
334,305,8630,5,8,0:0:0:0:
334,305,8707,1,8,0:0:0:0:
334,305,8784,2,0,P|305:340|304:370,1,70,6|2,3:2|0:3,0:0:0:0:
180,225,9092,2,0,P|209:260|210:290,1,70,10|2,0:0|0:3,0:0:0:0:
317,127,9400,2,0,P|288:162|287:192,1,70,2|2,3:2|0:3,0:0:0:0:
376,194,9707,1,8,0:0:0:0:
215,72,9861,6,0,P|177:130|99:122,1,140,2|2,0:2|0:3,0:0:0:0:
140,60,10323,1,10,0:0:0:0:
115,292,10476,1,2,0:3:0:0:
42,257,10630,2,0,P|69:221|106:214,1,70,2|2,3:2|0:3,0:0:0:0:
220,380,10938,2,0,L|198:307,1,70,10|0,0:0|0:0,0:0:0:0:
326,184,11246,6,0,B|337:249|337:249|293:326,1,140,2|10,3:2|0:0,0:0:0:0:
233,225,11707,1,0,0:0:0:0:
407,309,11861,2,0,L|365:381,2,70,2|2|8,3:2|0:3|0:0,0:0:0:0:
337,111,12323,6,0,P|355:169|442:219,1,140,2|4,0:2|0:3,0:0:0:0:
416,214,12707,1,4,0:3:0:0:
416,214,12784,1,8,0:0:0:0:
426,122,12938,1,8,0:0:0:0:
306,259,13092,2,0,L|225:248,1,70,8|8,0:0|0:0,0:0:0:0:
102,169,13400,1,10,0:0:0:0:
247,90,13553,5,10,0:0:0:0:
247,90,13630,1,0,0:0:0:0:
247,90,13707,2,0,P|220:52|192:40,1,70,6|2,0:0|0:3,0:0:0:0:
190,190,14015,2,0,L|216:284,1,70,10|2,0:0|0:3,0:0:0:0:
375,224,14323,2,0,L|301:200,1,70,2|2,3:2|0:3,0:0:0:0:
287,310,14630,1,8,0:0:0:0:
414,155,14784,6,0,P|405:220|448:287,1,140,2|2,0:2|0:3,0:0:0:0:
498,127,15246,2,0,P|464:83|440:76,1,70,10|2,0:0|0:3,0:0:0:0:
321,183,15553,1,2,3:2:0:0:
414,155,15707,1,2,0:3:0:0:
292,49,15861,2,0,L|349:104,1,70,10|0,0:0|0:0,0:0:0:0:
223,230,16169,6,0,L|242:139,1,70,2|2,3:2|0:3,0:0:0:0:
135,273,16476,1,10,0:0:0:0:
82,184,16630,1,0,0:0:0:0:
288,283,16784,2,0,P|244:313|218:313,1,70,2|2,3:2|0:3,0:0:0:0:
223,230,17092,1,8,0:0:0:0:
386,384,17246,6,0,L|370:306,1,70,2|0,0:2|3:0,0:0:0:0:
486,242,17553,1,2,0:2:0:0:
456,322,17707,1,10,0:0:0:0:
334,157,17861,1,2,0:3:0:0:
325,249,18015,2,0,L|407:220,1,70,2|2,3:2|0:3,0:0:0:0:
493,161,18323,1,8,0:0:0:0:
343,71,18476,1,2,0:3:0:0:
471,0,18630,6,0,P|453:56|458:81,1,70,6|2,3:2|0:3,0:0:0:0:
373,171,18938,2,0,P|371:136|356:105,1,70,10|2,0:0|0:3,0:0:0:0:
177,29,19246,2,0,L|328:-3,1,140,2|8,3:2|0:0,0:0:0:0:
278,158,19707,6,0,L|253:90,1,70,2|0,0:2|0:0,0:0:0:0:
226,256,20015,1,2,0:2:0:0:
103,201,20169,2,0,P|150:171|188:174,1,70,10|2,0:0|0:3,0:0:0:0:
145,7,20476,2,0,P|114:79|55:101,1,140,2|10,3:2|0:0,0:0:0:0:
59,14,20938,1,0,0:0:0:0:
0,160,21092,6,0,L|28:232,1,70,2|2,3:2|0:2,0:0:0:0:
90,373,21400,2,0,L|116:308,1,70,10|0,0:0|0:0,0:0:0:0:
238,200,21707,1,2,3:2:0:0:
155,94,21861,1,2,0:3:0:0:
257,205,22015,1,8,0:0:0:0:
118,232,22169,1,4,0:3:0:0:
220,334,22323,6,0,L|158:319,3,35,8|4|8|0,0:0|0:3|0:0|0:0,0:0:0:0:
306,277,22630,1,8,0:0:0:0:
211,178,22784,1,8,0:0:0:0:
370,74,22938,1,10,0:0:0:0:
293,2,23092,1,4,0:3:0:0:
293,2,23169,1,8,0:0:0:0:
293,2,23246,2,0,P|273:50|285:80,1,70,8|4,0:3|0:3,0:0:0:0:
380,172,23553,6,0,P|334:156|290:171,2,90.9999958343508,6|2|2,0:0|3:2|3:2,0:0:0:0:
335,257,24476,1,2,3:2:0:0:
204,144,24784,2,0,L|228:252,1,90.9999958343508,2|0,3:2|3:2,0:0:0:0:
294,167,25246,1,2,0:2:0:0:
176,69,25400,2,0,P|133:97|123:152,1,90.9999958343508,2|0,3:2|3:0,0:0:0:0:
95,232,25861,5,8,0:0:0:0:
95,232,25938,1,8,0:0:0:0:
95,232,26015,2,0,L|5:226,1,90.9999958343508,2|2,3:2|3:2,0:0:0:0:
184,333,26630,2,0,L|94:327,1,90.9999958343508,2|2,3:2|3:2,0:0:0:0:
95,232,27092,1,2,0:3:0:0:
244,273,27246,2,0,P|260:294|268:326,2,45.4999979171754,2|2|0,3:2|0:3|3:2,0:0:0:0:
174,207,27707,1,2,0:3:0:0:
254,166,27861,2,0,P|299:135|317:88,1,90.9999958343508,2|10,3:2|0:2,0:0:0:0:
476,33,28476,6,0,L|382:28,2,90.9999958343508,0|2|2,3:0|3:2|3:2,0:0:0:0:
428,189,29400,1,2,3:2:0:0:
367,137,29553,2,0,P|410:109|463:121,1,90.9999958343508,2|2,0:0|0:3,0:0:0:0:
509,194,30015,2,0,L|498:250,2,45.4999979171754,2|2|2,3:2|0:3|3:2,0:0:0:0:
424,320,30630,2,0,L|435:376,1,45.4999979171754,0|2,3:0|0:0,0:0:0:0:
382,222,30938,6,0,P|350:271|314:282,1,90.9999958343508,2|2,3:2|3:2,0:0:0:0:
168,285,31400,2,0,P|200:236|236:225,1,90.9999958343508,2|2,0:2|0:2,0:0:0:0:
251,338,31861,2,0,L|242:391,1,45.4999979171754,2|2,3:2|0:2,0:0:0:0:
168,285,32169,1,0,3:0:0:0:
75,351,32323,2,0,L|43:355,2,22.7499989585877,0|0|0,3:0|0:0|1:0,0:0:0:0:
73,261,32630,5,0,1:0:0:0:
73,261,32707,1,2,0:0:0:0:
73,261,32784,1,4,0:3:0:0:
0,196,32938,1,0,0:0:0:0:
65,128,33092,1,2,0:0:0:0:
0,196,33246,1,2,0:0:0:0:
136,188,33400,6,0,P|167:159|239:172,1,119.000002269745,4|0,3:2|1:0,0:0:0:0:
198,251,33861,1,2,3:2:0:0:
327,21,34169,1,0,3:0:0:0:
259,75,34323,2,0,P|301:105|315:108,1,59.5000011348725,8|0,0:0|0:0,0:0:0:0:
414,82,34630,6,0,L|402:17,1,59.5000011348725,2|0,3:2|0:0,0:0:0:0:
502,190,34938,2,0,L|513:125,1,59.5000011348725,10|0,0:2|3:0,0:0:0:0:
408,281,35246,2,0,L|396:216,1,59.5000011348725,2|0,3:2|3:0,0:0:0:0:
496,368,35553,1,0,1:0:0:0:
305,179,35861,6,0,L|317:250,1,59.5000011348725,2|0,3:2|0:0,0:0:0:0:
215,128,36169,2,0,L|227:199,1,59.5000011348725,2|0,1:2|0:0,0:0:0:0:
371,135,36476,2,0,P|331:104|314:102,1,59.5000011348725,2|0,3:2|3:0,0:0:0:0:
320,296,36784,1,10,0:0:0:0:
382,217,36938,1,0,0:0:0:0:
236,290,37092,6,0,L|255:372,2,59.5000011348725,2|0|0,3:2|0:0|1:0,0:0:0:0:
145,222,37553,1,2,3:2:0:0:
89,295,37707,2,0,P|117:316|167:308,1,59.5000011348725,0|0,3:0|3:0,0:0:0:0:
225,212,38015,1,0,1:0:0:0:
27,244,38323,6,0,L|38:371,1,119.000002269745,0|2,3:2|1:2,0:0:0:0:
115,314,38784,1,0,3:0:0:0:
25,156,38938,2,0,P|49:209|106:221,1,119.000002269745,2|8,3:2|0:0,0:0:0:0:
107,137,39400,1,2,3:2:0:0:
205,277,39553,6,0,P|199:225|206:211,1,59.5000011348725,0|0,3:0|0:0,0:0:0:0:
290,122,39861,2,0,P|296:174|289:188,1,59.5000011348725,2|0,1:2|3:0,0:0:0:0:
204,348,40169,2,0,P|232:300|310:283,1,119.000002269745,2|2,3:2|1:2,0:0:0:0:
369,338,40630,1,0,0:0:0:0:
487,216,40784,6,0,L|369:217,1,119.000002269745,2|0,3:2|1:0,0:0:0:0:
280,110,41246,2,0,L|398:109,1,119.000002269745,2|2,3:2|3:2,0:0:0:0:
297,276,41707,2,0,P|280:248|247:229,1,59.5000011348725,8|0,0:0|0:0,0:0:0:0:
89,317,42015,6,0,B|143:340|143:340|201:329,1,119.000002269745,2|8,3:2|0:0,0:0:0:0:
112,217,42476,2,0,B|54:206|54:206|0:229,1,119.000002269745,2|2,3:2|3:2,0:0:0:0:
89,317,42938,1,4,1:3:0:0:
98,45,43246,6,0,L|118:140,1,90.9999958343508,6|8,3:2|0:0,0:0:0:0:
209,68,43861,2,0,L|229:163,1,90.9999958343508,2|8,0:0|0:0,0:0:0:0:
116,134,44476,6,0,L|127:196,1,45.4999979171754,2|0,3:2|0:0,0:0:0:0:
227,157,44784,2,0,L|238:219,1,45.4999979171754,8|0,0:0|0:0,0:0:0:0:
159,256,45092,2,0,L|170:318,1,45.4999979171754,2|0,3:2|0:0,0:0:0:0:
239,340,45400,2,0,L|250:402,1,45.4999979171754,8|0,0:0|0:0,0:0:0:0:
327,301,45707,6,0,P|373:307|414:285,1,90.9999958343508,2|8,3:2|0:0,0:0:0:0:
270,206,46323,2,0,P|316:200|357:222,1,90.9999958343508,2|8,0:0|0:0,0:0:0:0:
283,299,46938,6,0,P|312:295|339:309,1,45.4999979171754,2|0,3:2|0:0,0:0:0:0:
226,207,47246,2,0,P|255:210|282:196,1,45.4999979171754,8|0,0:0|0:0,0:0:0:0:
145,294,47553,2,0,P|174:290|201:304,1,45.4999979171754,2|0,3:2|3:0,0:0:0:0:
60,214,47861,2,0,P|89:217|116:203,1,45.4999979171754,8|0,0:0|0:0,0:0:0:0:
146,47,48169,6,0,L|159:144,1,90.9999958343508,0|10,3:0|0:0,0:0:0:0:
331,106,48784,2,0,P|272:77|235:88,1,90.9999958343508,2|10,3:2|0:0,0:0:0:0:
174,227,49400,6,0,L|269:186,1,90.9999958343508,2|8,3:2|0:0,0:0:0:0:
159,134,49861,1,2,3:2:0:0:
84,210,50015,2,0,L|109:298,1,90.9999958343508,2|10,3:2|0:0,0:0:0:0:
42,133,50630,6,0,P|9:163|3:226,1,90.9999958343508,4|8,3:2|0:0,0:0:0:0:
84,210,51092,1,2,3:2:0:0:
90,43,51246,2,0,L|141:130,1,90.9999958343508,2|2,0:0|1:3,0:0:0:0:
245,289,51861,5,0,3:0:0:0:
186,204,52015,1,8,0:3:0:0:
186,204,52092,1,8,0:3:0:0:
186,204,52169,1,4,0:3:0:0:
288,216,52323,1,0,1:0:0:0:
155,321,52476,2,0,L|123:268,2,45.4999979171754,8|8|4,0:0|0:0|1:3,0:0:0:0:
3,272,53092,6,0,L|44:357,1,77.0000023498536,6|2,3:2|0:3,0:0:0:0:
50,186,53553,1,0,0:0:0:0:
50,186,53707,2,0,L|67:220,1,38.5000011749268,2|0,1:2|0:0,0:0:0:0:
155,233,54015,2,0,L|172:267,1,38.5000011749268,2|0,0:3|3:0,0:0:0:0:
142,113,54323,6,0,L|124:147,1,38.5000011749268,2|8,0:2|0:0,0:0:0:0:
248,76,54630,2,0,L|230:110,1,38.5000011749268,2|0,3:2|0:0,0:0:0:0:
97,12,54938,2,0,L|55:90,1,77.0000023498536,10|10,0:0|0:0,0:0:0:0:
1,0,55400,1,0,3:0:0:0:
124,147,55553,6,0,L|141:181,1,38.5000011749268,2|0,3:2|0:0,0:0:0:0:
72,229,55861,2,0,L|89:263,1,38.5000011749268,2|0,0:3|0:0,0:0:0:0:
179,56,56169,2,0,L|220:141,1,77.0000023498536,10|0,0:0|3:0,0:0:0:0:
272,44,56630,1,0,3:0:0:0:
245,210,56784,6,0,L|227:244,1,38.5000011749268,2|8,0:2|0:0,0:0:0:0:
358,177,57092,2,0,L|340:211,1,38.5000011749268,2|8,3:2|0:0,0:0:0:0:
302,288,57323,1,8,0:0:0:0:
302,288,57400,1,10,0:0:0:0:
288,146,57553,1,8,3:2:0:0:
390,289,57707,2,0,L|372:323,1,38.5000011749268,0|4,1:0|0:3,0:0:0:0:
417,129,58015,6,0,P|403:181|441:224,1,105.000004005432,6|0,0:0|1:0,0:0:0:0:
496,163,58476,1,0,0:0:0:0:
376,58,58630,2,0,P|404:47|439:53,1,52.5000020027161,2|0,3:2|3:0,0:0:0:0:
310,168,58938,2,0,P|283:168|260:158,1,52.5000020027161,10|0,0:0|0:0,0:0:0:0:
164,23,59246,6,0,L|179:93,1,52.5000020027161,2|0,3:2|3:0,0:0:0:0:
247,31,59553,1,10,0:0:0:0:
114,151,59707,2,0,L|99:221,1,52.5000020027161,2|0,3:2|0:0,0:0:0:0:
34,155,60015,1,2,0:0:0:0:
182,278,60169,2,0,L|197:348,1,52.5000020027161,10|4,0:0|0:3,0:0:0:0:
284,148,60476,6,0,P|234:144|195:188,1,105.000004005432,4|0,3:2|3:0,0:0:0:0:
271,245,60938,1,0,3:0:0:0:
367,33,61092,2,0,B|341:104|404:80|386:183,1,157.500006008148,8|4,0:0|0:3,0:0:0:0:
271,245,61707,5,0,1:0:0:0:
345,333,61938,5,4,1:3:0:0:
469,287,62169,5,4,1:3:0:0:
385,183,62323,5,2,0:0:0:0:
345,333,62476,2,0,L|333:389,2,52.5000020027161,2|2|2,0:2|0:2|0:2,0:0:0:0:
248,176,62938,6,0,B|218:236|218:236|251:331,1,154.000004699707,6|8,3:2|0:0,0:0:0:0:
339,170,63400,2,0,P|320:120|293:101,1,77.0000023498536,2|0,0:2|3:0,0:0:0:0:
134,207,63707,1,2,0:2:0:0:
248,176,63861,1,10,0:0:0:0:
153,101,64015,1,0,0:2:0:0:
112,297,64169,6,0,L|186:274,1,77.0000023498536,2|2,3:2|0:3,0:0:0:0:
364,320,64476,1,10,0:0:0:0:
279,253,64630,1,2,0:3:0:0:
168,382,64784,2,0,L|242:359,1,77.0000023498536,2|2,3:2|0:3,0:0:0:0:
327,186,65092,2,0,P|278:167|247:175,1,77.0000023498536,10|2,0:0|0:3,0:0:0:0:
384,384,65400,6,0,L|277:263,1,154.000004699707,0|10,3:0|0:0,0:0:0:0:
270,372,65861,1,2,0:3:0:0:
459,241,66015,2,0,P|397:217|372:222,1,77.0000023498536,2|2,3:2|0:3,0:0:0:0:
401,304,66323,1,8,0:0:0:0:
258,152,66476,6,0,P|337:145|395:79,1,154.000004699707,6|2,0:0|0:2,0:0:0:0:
211,4,66938,1,8,0:0:0:0:
293,70,67092,1,2,0:3:0:0:
178,171,67246,1,2,3:2:0:0:
292,250,67400,1,2,0:3:0:0:
292,250,67476,1,8,0:0:0:0:
292,250,67553,1,8,0:0:0:0:
127,264,67707,6,0,P|152:187|180:171,1,115.50000352478,6|0,3:2|0:0,0:0:0:0:
194,187,68015,1,2,0:3:0:0:
70,338,68169,2,0,P|43:289|43:263,1,77.0000023498536,10|2,0:0|0:3,0:0:0:0:
214,312,68476,2,0,L|185:397,1,77.0000023498536,2|2,3:2|0:3,0:0:0:0:
127,264,68784,1,8,0:0:0:0:
358,311,68938,6,0,P|310:289|277:222,1,115.50000352478,6|0,3:2|0:0,0:0:0:0:
273,213,69246,1,2,0:3:0:0:
477,311,69400,2,0,P|460:363|453:391,1,77.0000023498536,10|0,0:0|0:0,0:0:0:0:
408,141,69707,1,2,3:2:0:0:
410,239,69861,1,2,0:3:0:0:
493,191,70015,1,8,0:0:0:0:
333,186,70169,5,2,0:2:0:0:
273,0,70323,2,0,P|237:36|259:139,1,154.000004699707,2|10,3:2|0:0,0:0:0:0:
331,77,70784,1,2,0:3:0:0:
166,179,70938,2,0,P|200:218|228:228,1,77.0000023498536,10|2,0:0|0:3,0:0:0:0:
257,138,71169,1,8,0:0:0:0:
257,138,71246,1,8,0:0:0:0:
345,289,71400,6,0,P|280:301|234:371,1,154.000004699707,6|10,0:0|0:0,0:0:0:0:
113,251,71861,2,0,P|130:308|141:344,1,77.0000023498536,8|2,0:0|0:3,0:0:0:0:
23,286,72092,1,4,0:3:0:0:
23,286,72169,2,0,L|9:230,3,38.5000011749268,4|0|10|8,0:3|0:0|0:0|0:0,0:0:0:0:
3,162,72476,1,10,0:0:0:0:
20,141,72553,1,8,0:0:0:0:
44,129,72630,1,10,0:0:0:0:
70,125,72707,1,8,0:0:0:0:
96,131,72784,6,0,P|149:168|235:124,1,154.000004699707,6|8,3:2|0:0,0:0:0:0:
265,313,73246,2,0,P|234:267|205:250,1,77.0000023498536,2|0,0:2|3:0,0:0:0:0:
391,173,73553,1,2,0:2:0:0:
299,218,73707,1,10,0:0:0:0:
297,109,73861,1,0,0:0:0:0:
401,264,74015,6,0,L|466:223,1,77.0000023498536,2|2,3:2|0:3,0:0:0:0:
266,275,74323,1,10,0:0:0:0:
319,188,74476,1,2,0:2:0:0:
448,341,74630,2,0,L|383:382,1,77.0000023498536,2|2,3:2|0:3,0:0:0:0:
177,239,74938,2,0,P|216:192|240:186,1,77.0000023498536,10|2,0:0|0:3,0:0:0:0:
436,68,75246,6,0,L|265:54,1,154.000004699707,0|10,3:0|0:0,0:0:0:0:
333,154,75707,1,2,0:3:0:0:
200,0,75861,2,0,P|180:51|188:80,1,77.0000023498536,2|2,3:2|0:3,0:0:0:0:
282,55,76169,1,10,0:0:0:0:
68,67,76323,6,0,P|104:142|93:219,1,154.000004699707,6|2,0:0|0:3,0:0:0:0:
178,353,76784,1,10,0:0:0:0:
86,285,76938,1,2,0:3:0:0:
80,384,77092,1,2,3:2:0:0:
184,274,77246,1,2,0:3:0:0:
184,274,77323,1,8,0:0:0:0:
184,274,77400,1,8,0:0:0:0:
29,211,77553,6,0,P|-1:249|13:336,1,115.50000352478,6|0,3:2|0:0,0:0:0:0:
9,334,77861,1,2,0:3:0:0:
107,175,78015,2,0,P|86:145|47:129,1,77.0000023498536,10|2,0:0|0:3,0:0:0:0:
130,286,78323,2,0,L|215:275,1,77.0000023498536,2|2,3:2|0:3,0:0:0:0:
183,368,78630,1,8,0:0:0:0:
302,242,78784,6,0,P|259:202|254:140,1,115.50000352478,6|0,3:2|0:0,0:0:0:0:
254,126,79092,1,2,0:3:0:0:
374,295,79246,2,0,P|326:332|307:335,1,77.0000023498536,10|2,0:0|0:3,0:0:0:0:
350,176,79553,1,2,3:2:0:0:
453,144,79707,1,2,0:3:0:0:
424,231,79861,1,8,0:0:0:0:
364,62,80015,1,2,0:3:0:0:
512,141,80169,6,0,L|460:146,4,38.5000011749268,12|0|8|8|8,0:0|0:0|0:0|0:0|0:0,0:0:0:0:
402,236,80630,2,0,L|356:229,1,38.5000011749268,14|0,0:0|0:0,0:0:0:0:
336,226,80784,1,0,0:0:0:0:
250,113,80938,2,0,L|204:120,1,38.5000011749268,14|0,0:0|0:0,0:0:0:0:
184,123,81092,1,2,0:0:0:0:
105,257,81246,6,0,P|59:233|19:226,1,77.0000023498536,4|0,1:2|0:2,0:0:0:0:
243,315,81553,2,0,P|197:339|157:346,1,77.0000023498536,4|0,1:2|0:2,0:0:0:0:
238,77,81861,1,4,1:2:0:0:
306,137,82015,2,0,P|274:170|224:166,1,77.0000023498536,4|2,1:2|0:0,0:0:0:0:
152,199,82323,1,2,0:0:0:0:
269,266,82476,1,2,0:0:0:0:
176,365,82630,6,0,P|168:312|183:281,1,77.0000023498536,6|2,3:2|0:3,0:0:0:0:
278,177,82938,2,0,P|286:230|271:261,1,77.0000023498536,10|2,0:0|0:3,0:0:0:0:
116,122,83246,1,2,3:2:0:0:
162,207,83400,1,2,0:3:0:0:
263,16,83553,1,8,0:0:0:0:
189,68,83707,6,0,P|265:103|340:68,1,154.000004699707,2|2,0:2|0:3,0:0:0:0:
481,201,84169,2,0,P|448:171|399:160,1,77.0000023498536,10|2,0:0|0:3,0:0:0:0:
367,318,84476,1,2,3:2:0:0:
413,239,84630,1,2,0:3:0:0:
249,198,84784,2,0,L|327:243,1,77.0000023498536,10|0,0:0|0:0,0:0:0:0:
183,367,85092,6,0,P|223:329|219:286,1,77.0000023498536,2|2,3:2|0:3,0:0:0:0:
79,217,85400,1,10,0:0:0:0:
142,283,85553,1,0,0:0:0:0:
37,150,85707,2,0,P|1:188|2:220,1,77.0000023498536,2|2,3:2|0:3,0:0:0:0:
125,119,86015,1,8,0:0:0:0:
49,19,86169,6,0,P|105:78|170:59,1,154.000004699707,2|2,0:2|0:0,0:0:0:0:
247,230,86630,2,0,P|209:185|174:172,2,77.0000023498536,10|2|2,0:0|0:3|3:2,0:0:0:0:
314,44,87092,1,8,0:0:0:0:
314,44,87169,1,8,0:0:0:0:
314,44,87246,2,0,P|284:90|294:129,1,77.0000023498536,2|8,3:2|0:0,0:0:0:0:
473,135,87553,6,0,L|391:108,1,77.0000023498536,6|2,3:2|0:3,0:0:0:0:
415,288,87861,2,0,L|411:208,1,77.0000023498536,10|2,0:0|0:3,0:0:0:0:
260,296,88169,1,2,3:2:0:0:
330,235,88323,1,2,0:3:0:0:
240,211,88476,1,8,0:0:0:0:
202,384,88630,6,0,L|159:226,1,154.000004699707,2|2,0:2|0:3,0:0:0:0:
68,333,89092,1,10,0:0:0:0:
67,234,89246,1,2,0:3:0:0:
239,189,89400,2,0,P|194:151|171:149,1,77.0000023498536,2|0,3:2|0:3,0:0:0:0:
249,298,89707,2,0,L|338:277,1,77.0000023498536,10|2,0:0|0:3,0:0:0:0:
406,189,89938,5,8,0:0:0:0:
406,189,90015,2,0,P|396:241|411:271,1,77.0000023498536,2|2,3:2|0:3,0:0:0:0:
498,134,90323,2,0,P|508:82|493:52,1,77.0000023498536,10|2,0:0|0:3,0:0:0:0:
395,116,90630,1,2,3:2:0:0:
296,42,90784,1,2,0:3:0:0:
163,68,90938,1,8,0:0:0:0:
259,173,91092,5,2,0:2:0:0:
259,173,91400,1,2,0:2:0:0:
163,68,91553,1,2,0:2:0:0:
296,42,91707,1,2,0:2:0:0:
395,116,91861,1,2,0:2:0:0:
