osu file format v14

[General]
AudioFilename: audio.mp3
AudioLeadIn: 0
PreviewTime: 62400
Countdown: 0
SampleSet: Soft
StackLeniency: 0.6
Mode: 0
LetterboxInBreaks: 0
WidescreenStoryboard: 1

[Editor]
DistanceSpacing: 1.1
BeatDivisor: 4
GridSize: 32
TimelineZoom: 1

[Metadata]
Title:Ame to Petra
TitleUnicode:雨とペトラ
Artist:mafumafu
ArtistUnicode:まふまふ
Creator:Battle
Version:Hard
Source:
Tags:flower vocaloid male utaite rain japanese rock cut version jrock j-rock
BeatmapID:2084550
BeatmapSetID:995255

[Difficulty]
HPDrainRate:4.5
CircleSize:3.6
OverallDifficulty:6
ApproachRate:8
SliderMultiplier:1.2
SliderTickRate:1

[Events]
//Background and Video events
0,0,"ame-to-petra.jpg",0,0
//Break Periods
//Storyboard Layer 0 (Background)
//Storyboard Layer 1 (Fail)
//Storyboard Layer 2 (Pass)
//Storyboard Layer 3 (Foreground)
//Storyboard Layer 4 (Overlay)
//Storyboard Sound Samples

[TimingPoints]
1400,307.692307692308,4,2,1,70,1,0
1400,-100,4,2,1,70,0,0
3861,-100,4,2,1,80,0,0
23553,-100,4,2,1,70,0,0
25861,-100,4,2,1,50,0,0
26015,-100,4,2,1,70,0,0
33400,-100,4,2,1,80,0,0
43246,-100,4,2,1,70,0,0
53092,-100,4,2,1,60,0,0
58015,-100,4,2,1,70,0,0
60476,-100,4,2,1,60,0,0
62476,-100,4,2,1,70,0,0
62938,-100,4,2,1,80,0,1
71553,-100,4,2,1,80,0,0
72784,-100,4,2,1,80,0,1
82015,-100,4,2,1,80,0,0

[Colours]
Combo1 : 117,180,255
Combo2 : 207,137,245

[HitObjects]
29,229,1400,5,4,0:1:0:0:
29,229,1707,2,0,P|61:208|137:230,1,120,2|2,0:3|0:3,0:0:0:0:
184,296,2169,2,0,P|216:317|245:318,1,60,0|8,0:0|0:0,0:0:0:0:
238,235,2476,1,4,0:1:0:0:
382,320,2784,6,0,P|374:341|385:400,2,60,2|2|2,0:3|0:3|0:3,0:0:0:0:
453,269,3246,1,2,0:3:0:0:
383,221,3400,2,0,P|348:203|315:220,2,60,0|2|0,0:0|0:0|0:0,0:0:0:0:
248,180,3861,6,0,B|230:126|230:126|249:61,1,120,6|10,0:0|0:0,0:0:0:0:
178,16,4323,1,2,0:3:0:0:
117,74,4476,2,0,B|134:134|134:134|116:188,1,120,2|8,3:2|0:0,0:0:0:0:
57,249,4938,6,0,P|33:291|62:357,1,120,2|2,0:0|0:3,0:0:0:0:
136,323,5400,2,0,P|168:318|196:327,1,60,10|2,0:0|0:3,0:0:0:0:
272,356,5707,2,0,P|304:361|332:352,1,60,2|2,3:2|0:3,0:0:0:0:
400,306,6015,5,10,0:2:0:0:
503,173,6323,2,0,P|520:229|510:288,1,120,2|10,3:2|0:0,0:0:0:0:
393,165,6938,2,0,P|376:109|386:50,1,120,2|8,3:2|0:0,0:0:0:0:
300,92,7400,6,0,P|267:99|238:90,1,60,2|0,0:2|3:0,0:0:0:0:
170,47,7707,1,2,0:2:0:0:
97,89,7861,2,0,P|84:50|90:24,2,60,10|2|2,0:0|0:3|3:2,0:0:0:0:
154,151,8323,1,2,0:3:0:0:
88,202,8476,2,0,L|1:201,1,60,8|8,0:0|0:0,0:0:0:0:
8,283,8784,6,0,L|155:282,1,120,6|10,3:2|0:0,0:0:0:0:
176,213,9246,1,2,0:3:0:0:
241,265,9400,2,0,P|211:319|226:375,1,120,2|8,3:2|0:0,0:0:0:0:
296,329,9861,6,0,L|367:331,1,60,2|0,0:2|0:0,0:0:0:0:
425,282,10169,1,2,0:3:0:0:
384,208,10323,2,0,L|311:205,1,60,10|2,0:0|0:3,0:0:0:0:
271,140,10630,1,2,3:2:0:0:
392,23,10938,2,0,P|444:23|464:44,1,60,10|2,0:0|0:3,0:0:0:0:
479,104,11246,6,0,P|476:167|477:232,1,120,2|10,3:2|0:0,0:0:0:0:
438,299,11707,1,0,0:0:0:0:
364,340,11861,2,0,P|318:340|293:346,1,60,2|2,3:2|0:3,0:0:0:0:
185,263,12169,1,8,0:0:0:0:
185,263,12323,2,0,P|214:267|244:265,1,60,2|8,0:2|0:3,0:0:0:0:
311,194,12630,2,0,P|325:192|347:193,2,30,4|4|8,0:3|0:3|0:0,0:0:0:0:
243,142,12938,1,8,0:0:0:0:
293,74,13092,6,0,P|281:34|263:20,1,60,8|8,0:0|0:0,0:0:0:0:
181,18,13400,1,10,0:0:0:0:
148,94,13553,1,10,0:0:0:0:
73,49,13707,6,0,P|31:59|1:143,1,120,6|10,0:0|0:0,0:0:0:0:
48,190,14169,1,2,0:3:0:0:
131,179,14323,2,0,L|256:178,1,120,2|8,3:2|0:0,0:0:0:0:
316,235,14784,6,0,B|299:279|299:279|321:354,1,120,2|2,0:2|0:3,0:0:0:0:
237,368,15246,2,0,L|220:306,1,60,10|2,0:0|0:3,0:0:0:0:
143,277,15553,2,0,P|110:295|63:287,1,60,2|2,3:2|0:3,0:0:0:0:
21,244,15861,5,10,0:0:0:0:
70,83,16169,2,0,L|95:207,1,120,2|10,3:2|0:0,0:0:0:0:
208,323,16784,2,0,L|183:199,1,120,2|8,3:2|0:0,0:0:0:0:
236,139,17246,6,0,P|281:111|307:113,1,60,2|0,0:2|3:0,0:0:0:0:
359,151,17553,1,2,0:2:0:0:
413,86,17707,2,0,P|400:44|409:22,2,60,10|2|2,0:0|0:3|3:2,0:0:0:0:
482,134,18169,1,2,0:3:0:0:
507,214,18323,2,0,L|507:293,1,60,8|2,0:0|0:3,0:0:0:0:
428,305,18630,6,0,L|426:174,1,120,6|10,3:2|0:0,0:0:0:0:
359,132,19092,1,2,0:3:0:0:
304,196,19246,2,0,B|262:218|262:218|181:200,1,120,2|8,3:2|0:0,0:0:0:0:
132,141,19707,6,0,P|123:104|131:76,1,60,2|0,0:2|0:0,0:0:0:0:
64,27,20015,1,2,0:2:0:0:
7,88,20169,2,0,P|11:117|2:145,1,60,10|2,0:0|0:3,0:0:0:0:
2,229,20476,2,0,P|-7:280|17:354,1,120,2|10,3:2|0:0,0:0:0:0:
77,292,20938,1,0,0:0:0:0:
144,341,21092,6,0,B|197:357|197:357|260:341,1,120,2|10,3:2|0:0,0:0:0:0:
355,203,21707,2,0,P|345:153|389:100,1,120,2|8,3:2|0:0,0:0:0:0:
454,150,22169,1,4,0:3:0:0:
452,234,22323,6,0,L|446:317,1,60,8|8,0:0|0:0,0:0:0:0:
447,293,22553,1,0,0:0:0:0:
447,293,22630,1,8,0:0:0:0:
374,334,22784,1,8,0:0:0:0:
309,279,22938,2,0,P|266:269|242:275,1,60,10|4,0:0|0:3,0:0:0:0:
191,331,23246,2,0,P|148:341|124:335,1,60,8|4,0:3|0:3,0:0:0:0:
64,288,23553,6,0,L|34:164,2,120,6|2|2,0:0|3:2|3:2,0:0:0:0:
184,188,24476,1,2,3:2:0:0:
96,58,24784,2,0,P|143:9|203:15,1,120,2|0,3:2|3:2,0:0:0:0:
260,66,25246,1,2,0:2:0:0:
260,66,25400,2,0,P|327:96|381:80,1,120,2|0,3:2|3:0,0:0:0:0:
431,229,26015,6,0,P|378:256|353:310,1,120,2|2,3:2|3:2,0:0:0:0:
201,276,26630,2,0,P|212:218|186:165,1,120,2|2,3:2|3:2,0:0:0:0:
115,199,27092,1,2,0:3:0:0:
46,161,27246,2,0,P|37:118|49:89,1,60,2|2,3:2|0:3,0:0:0:0:
184,42,27707,1,2,0:3:0:0:
184,42,27861,2,0,P|216:71|223:102,1,60,2|0,3:2|0:0,0:0:0:0:
280,137,28169,2,0,L|411:136,1,120,10|0,0:2|3:0,0:0:0:0:
491,262,28784,6,0,L|360:263,1,120,2|2,3:2|3:2,0:0:0:0:
231,333,29400,1,2,3:2:0:0:
264,262,29553,2,0,P|206:254|162:292,1,120,2|2,0:0|0:3,0:0:0:0:
110,352,30015,2,0,P|88:373|54:375,1,60,2|2,3:2|0:3,0:0:0:0:
9,315,30323,2,0,L|4:193,1,120,2|0,3:2|3:0,0:0:0:0:
43,127,30784,1,2,0:0:0:0:
107,171,30938,6,0,B|152:200|152:200|221:192,1,120,2|2,3:2|3:2,0:0:0:0:
273,136,31400,2,0,B|318:107|318:107|387:115,1,120,2|2,0:2|0:2,0:0:0:0:
425,180,31861,2,0,L|412:250,1,60,2|2,3:2|0:2,0:0:0:0:
489,260,32169,2,0,L|515:115,1,120,0|0,3:0|1:0,0:0:0:0:
403,27,32784,6,0,P|361:30|346:41,1,60,4|0,0:3|0:0,0:0:0:0:
291,94,33092,2,0,P|249:91|234:80,1,60,2|2,0:0|0:0,0:0:0:0:
155,53,33400,6,0,P|161:127|166:194,1,120,4|0,3:2|1:0,0:0:0:0:
82,189,33861,2,0,P|87:249|92:309,1,120,2|0,3:2|3:0,0:0:0:0:
167,346,34323,1,8,0:0:0:0:
234,297,34476,1,0,0:0:0:0:
309,333,34630,2,0,P|365:357|428:336,2,120,2|10|2,3:2|0:2|3:2,0:0:0:0:
158,257,35553,1,0,1:0:0:0:
306,177,35861,6,0,L|300:241,1,60,2|0,3:2|0:0,0:0:0:0:
382,258,36169,2,0,L|388:194,1,60,2|0,1:2|0:0,0:0:0:0:
460,156,36476,2,0,P|489:128|488:95,1,60,2|0,3:2|3:0,0:0:0:0:
435,46,36784,1,10,0:0:0:0:
359,83,36938,1,0,0:0:0:0:
294,28,37092,2,0,L|215:27,2,60,2|0|0,3:2|0:0|1:0,0:0:0:0:
287,115,37553,1,2,3:2:0:0:
287,115,37707,2,0,L|163:114,1,120,0|0,3:0|1:0,0:0:0:0:
0,92,38323,6,0,P|-3:34|41:0,1,120,0|2,3:2|1:2,0:0:0:0:
88,69,38784,1,0,3:0:0:0:
73,151,38938,2,0,B|45:211|45:211|73:277,1,120,2|8,3:2|0:0,0:0:0:0:
125,320,39400,2,0,L|253:314,1,120,2|0,3:2|0:0,0:0:0:0:
320,277,39861,2,0,P|290:239|265:236,1,60,10|0,1:2|3:0,0:0:0:0:
198,216,40169,2,0,P|171:155|198:93,1,120,10|2,3:2|1:2,0:0:0:0:
206,25,40630,1,0,0:0:0:0:
288,10,40784,6,0,P|317:2|352:13,1,60,2|0,3:2|0:0,0:0:0:0:
375,88,41092,1,0,1:0:0:0:
312,144,41246,2,0,P|283:150|254:142,1,60,2|0,3:2|0:0,0:0:0:0:
171,124,41553,1,2,3:2:0:0:
103,174,41707,2,0,P|91:225|102:248,1,60,8|0,0:0|0:0,0:0:0:0:
123,309,42015,2,0,L|265:310,1,120,2|8,3:2|0:0,0:0:0:0:
291,240,42476,2,0,L|433:239,1,120,2|2,3:2|3:2,0:0:0:0:
463,305,42938,1,4,1:3:0:0:
497,141,43246,6,0,P|447:153|384:123,1,120,6|8,3:2|0:0,0:0:0:0:
323,53,43861,2,0,P|273:41|210:71,1,120,2|8,0:0|0:0,0:0:0:0:
251,156,44476,1,2,3:2:0:0:
182,222,44784,1,8,0:0:0:0:
102,168,45092,1,2,3:2:0:0:
14,208,45400,1,8,0:0:0:0:
91,264,45707,6,0,L|80:393,1,120,2|8,3:2|0:0,0:0:0:0:
173,357,46323,2,0,L|183:227,1,120,2|8,0:0|0:0,0:0:0:0:
127,158,46938,1,2,3:2:0:0:
196,91,47246,1,8,0:0:0:0:
277,140,47553,1,2,3:2:0:0:
349,76,47861,1,8,0:0:0:0:
430,126,48169,6,0,P|469:169|455:235,2,120,0|10|2,3:0|0:0|3:2,0:0:0:0:
349,76,49092,1,10,0:0:0:0:
277,140,49400,2,0,L|297:270,1,120,2|8,3:2|0:0,0:0:0:0:
303,305,49861,1,2,3:2:0:0:
303,305,50015,2,0,P|227:287|189:316,1,120,2|10,3:2|0:0,0:0:0:0:
123,370,50630,2,0,P|109:300|99:245,1,120,4|8,3:2|0:0,0:0:0:0:
88,205,51092,1,2,3:2:0:0:
88,205,51246,2,0,P|118:151|185:143,1,120,2|2,0:0|1:3,0:0:0:0:
263,165,51861,6,0,L|276:230,2,60,0|8|4,3:0|0:3|0:3,0:0:0:0:
255,117,52323,1,0,1:0:0:0:
255,117,52476,2,0,P|330:150|387:129,1,120,8|4,0:0|1:3,0:0:0:0:
466,40,53092,6,0,L|479:182,1,120,6|2,3:2|0:3,0:0:0:0:
480,247,53553,1,0,0:0:0:0:
480,247,53707,2,0,P|427:260|408:324,1,120,2|2,1:2|0:3,0:0:0:0:
337,364,54169,1,0,3:0:0:0:
337,364,54323,2,0,L|201:358,2,120,2|2|10,0:2|3:2|0:0,0:0:0:0:
411,213,55246,1,10,0:0:0:0:
283,104,55553,6,0,L|147:98,1,120,2|2,3:2|0:3,0:0:0:0:
109,40,56015,1,0,0:0:0:0:
109,40,56169,2,0,P|71:96|101:162,1,120,10|0,0:0|3:0,0:0:0:0:
132,217,56630,1,0,3:0:0:0:
132,217,56784,2,0,P|116:277|137:342,1,120,2|2,0:2|3:2,0:0:0:0:
253,216,57400,2,0,P|268:273|254:330,1,120,10|0,0:0|1:0,0:0:0:0:
321,380,57861,1,4,0:3:0:0:
394,339,58015,6,0,L|479:341,1,60,6|0,0:0|0:0,0:0:0:0:
470,257,58323,2,0,L|385:255,1,60,0|0,1:0|0:0,0:0:0:0:
349,199,58630,2,0,B|324:140|324:140|350:63,1,120,2|10,3:2|0:0,0:0:0:0:
291,19,59092,1,0,0:0:0:0:
241,87,59246,2,0,P|203:96|165:78,1,60,2|0,3:2|3:0,0:0:0:0:
121,33,59553,1,10,0:0:0:0:
44,68,59707,2,0,P|19:123|41:198,1,120,2|2,3:2|0:0,0:0:0:0:
92,236,60169,2,0,L|96:303,1,60,10|4,0:0|0:3,0:0:0:0:
171,331,60476,6,0,P|244:336|295:244,1,180,4|2,3:2|3:0,0:0:0:0:
262,175,61092,2,0,P|240:121|316:35,1,180,8|4,0:0|3:3,0:0:0:0:
405,3,61707,6,0,P|435:-9|492:-1,2,90,0|4|4,1:0|1:3|1:3,0:0:0:0:
452,87,62323,2,0,L|446:161,1,60,2|2,0:0|0:2,0:0:0:0:
383,218,62630,5,2,0:2:0:0:
295,178,62784,1,2,0:2:0:0:
222,241,62938,6,0,P|195:301|218:367,1,120,6|8,3:2|0:0,0:0:0:0:
94,355,63400,2,0,P|105:297|78:244,1,120,2|2,0:2|0:2,0:0:0:0:
31,161,63861,1,10,0:0:0:0:
114,113,64015,1,0,0:2:0:0:
8,29,64169,6,0,L|86:30,1,60,2|2,3:2|0:3,0:0:0:0:
164,28,64476,1,10,0:0:0:0:
214,109,64630,1,2,0:3:0:0:
265,27,64784,2,0,L|384:28,1,120,2|10,3:2|0:0,0:0:0:0:
440,107,65246,1,2,0:3:0:0:
348,135,65400,6,0,P|320:191|327:212,1,60,0|0,3:0|0:0,0:0:0:0:
438,264,65707,2,0,L|422:207,1,60,10|2,0:0|0:3,0:0:0:0:
323,268,66015,2,0,L|356:398,1,120,2|8,3:2|0:0,0:0:0:0:
214,247,66476,6,0,B|268:280|268:280|323:268,1,120,6|2,0:0|0:2,0:0:0:0:
371,184,66938,1,8,0:0:0:0:
289,132,67092,1,2,0:3:0:0:
441,90,67246,2,0,L|356:89,1,60,2|2,3:2|0:3,0:0:0:0:
381,89,67476,1,8,0:0:0:0:
381,89,67553,1,8,0:0:0:0:
313,21,67707,6,0,P|242:12|198:40,1,120,6|2,3:2|0:3,0:0:0:0:
135,105,68169,2,0,P|108:63|105:45,1,60,10|2,0:0|0:3,0:0:0:0:
226,121,68476,2,0,P|219:179|213:245,1,120,2|8,3:2|0:0,0:0:0:0:
118,256,68938,6,0,P|125:314|131:380,1,120,6|2,3:2|0:3,0:0:0:0:
45,213,69400,2,0,P|73:182|105:176,1,60,10|0,0:0|0:0,0:0:0:0:
222,162,69707,2,0,P|187:154|141:82,1,120,2|8,3:2|0:0,0:0:0:0:
228,72,70169,1,2,0:2:0:0:
235,244,70323,6,0,P|263:186|324:173,1,120,2|10,3:2|0:0,0:0:0:0:
374,244,70784,1,2,0:3:0:0:
462,206,70938,2,0,P|450:168|459:141,1,60,10|2,0:0|0:3,0:0:0:0:
491,59,71246,1,8,0:0:0:0:
403,19,71400,6,0,P|357:37|288:18,1,120,6|10,0:0|0:0,0:0:0:0:
201,55,71861,2,0,P|160:84|153:103,1,60,8|2,0:0|0:3,0:0:0:0:
156,91,72092,1,4,0:3:0:0:
156,91,72169,1,4,0:3:0:0:
184,183,72323,2,0,L|217:197,2,30,10|8|10,0:0|0:0|0:0,0:0:0:0:
102,234,72630,2,0,L|68:243,1,30,10|8,0:0|0:0,0:0:0:0:
27,225,72784,6,0,P|45:281|36:351,1,120,6|8,3:2|0:0,0:0:0:0:
132,367,73246,2,0,P|197:360|262:354,1,120,2|2,0:2|0:2,0:0:0:0:
325,294,73707,1,10,0:0:0:0:
254,228,73861,1,0,0:0:0:0:
338,136,74015,6,0,P|349:184|342:203,1,60,2|2,3:2|0:3,0:0:0:0:
254,95,74323,2,0,P|243:47|250:28,1,60,10|2,0:0|0:2,0:0:0:0:
405,94,74630,2,0,P|427:145|421:229,1,120,2|10,3:2|0:0,0:0:0:0:
368,286,75092,1,2,0:3:0:0:
286,235,75246,6,0,L|215:242,1,60,0|2,3:0|0:3,0:0:0:0:
123,173,75553,2,0,L|194:166,1,60,10|2,0:0|0:3,0:0:0:0:
289,120,75861,2,0,B|270:171|270:171|290:252,1,120,2|10,3:2|0:0,0:0:0:0:
374,110,76323,6,0,P|357:66|292:38,1,120,6|2,0:0|0:3,0:0:0:0:
209,83,76784,1,10,0:0:0:0:
141,15,76938,1,2,0:3:0:0:
141,15,77015,1,2,0:0:0:0:
141,15,77092,2,0,P|97:11|56:42,1,90,2|8,3:2|0:0,0:0:0:0:
31,74,77400,1,8,0:0:0:0:
98,141,77553,6,0,P|117:199|117:264,1,120,6|2,3:2|0:3,0:0:0:0:
38,312,78015,2,0,P|20:282|9:258,1,60,10|2,0:0|0:3,0:0:0:0:
122,353,78323,2,0,P|188:340|262:332,1,120,2|8,3:2|0:0,0:0:0:0:
229,238,78784,6,0,P|295:251|369:259,1,120,6|2,3:2|0:3,0:0:0:0:
427,203,79246,2,0,P|388:174|370:156,1,60,10|2,0:0|0:3,0:0:0:0:
276,45,79553,2,0,P|288:104|296:167,1,120,2|8,3:2|0:0,0:0:0:0:
209,118,80015,1,2,0:3:0:0:
139,184,80169,6,0,L|77:181,1,60,12|8,0:0|0:0,0:0:0:0:
79,181,80400,1,8,0:0:0:0:
79,181,80476,1,8,0:0:0:0:
0,272,80630,2,0,L|126:280,1,120,14|14,0:0|0:0,0:0:0:0:
200,332,81092,1,2,0:0:0:0:
276,273,81246,6,0,P|260:227|320:173,2,120,4|4|4,1:2|1:2|1:2,0:0:0:0:
371,263,82015,2,0,L|360:336,1,60,4|2,1:2|0:0,0:0:0:0:
443,374,82323,1,2,0:0:0:0:
460,280,82476,1,2,0:0:0:0:
476,185,82630,6,0,P|423:198|377:134,1,120,6|10,3:2|0:0,0:0:0:0:
359,61,83092,1,2,0:3:0:0:
282,119,83246,2,0,P|235:129|207:113,1,60,2|2,3:2|0:3,0:0:0:0:
169,61,83553,1,8,0:0:0:0:
168,60,83707,6,0,P|100:29|40:50,1,120,2|2,0:2|0:3,0:0:0:0:
22,128,84169,2,0,P|36:179|40:206,1,60,10|2,0:0|0:3,0:0:0:0:
124,226,84476,2,0,P|87:302|84:354,1,120,2|10,3:2|0:0,0:0:0:0:
276,337,85092,6,0,P|265:278|235:226,1,120,2|10,3:2|0:0,0:0:0:0:
182,143,85553,1,0,0:0:0:0:
222,55,85707,2,0,P|270:26|298:27,1,60,2|2,3:2|0:3,0:0:0:0:
345,87,86015,1,8,0:0:0:0:
436,57,86169,6,0,P|478:97|481:155,1,120,2|2,0:2|0:0,0:0:0:0:
411,221,86630,1,10,0:0:0:0:
335,161,86784,1,2,0:3:0:0:
270,231,86938,2,0,P|265:262|263:310,1,60,2|8,3:2|0:0,0:0:0:0:
169,317,87246,2,0,P|174:286|176:238,1,60,2|8,3:2|0:0,0:0:0:0:
123,177,87553,6,0,P|66:169|6:196,1,120,6|10,3:2|0:0,0:0:0:0:
4,96,88015,1,2,0:3:0:0:
16,0,88169,2,0,P|70:23|129:15,1,120,2|8,3:2|0:0,0:0:0:0:
208,70,88630,6,0,P|198:117|221:188,1,120,2|2,0:2|0:3,0:0:0:0:
283,112,89092,1,10,0:0:0:0:
315,202,89246,1,2,0:3:0:0:
377,129,89400,2,0,L|457:108,1,60,2|0,3:2|0:3,0:0:0:0:
512,180,89707,2,0,L|432:201,1,60,10|2,0:0|0:3,0:0:0:0:
364,230,90015,6,0,P|410:310|407:354,1,120,2|10,3:2|0:0,0:0:0:0:
318,307,90476,1,2,0:3:0:0:
234,354,90630,2,0,L|105:344,1,120,2|8,3:2|0:0,0:0:0:0:
45,276,91092,5,2,0:2:0:0:
50,107,91400,1,2,0:2:0:0:
129,81,91553,1,2,0:2:0:0:
186,142,91707,1,2,0:2:0:0:
146,216,91861,1,2,0:2:0:0:
