osu file format v14

[General]
AudioFilename: audio.mp3
AudioLeadIn: 0
PreviewTime: 87
Countdown: 1
SampleSet: Normal
StackLeniency: 0.7
Mode: 0
LetterboxInBreaks: 0
WidescreenStoryboard: 0

[Editor]
Bookmarks: 1371,13580,22562,35818,44626,55353,66952,79510,103231,114307
DistanceSpacing: 1
BeatDivisor: 4
GridSize: 4
TimelineZoom: 2.899999

[Metadata]
Title:quem vai querer
TitleUnicode:quem vai querer
Artist:Maffalda
ArtistUnicode:Maffalda
Creator:Ancelysia
Version:parakeet insane
Source:
Tags:the SR is a lie btw
BeatmapID:1653378
BeatmapSetID:787764

[Difficulty]
HPDrainRate:6
CircleSize:2.7
OverallDifficulty:9.2
ApproachRate:9.7
SliderMultiplier:2.3
SliderTickRate:0.5

[Events]
//Background and Video events
0,0,"BG.jpg",0,0
//Break Periods
2,200,876
2,78315,79015
//Storyboard Layer 0 (Background)
//Storyboard Layer 1 (Fail)
//Storyboard Layer 2 (Pass)
//Storyboard Layer 3 (Foreground)
//Storyboard Sound Samples

[TimingPoints]
0,348.837209302326,4,1,0,90,1,0
0,-100,4,1,0,90,0,1
21,-100,4,1,0,90,0,0
1371,348.837209302326,4,2,0,90,1,0
1371,-133.333333333333,4,2,0,90,0,0
1632,-133.333333333333,4,2,0,5,0,0
1719,-200,4,2,0,80,0,0
1981,-200,4,2,0,5,0,0
2068,-400,4,2,0,70,0,0
2330,-400,4,2,0,5,0,0
2417,-1000,4,2,0,60,0,0
2679,-1000,4,2,0,5,0,0
2766,-57.1428571428571,4,1,0,90,0,1
3027,-57.1428571428571,4,1,0,5,0,1
3115,-100,4,1,0,90,0,0
3812,-50,4,1,0,90,0,0
4074,-50,4,2,0,5,0,0
4161,-100,4,1,0,90,0,0
4510,-57.1428571428571,4,1,0,90,0,0
4772,-57.1428571428571,4,2,0,5,0,0
4859,-100,4,1,0,90,0,0
5557,-50,4,1,0,90,0,0
5731,-100,4,1,0,90,0,0
7301,-57.1428571428571,4,1,0,90,0,0
7562,-57.1428571428571,4,1,0,5,0,0
7650,-100,4,1,0,90,0,0
8260,-100,4,2,0,5,0,0
8347,-57.1428571428571,4,1,0,90,0,0
8696,-100,4,1,0,90,0,0
9394,-50,4,1,0,90,0,0
9655,-50,4,2,0,5,0,0
9743,-100,4,1,0,90,0,0
10091,-57.1428571428571,4,1,0,90,0,0
10353,-57.1428571428571,4,2,0,5,0,0
10440,-100,4,1,0,90,0,0
11661,-133.333333333333,4,1,0,90,0,0
12533,-83.3333333333333,4,1,0,90,0,0
13841,-83.3333333333333,4,2,0,5,0,0
13929,-100,4,1,0,90,0,1
14277,-50,4,1,0,90,0,0
14626,-149.253731343284,4,1,0,90,0,0
14888,-149.253731343284,4,2,0,5,0,0
14975,-100,4,1,0,90,0,0
17417,-50,4,1,0,90,0,0
17766,-80,4,1,0,90,0,0
18027,-100,4,2,0,5,0,0
18115,-80,4,1,0,90,0,0
18464,-66.6666666666667,4,1,0,90,0,0
18725,-66.6666666666667,4,1,0,5,0,0
18812,-100,4,1,0,90,0,0
21603,-50,4,1,0,90,0,0
21865,-50,4,2,0,5,0,0
21952,-57.1428571428571,4,1,0,90,0,0
22214,-57.1428571428571,4,2,0,5,0,0
22301,-100,4,1,0,90,0,0
22606,-45.4545454545455,4,1,0,100,0,1
22737,-45.4545454545455,4,1,0,100,0,0
22998,-100,4,1,0,90,0,0
23347,-285.714285714286,4,1,0,90,0,0
23609,-285.714285714286,4,2,0,5,0,0
23696,-100,4,1,0,90,0,0
24219,-45.4545454545455,4,1,0,90,0,0
24394,-100,4,1,0,90,0,0
24743,-303.030303030303,4,1,0,90,0,0
25004,-303.030303030303,4,2,0,5,0,0
25091,-100,4,1,0,90,0,0
25397,-45.4545454545455,4,1,0,90,0,1
25527,-100,4,1,0,90,0,0
26138,-303.030303030303,4,1,0,90,0,0
26400,-303.030303030303,4,2,0,5,0,0
26487,-100,4,1,0,90,0,0
27010,-50,4,1,0,90,0,0
27184,-100,4,1,0,90,0,0
27533,-303.030303030303,4,1,0,90,0,0
27795,-303.030303030303,4,2,0,5,0,0
27882,-100,4,1,0,90,0,0
28580,-57.1428571428571,4,1,0,90,0,0
28841,-57.1428571428571,4,2,0,5,0,0
28929,-100,4,1,0,90,0,0
29277,-50,4,1,0,90,0,0
29539,-50,4,2,0,5,0,0
29626,-200,4,1,0,90,0,0
29888,-200,4,2,0,5,0,0
29975,-100,4,1,0,90,0,0
30586,-100,4,2,0,5,0,0
30673,-100,4,1,0,90,0,0
31719,-57.1428571428571,4,1,0,90,0,0
31981,-57.1428571428571,4,2,0,5,0,0
32068,-100,4,1,0,90,0,0
32417,-50,4,1,0,90,0,0
32679,-50,4,2,0,5,0,0
32766,-40,4,1,0,90,0,0
33115,-80,4,1,0,90,0,0
33376,-80,4,2,0,5,0,0
33464,-100,4,1,0,90,0,0
34161,-133.333333333333,4,1,0,90,0,0
35905,-80,4,1,0,90,0,0
36167,-80,4,2,0,5,0,0
36254,-100,4,1,0,90,0,1
36603,-100,4,1,0,90,0,0
36952,-66.6666666666667,4,1,0,90,0,0
37301,-100,4,1,0,90,0,0
37650,-200,4,1,0,90,0,0
37955,-200,4,2,0,5,0,0
37998,-200,4,1,0,90,0,0
38304,-200,4,2,0,5,0,0
38347,-100,4,1,0,90,0,0
39743,-66.6666666666667,4,1,0,90,0,0
40091,-133.333333333333,4,1,0,90,0,0
40353,-133.333333333333,4,2,0,5,0,0
40440,-200,4,1,0,90,0,0
40746,-200,4,2,0,5,0,0
40789,-200,4,1,0,90,0,0
41094,-200,4,2,0,5,0,0
41138,-200,4,1,0,90,0,0
41836,-133.333333333333,4,1,0,90,0,0
43231,-100,4,1,0,90,0,0
43929,-100,4,1,0,100,0,0
44932,-45.4545454545455,4,1,0,90,0,1
45062,-100,4,1,0,90,0,0
45673,-303.030303030303,4,1,0,90,0,0
45934,-303.030303030303,4,2,0,5,0,0
46022,-100,4,1,0,90,0,0
46545,-45.4545454545455,4,1,0,90,0,0
46719,-100,4,1,0,90,0,0
47068,-303.030303030303,4,1,0,90,0,0
47330,-303.030303030303,4,2,0,5,0,0
47417,-100,4,1,0,90,0,0
47679,-100,4,2,0,5,0,0
47766,-100,4,1,0,90,0,0
48115,-80,4,1,0,90,0,0
48376,-80,4,2,0,5,0,0
48464,-100,4,1,0,90,0,0
48812,-66.6666666666667,4,1,0,90,0,0
49074,-66.6666666666667,4,2,0,5,0,0
49161,-57.1428571428571,4,1,0,90,0,0
49423,-57.1428571428571,4,2,0,5,0,0
49510,-100,4,1,0,90,0,0
50121,-100,4,2,0,5,0,0
50208,-100,4,1,0,90,0,0
50731,-83.3333333333333,4,1,0,90,0,0
50862,-83.3333333333333,4,2,0,5,0,0
50905,-50,4,1,0,90,0,0
51254,-66.6666666666667,4,1,0,90,0,0
51516,-66.6666666666667,4,2,0,5,0,0
51603,-57.1428571428571,4,1,0,90,0,0
52126,-45.4545454545455,4,1,0,90,0,0
52301,-100,4,1,0,90,0,0
52650,-57.1428571428571,4,1,0,90,0,0
52911,-57.1428571428571,4,2,0,5,0,0
52998,-50,4,1,0,90,0,0
53086,-50,4,2,0,5,0,0
53347,-133.333333333333,4,1,0,90,0,0
54394,-100,4,1,0,90,0,0
54743,-133.333333333333,4,1,0,90,0,0
55091,-200,4,1,0,90,0,0
55440,-400,4,1,0,90,0,0
55702,-400,4,2,0,5,0,0
55789,-57.1428571428571,4,1,0,90,0,0
55964,-57.1428571428571,4,2,0,5,0,0
56138,-100,4,1,0,90,0,0
56836,-50,4,1,0,90,0,0
57097,-50,4,2,0,5,0,0
57184,-100,4,1,0,90,0,0
57708,-45.4545454545455,4,1,0,90,0,0
57882,-100,4,1,0,90,0,0
58231,-57.1428571428571,4,1,0,90,0,0
58493,-57.1428571428571,4,2,0,5,0,0
58580,-50,4,1,0,90,0,0
58841,-50,4,2,0,5,0,0
58929,-100,4,1,0,90,0,0
59626,-50,4,1,0,90,0,0
59888,-50,4,2,0,5,0,0
59975,-100,4,1,0,90,0,0
60498,-45.4545454545455,4,1,0,90,0,0
60673,-100,4,1,0,90,0,0
61022,-303.030303030303,4,1,0,90,0,0
61283,-303.030303030303,4,2,0,5,0,0
61371,-100,4,1,0,90,0,0
62417,-50,4,1,0,90,0,0
62679,-50,4,2,0,5,0,0
62766,-100,4,1,0,90,0,0
63289,-45.4545454545455,4,1,0,90,0,0
63464,-100,4,1,0,90,0,0
63812,-303.030303030303,4,1,0,90,0,0
64074,-303.030303030303,4,2,0,5,0,0
64161,-50,4,1,0,90,0,0
64423,-50,4,2,0,5,0,0
64510,-100,4,1,0,90,0,0
65208,-50,4,1,0,90,0,0
65469,-50,4,2,0,5,0,0
65557,-100,4,1,0,90,0,0
65905,-66.6666666666667,4,1,0,90,0,0
66167,-66.6666666666667,4,2,0,5,0,0
66254,-100,4,1,0,90,0,0
66865,-100,4,2,0,5,0,0
66952,-100,4,2,0,90,0,0
67301,-100,4,2,0,60,0,0
67650,-100,4,2,0,40,0,0
67998,-100,4,2,0,20,0,0
68173,-100,4,2,0,10,0,0
68696,-100,4,2,0,20,0,0
69045,-100,4,2,0,40,0,0
69394,-100,4,2,0,60,0,0
69743,-200,4,1,0,80,0,0
79510,-50,4,1,0,80,0,0
80557,-100,4,1,0,80,0,0
80905,-50,4,1,0,90,0,1
81516,-50,4,2,0,5,0,1
81603,-133.333333333333,4,1,0,90,0,0
83696,-50,4,1,0,90,0,0
84307,-50,4,2,0,5,0,0
84394,-100,4,1,0,90,0,0
86487,-50,4,1,0,90,0,1
86748,-50,4,2,0,5,0,0
86836,-50,4,1,0,90,0,1
87097,-50,4,2,0,5,0,1
87184,-100,4,1,0,90,0,0
89277,-50,4,1,0,100,0,0
89299,-50,4,1,0,90,0,0
89888,-50,4,2,0,5,0,0
89975,-133.333333333333,4,1,0,90,0,0
92068,-44.4444444444445,4,1,0,90,0,1
92679,-50,4,2,0,5,0,1
92766,-100,4,1,0,90,0,0
94859,-44.4444444444445,4,1,0,90,0,0
95469,-44.4444444444445,4,2,0,5,0,0
95557,-133.333333333333,4,1,0,90,0,0
97650,-44.4444444444445,4,1,0,90,0,1
97911,-44.4444444444445,4,2,0,5,0,0
97998,-44.4444444444445,4,1,0,90,0,1
98260,-44.4444444444445,4,2,0,5,0,1
98347,-100,4,1,0,90,0,0
100440,-44.4444444444445,4,1,0,100,0,0
100462,-44.4444444444445,4,1,0,90,0,0
101051,-44.4444444444445,4,2,0,5,0,0
101138,-100,4,1,0,90,0,0
101836,-200,4,1,0,90,0,0
103231,-66.6666666666667,4,1,0,90,0,1
103841,-66.6666666666667,4,2,0,5,0,1
103929,-133.333333333333,4,1,0,90,0,0
106022,-66.6666666666667,4,1,0,90,0,0
106632,-66.6666666666667,4,2,0,5,0,0
106719,-133.333333333333,4,1,0,90,0,0
108812,-66.6666666666667,4,1,0,90,0,0
109074,-66.6666666666667,4,2,0,5,0,0
109161,-66.6666666666667,4,1,0,90,0,0
109423,-66.6666666666667,4,2,0,5,0,0
109510,-133.333333333333,4,1,0,90,0,0
111603,-66.6666666666667,4,1,0,90,0,0
112214,-66.6666666666667,4,2,0,5,0,0
112301,-133.333333333333,4,1,0,90,0,0
114394,-66.6666666666667,4,1,0,90,0,0
115091,-100,4,1,0,90,0,0
117184,-90.9090909090909,4,1,0,90,0,0
117882,-200,4,1,0,90,0,0
120237,-200,4,2,0,5,0,0
120324,-250,4,1,0,90,0,0
120673,-200,4,1,0,90,0,0
122766,-111.111111111111,4,1,0,90,0,0
124859,-57.1428571428571,4,1,0,90,0,1
125382,-66.6666666666667,4,1,0,90,0,0

[Colours]
Combo1 : 17,254,176
Combo2 : 173,255,95
Combo3 : 255,88,100
Combo4 : 255,94,55

[HitObjects]
256,192,0,53,2,0:0:0:0:
48,112,1371,6,0,P|100:160|180:156,1,129.375004935265,2|0,0:0|0:0,0:0:0:0:
192,260,1719,6,0,P|254:227|270:196,1,86.25,0|0,1:0|0:0,0:0:0:0:
356,268,2068,6,0,P|368:244|368:224,1,43.125,4|0,3:0|0:0,0:0:0:0:
468,192,2417,6,0,L|464:176,1,17.25,4|0,3:0|0:0,0:0:0:0:
460,164,2766,6,0,B|308:120|316:248|156:160,1,301.875002878904,4|0,0:0|2:0,0:0:0:0:
156,160,3115,1,0,0:0:0:0:
252,44,3289,1,2,2:0:0:0:
252,44,3464,6,0,P|244:124|236:132,1,57.5
156,236,3638,2,0,P|164:156|172:148,1,57.5
372,128,3812,6,0,L|8:156,1,345,4|0,3:0|2:0,0:0:0:0:
28,154,4161,6,0,L|132:148,1,57.5
212,245,4336,2,0,L|156:236,1,57.5
156,48,4510,6,2,L|67:389,1,301.875002878904,2|0,0:0|2:0,0:0:0:0:
79,340,4859,6,0,P|100:280|100:256,1,57.5,8|0,3:0|2:0,0:0:0:0:
236,212,5033,2,0,P|246:272|260:294,1,57.5,8|0,3:0|2:0,0:0:0:0:
367,336,5208,1,12,3:0:0:0:
367,336,5557,6,0,B|215:348|215:348|259:324|251:252,1,230,2|0,0:0|2:0,0:0:0:0:
144,212,5905,6,0,P|132:276|148:308,1,57.5
368,228,6080,2,0,P|356:201|336:181,1,57.5
252,284,6254,1,0,0:0:0:0:
300,96,6429,6,0,B|241:125|240:195|240:195|224:124|140:112,1,230
60,136,6952,6,0,L|68:216,1,57.5
136,256,7126,2,0,L|128:312,1,57.5
124,72,7301,6,0,L|92:400,1,301.875002878904
320,248,7650,5,0,0:0:0:0:
336,140,7824,1,0,0:0:0:0:
344,36,7998,2,0,P|420:80|428:188,1,172.5
384,244,8347,6,0,B|324:268|268:208|268:208|284:252|284:252|212:172|108:260,1,301.875002878904,4|0,0:0|2:0,0:0:0:0:
112,344,8696,2,0,P|184:336|208:296,1,115
248,176,9045,6,0,P|284:248|296:256,1,57.5
432,336,9219,2,0,P|396:264|384:256,1,57.5
168,276,9394,6,0,L|540:256,1,345,4|0,3:0|2:0,0:0:0:0:
512,257,9743,6,0,L|408:264,1,57.5
324,124,9917,2,0,L|381:127,1,57.5
415,353,10091,6,2,L|432:52,1,301.875002878904,12|0,3:0|2:0,1:0:0:0:
432,36,10440,6,0,P|456:124|464:132,1,57.5
316,184,10615,2,0,P|292:96|284:88,1,57.5
200,48,10789,5,2,2:0:0:0:
179,43,10876,1,0,2:0:0:0:
157,41,10963,1,0,2:0:0:0:
136,44,11050,1,0,2:0:0:0:
108,56,11138,6,0,L|113:142,1,57.5,0|0,0:0|2:0,2:0:0:0:
128,272,11312,1,0,0:0:0:0:
232,164,11487,1,0,0:0:0:0:
376,296,11661,5,0,0:0:0:0:
472,80,11836,1,0,0:0:0:0:
443,78,11923,1,0,0:0:0:0:
414,81,12010,1,0,0:0:0:0:
387,90,12097,1,0,0:0:0:0:
364,108,12184,2,0,B|304:144|256:112,1,86.2500032901765
206,80,12533,6,0,P|114:72|67:97,1,137.999995788574
78,94,12795,1,0,0:0:0:0:
219,287,12882,6,0,P|270:208|266:159,1,137.999995788574
269,167,13144,1,0,0:0:0:0:
28,184,13231,6,0,P|44:249|97:298,1,137.999995788574
94,296,13493,1,0,0:0:0:0:
172,156,13580,6,0,P|119:210|190:187,1,206.999993682861,0|0,0:0|2:0,0:0:0:0:
152,188,13929,1,4,0:0:0:0:
204,112,14277,6,0,B|152:84|152:84|88:120,1,115,2|0,0:0|2:0,0:0:0:0:
200,272,14451,6,0,B|250:240|250:240|251:167,1,115,0|0,0:0|2:0,0:0:0:0:
53,185,14626,6,0,B|53:240|53:240|104:272,1,115.574994533043,0|0,0:0|2:0,0:0:0:0:
224,336,14975,2,0,P|204:244|200:240,1,57.5,2|0,0:0|0:0,0:0:0:0:
328,168,15150,2,0,P|348:260|352:264,1,57.5
436,332,15324,6,0,B|412:216|500:224|444:84,1,230,0|2,0:0|0:0,2:0:0:0:
452,108,15847,1,0,0:0:0:0:
436,28,16022,6,0,B|424:80|456:112|456:112|424:80|320:40|336:160|208:96,1,345
124,44,16719,1,2,0:0:0:0:
84,208,17068,1,2,0:0:0:0:
84,208,17243,5,0,0:0:0:0:
148,276,17417,2,0,P|172:188|152:152,1,115
16,140,17591,2,0,P|-8:228|12:264,1,115
84,304,17766,6,0,B|144:340|192:296|192:296|220:364|308:344|328:316,1,215.625,2|0,0:0|0:0,0:0:0:0:
288,336,18115,6,0,L|292:264,1,71.875
408,116,18289,2,0,L|412:188,1,71.875
404,200,18464,6,0,B|287:141|247:285|95:153,1,258.75000987053,2|0,0:0|2:0,0:0:0:0:
136,180,18812,6,0,L|140:100,1,57.5,0|0,0:0|2:0,2:0:0:0:
144,32,18987,1,0,0:0:0:0:
264,132,19161,6,0,P|280:76|272:40,1,57.5,0|0,0:0|2:0,2:0:0:0:
352,180,19336,2,0,P|386:132|390:96,1,57.5,0|0,0:0|2:0,2:0:0:0:
468,20,19510,6,0,P|461:77|476:111,1,57.5,2|0,0:0|2:0,2:0:0:0:
384,244,19684,2,0,P|391:187|376:153,1,57.5,2|0,0:0|2:0,2:0:0:0:
312,80,19859,6,0,L|212:88,1,57.5,2|0,0:0|2:0,2:0:0:0:
200,184,20033,2,0,L|100:176,1,57.5,2|0,0:0|2:0,2:0:0:0:
40,60,20208,6,0,L|48:160,1,57.5,2|0,0:0|2:0,2:0:0:0:
142,179,20382,2,0,L|134:279,1,57.5,2|0,0:0|2:0,2:0:0:0:
0,328,20557,6,0,P|68:308|88:312,1,57.5,2|0,0:0|2:0,2:0:0:0:
144,360,20731,2,0,P|212:343|228:329,1,57.5,2|0,0:0|2:0,2:0:0:0:
300,200,20905,6,0,L|304:276,1,57.5,2|0,0:0|2:0,2:0:0:0:
408,284,21080,2,0,L|404:360,1,57.5,2|0,0:0|2:0,2:0:0:0:
472,172,21254,5,0,0:0:0:0:
408,344,21429,1,2,0:0:0:0:
364,136,21603,6,0,B|320:96|256:104|220:152|220:152|196:140|196:140|172:152|172:152|148:140|148:140|124:152|124:152|100:140|100:140|72:156|52:208|72:260,1,345,4|0,3:0|2:0,0:0:0:0:
28,304,21952,6,0,B|72:320|124:312|152:268|152:268|160:276|160:276|168:284|168:284|220:236|272:236|344:292,1,301.875002878904,12|0,3:0|2:0,1:0:0:0:
372,324,22301,1,2,0:0:0:0:
295,261,22606,6,0,L|283:185,8,63.2500019302369,0|0|0|0|0|0|0|0|0,2:0|2:0|2:0|2:0|2:0|2:0|2:0|2:0|2:0,2:0:0:0:
347,257,22998,6,0,P|365:234|373:207,1,57.5
203,213,23173,2,0,P|210:240|229:262,1,57.5
304,116,23347,2,0,P|275:111|244:124,1,60.3749981575013,2|0,2:0|2:0,1:0:0:0:
331,302,23696,6,0,P|361:285|381:257,1,57.5
187,193,23871,2,0,P|185:228|196:260,1,57.5
341,126,24045,2,0,P|311:109|270:110,1,57.5,2|0,2:0|2:0,0:0:0:0:
288,212,24219,6,2,L|260:280,2,63.2500019302369,2|2|2,2:1|2:1|2:1,2:1:0:0:
322,338,24394,6,0,P|361:324|390:295,1,57.5
174,180,24569,2,0,P|164:219|171:260,1,57.5
370,131,24743,2,0,P|338:105|312:100,1,56.9249998262787,2|0,2:0|2:0,1:0:0:0:
288,212,25091,5,0,0:0:0:0:
196,296,25397,6,0,L|120:308,8,63.2500019302369,0|0|0|0|0|0|0|0|0,2:0|2:0|2:0|2:0|2:0|2:0|2:0|2:0|2:0,2:0:0:0:
288,352,25789,6,0,P|304:288|296:260,1,57.5
412,316,25964,2,0,P|393:252|372:232,1,57.5
484,204,26138,2,0,P|444:176|424:172,1,56.9249998262787,2|0,2:0|2:0,1:0:0:0:
284,335,26487,6,0,P|299:278|291:253,1,57.5
396,303,26662,2,0,P|379:246|361:228,1,57.5
460,202,26836,2,0,P|412:168|386:166,1,57.5,2|0,2:0|0:0,0:0:0:0:
456,88,27010,6,2,P|396:82|373:93,2,57.5,2|2|2,2:1|2:1|2:1,2:1:0:0:
284,335,27184,6,0,P|299:278|291:253,1,57.5
396,303,27359,2,0,P|379:246|361:228,1,57.5
460,202,27533,2,0,P|412:168|386:166,1,57.5,2|0,2:0|0:0,0:0:0:0:
308,184,27882,5,0,0:0:0:0:
421,275,28231,6,0,P|420:304|428:332,1,57.5,2|0,2:0|0:0,0:0:0:0:
301,240,28405,2,0,P|300:211|308:184,1,57.5
509,249,28580,6,0,L|208:268,1,301.875002878904,12|0,3:0|2:0,0:0:0:0:
68,344,28929,6,0,P|84:276|72:252,1,57.5,2|0,2:0|0:0,2:0:0:0:
188,184,29103,2,0,P|146:128|120:121,1,57.5
148,384,29277,6,0,L|120:8,1,345,12|0,3:0|2:0,0:0:0:0:
136,40,29626,2,0,L|144:144,1,86.25,2|0,2:0|2:0,2:0:0:0:
152,248,29975,5,0,0:0:0:0:
260,232,30149,1,0,0:0:0:0:
364,216,30324,2,0,P|320:140|220:128,1,172.5,0|0,0:0|2:0,0:0:0:0:
242,122,30673,5,0,0:0:0:0:
104,192,31022,5,2,2:0:0:0:
144,112,31196,2,0,P|80:108|60:120,1,57.5,2|0,0:0|0:0,0:0:0:0:
168,256,31371,6,0,P|193:197|189:174,1,57.5
18,205,31545,2,0,P|26:233|44:256,1,57.5
104,192,31719,6,0,L|432:180,1,301.875002878904,0|0,0:0|2:0,0:0:0:0:
416,180,32068,6,0,P|344:196|324:192,1,57.5
248,104,32243,2,0,P|320:120|340:116,1,57.5
308,384,32417,6,2,L|332:0,1,345,0|0,0:0|2:0,0:0:0:0:
329,39,32766,6,0,B|261:79|261:79|297:155,1,143.75,0|0,0:0|2:0,0:0:0:0:
440,196,32940,2,0,B|508:156|508:156|472:80,1,143.75,0|0,1:0|2:0,0:0:0:0:
336,208,33115,6,0,B|220:260|232:120|88:208,1,215.625,0|0,0:0|2:0,0:0:0:0:
64,248,33464,1,2,0:0:0:0:
48,88,33987,5,0,0:0:0:0:
148,192,34161,2,0,L|140:116,1,43.1250016450883,0|0,0:0|2:0,0:0:0:0:
228,76,34336,5,0,0:0:0:0:
308,136,34423,1,0,0:0:0:0:
392,92,34510,2,0,L|381:21,1,43.1250016450883,0|0,0:0|2:0,0:0:0:0:
488,220,34859,6,0,P|436:224|392:192,1,86.2500032901765,0|0,0:0|0:0,0:0:0:0:
328,144,35121,1,0,0:0:0:0:
436,292,35208,6,0,P|388:269|366:219,1,86.2500032901765,0|0,0:0|0:0,0:0:0:0:
329,153,35470,1,0,0:0:0:0:
360,328,35557,6,0,P|330:284|336:230,1,86.2500032901765
330,161,35819,1,0,0:0:0:0:
240,204,35905,6,0,B|140:248|140:144|16:208,1,215.625,0|0,0:0|2:0,2:0:0:0:
88,288,36254,5,2,0:0:0:0:
164,336,36603,6,0,P|168:248|160:232,1,57.5,2|0,0:0|0:0,0:0:0:0:
0,288,36777,2,0,P|40:366|55:376,1,57.5
136,200,36952,6,0,B|188:180|224:196|244:220|244:220|256:200|256:200|280:228|332:248|384:196,1,258.75000987053,0|0,0:0|2:0,0:0:0:0:
376,200,37301,6,0,P|388:140|384:116,1,57.5,2|0,0:0|2:0,0:0:0:0:
252,64,37475,2,0,P|244:91|244:120,1,57.5,0|0,0:0|2:0,0:0:0:0:
136,184,37650,6,0,L|147:285,1,100.625,0|0,0:0|2:0,1:0:0:0:
128,180,37998,2,0,L|139:281,1,100.625,0|0,0:0|2:0,1:0:0:0:
152,380,38347,1,0,0:0:0:0:
242,309,38522,1,0,0:0:0:0:
333,239,38696,5,0,0:0:0:0:
419,232,38783,1,0,0:0:0:0:
504,224,38870,1,0,2:0:0:0:
428,344,39045,5,2,0:0:0:0:
412,174,39394,6,0,L|424:274,1,57.5
428,344,39568,1,2,0:0:0:0:
304,192,39743,6,2,B|288:180|260:184|260:184|256:176|256:176|248:184|248:184|228:180|188:200|184:220,1,86.2500032901765,2|0,0:0|2:0,0:0:0:0:
144,320,39917,2,2,B|147:314|167:314|183:314|199:314|199:314|199:306|203:306|215:310|215:310|223:306,1,86.2500032901765,2|0,0:0|2:0,0:0:0:0:
116,184,40091,2,2,B|93:192|96:190|76:188|60:192|50:198|44:211|37:224|39:227|24:224|24:224|40:236|38:242|49:277,1,129.375004935265,2|0,0:0|2:0,0:0:0:0:
312,72,40440,6,0,L|200:80,1,100.625
312,80,40789,2,0,L|200:88,1,100.625
112,100,41138,1,0,0:0:0:0:
202,171,41313,1,0,0:0:0:0:
293,241,41487,5,0,0:0:0:0:
379,234,41574,1,0,0:0:0:0:
468,232,41661,1,0,2:0:0:0:
468,232,41836,6,0,P|424:256|352:244,1,86.2500032901765,2|2,0:0|0:0,0:0:0:0:
288,208,42097,1,0,0:0:0:0:
460,128,42184,6,0,P|441:174|378:211,1,86.2500032901765,2|2,0:0|0:0,0:0:0:0:
272,216,42446,1,0,0:0:0:0:
392,60,42533,6,0,P|407:107|383:176,1,86.2500032901765,2|2,0:0|0:0,0:0:0:0:
260,224,42795,1,0,0:0:0:0:
300,56,42882,6,0,P|342:82|368:150,1,86.2500032901765,2|2,0:0|0:0,0:0:0:0:
248,232,43144,1,0,0:0:0:0:
368,344,43231,6,0,L|476:328,1,57.5,2|0,0:0|0:0,0:0:0:0:
512,200,43405,2,0,L|404:184,1,57.5,2|0,0:0|0:0,0:0:0:0:
216,364,43580,6,0,L|324:348,1,57.5,2|0,0:0|0:0,0:0:0:0:
364,176,43754,2,0,L|256:160,1,57.5,2|0,0:0|0:0,0:0:0:0:
56,120,43929,5,4,0:0:0:0:
104,312,44103,1,4,0:0:0:0:
296,268,44277,1,4,0:0:0:0:
248,76,44451,1,4,0:0:0:0:
176,192,44626,5,2,0:0:0:0:
176,192,44932,6,0,L|200:284,7,63.2500019302369,0|0|0|0|0|0|0|0,2:0|2:0|2:0|2:0|2:0|2:0|2:0|2:0,2:0:0:0:
200,272,45324,6,0,P|260:276|288:256,1,57.5,0|0,0:0|2:0,0:0:0:0:
312,352,45498,2,0,P|345:302|342:267,1,57.5,0|0,0:0|2:0,0:0:0:0:
436,336,45673,2,0,P|440:276|436:264,1,56.9249998262787,0|0,0:0|2:0,0:0:0:0:
194,280,46022,6,0,P|260:284|291:262,1,57.5,0|0,0:0|2:0,0:0:0:0:
317,368,46196,2,0,P|353:313|350:274,1,57.5,0|0,0:0|2:0,0:0:0:0:
454,350,46371,2,0,P|458:284|454:271,1,57.5,0|0,0:0|2:0,0:0:0:0:
400,208,46545,6,2,L|311:184,2,63.2500019302369,2|2|2,2:1|2:1|2:1,2:1:0:0:
484,136,46719,6,0,L|464:40,1,57.5,0|0,0:0|2:0,0:0:0:0:
376,16,46894,2,0,L|364:72,1,57.5,0|0,0:0|2:0,0:0:0:0:
268,128,47068,2,0,L|256:64,1,56.9249998262787,0|0,0:0|2:0,0:0:0:0:
196,184,47417,6,0,P|300:212|364:140,1,172.5,0|0,0:0|2:0,0:0:0:0:
346,178,47766,6,0,P|340:248|356:280,1,57.5,2|0,0:0|0:0,0:0:0:0:
468,320,47940,2,0,P|474:250|458:218,1,57.5
316,336,48115,6,0,L|96:312,1,215.625,0|0,0:0|2:0,0:0:0:0:
101,312,48464,6,0,P|87:367|97:400,1,57.5,2|0,0:0|0:0,0:0:0:0:
248,224,48638,2,0,P|232:169|207:145,1,57.5
416,344,48812,6,0,L|440:12,1,258.75000987053,4|0,3:0|2:0,0:0:0:0:
480,7,49161,6,0,P|505:139|372:148,1,301.875002878904,2|0,0:0|2:0,0:0:0:0:
312,76,49510,5,0,0:0:0:0:
204,92,49684,1,0,0:0:0:0:
100,108,49859,2,0,P|144:184|252:192,1,172.5,2|0,0:0|2:0,0:0:0:0:
221,201,50208,5,4,0:0:0:0:
372,136,50557,5,2,0:0:0:0:
432,52,50731,6,0,P|364:32|312:56,1,103.499996841431,0|0,0:0|2:0,0:0:0:0:
404,240,50905,6,0,P|455:198|471:132,1,115
272,120,51080,6,0,P|276:187|317:241,1,115
372,136,51254,6,0,L|64:184,1,258.75000987053,2|0,0:0|2:0,0:0:0:0:
236,256,51603,6,0,P|219:232|192:216,1,50.3125004798174,0|0,0:0|2:0,0:0:0:0:
56,48,51777,6,0,P|100:104|100:116,1,50.3125004798174,0|0,0:0|2:0,0:0:0:0:
0,280,51952,6,0,P|15:256|44:240,1,50.3125004798174,2|0,0:0|2:0,0:0:0:0:
116,176,52126,6,2,L|24:196,2,63.2500019302369,2|2|2,2:1|2:1|2:1,2:1:0:0:
180,92,52301,6,0,L|256:108,1,57.5
344,260,52475,2,0,L|268:244,1,57.5
292,32,52650,6,0,L|260:380,1,301.875002878904,4|0,3:0|2:0,0:0:0:0:
264,332,52998,2,0,L|284:136,1,115,8|0,3:0|2:0,0:0:0:0:
292,32,53347,1,0,0:0:0:0:
44,48,53522,5,0,0:0:0:0:
112,108,53696,2,0,L|188:100,1,43.1250016450883,0|0,0:0|2:0,0:0:0:0:
236,52,53871,5,0,0:0:0:0:
316,96,53958,1,0,0:0:0:0:
400,64,54045,2,0,L|412:136,1,43.1250016450883,0|0,0:0|2:0,0:0:0:0:
504,216,54394,6,0,L|368:192,1,115
332,264,54655,1,0,0:0:0:0:
332,264,54743,6,0,L|216:248,1,86.2500032901765
180,312,55004,1,0,0:0:0:0:
180,312,55091,6,0,L|124:304,1,57.5
40,300,55352,1,0,0:0:0:0:
40,300,55440,6,0,L|48:352,1,43.125,0|0,0:0|2:0,0:0:0:0:
132,336,55789,6,0,L|92:64,1,201.25000191927,2|0,0:0|2:0,0:0:0:0:
88,36,56138,5,2,0:0:0:0:
156,116,56312,6,0,P|228:120|248:108,1,57.5,2|0,0:0|2:0,0:0:0:0:
284,216,56487,2,0,P|333:163|337:140,1,57.5,0|0,0:0|2:0,0:0:0:0:
444,244,56661,2,0,P|460:173|452:152,1,57.5,0|0,0:0|2:0,0:0:0:0:
360,48,56836,6,0,P|316:116|428:52,1,345,0|0,0:0|2:0,0:0:0:0:
459,89,57184,6,0,P|420:140|420:164,1,57.5,0|0,0:0|2:0,0:0:0:0:
312,104,57359,2,0,P|328:168|343:182,1,57.5,0|0,0:0|2:0,0:0:0:0:
216,192,57533,2,0,P|264:240|282:243,1,57.5,0|0,0:0|2:0,0:0:0:0:
180,316,57708,6,2,P|245:333|268:328,2,63.2500019302369,2|2|2,2:1|2:1|2:1,2:1:0:0:
76,352,57882,6,0,L|64:240,1,57.5,0|0,0:0|2:0,0:0:0:0:
8,216,58057,2,0,L|20:104,1,57.5,0|0,0:0|2:0,0:0:0:0:
96,88,58231,6,0,L|416:108,1,301.875002878904
428,185,58580,6,0,P|451:43|314:87,1,345,4|0,0:0|2:0,0:0:0:0:
314,87,58929,6,0,P|232:76|212:88,1,57.5,0|0,0:0|2:0,0:0:0:0:
192,120,59103,1,2,0:0:0:0:
314,87,59277,6,0,P|232:76|212:88,1,57.5,0|0,0:0|2:0,0:0:0:0:
192,120,59452,2,0,P|115:88|104:68,1,57.5,0|0,0:0|2:0,0:0:0:0:
400,84,59626,6,0,L|-4:108,1,345,0|0,0:0|2:0,0:0:0:0:
55,104,59975,6,0,P|72:172|60:212,1,57.5
204,272,60150,2,0,P|193:245|191:216,1,57.5
276,80,60324,2,0,P|292:147|280:187,1,57.5
408,228,60498,6,2,P|418:201|416:152,2,63.2500019302369,2|2|2,2:1|2:1|2:1,2:1:0:0:
324,292,60673,6,0,L|344:372,1,57.5
208,260,60847,2,0,L|228:180,1,57.5
84,288,61022,2,0,L|100:360,1,56.9249998262787,0|0,0:0|2:0,0:0:0:0:
96,343,61371,5,2,0:0:0:0:
176,208,61719,1,0,0:0:0:0:
176,208,61894,1,2,0:0:0:0:
176,208,62068,6,0,P|172:280|184:300,1,57.5,0|0,0:0|2:0,0:0:0:0:
264,144,62243,2,0,P|268:72|256:51,1,57.5,0|0,0:0|2:0,0:0:0:0:
40,176,62417,6,0,L|420:160,1,345,0|0,0:0|2:0,0:0:0:0:
384,161,62766,6,0,P|384:244|368:264,1,57.5
284,244,62940,2,0,P|268:325|249:342,1,57.5
176,280,63115,2,0,P|122:342|97:347,1,57.5,0|0,0:0|2:0,0:0:0:0:
72,264,63289,6,2,P|8:316|-16:320,2,63.2500019302369,2|2|2,2:1|2:1|2:1,2:1:0:0:
148,172,63464,6,0,L|136:72,1,57.5
276,36,63638,2,0,L|264:136,1,57.5
384,176,63812,2,0,L|396:112,1,56.9249998262787,0|0,0:0|2:0,0:0:0:0:
463,212,64161,6,0,P|319:236|352:93,1,345,4|0,0:0|2:0,0:0:0:0:
352,93,64510,6,0,P|284:120|224:96,1,115,0|2,0:0|0:0,0:0:0:0:
156,84,64859,6,0,L|148:180,1,57.5
236,256,65033,2,0,L|240:198,1,57.5,0|0,0:0|2:0,0:0:0:0:
48,180,65208,6,0,L|392:156,1,345,0|0,0:0|2:0,0:0:0:0:
492,108,65557,6,0,L|479:7,1,57.5
392,155,65731,2,0,L|380:256,1,57.5
248,56,65905,2,2,B|224:108|244:144|268:164|268:164|248:176|248:176|276:200|312:240|264:308,1,258.75000987053,0|0,0:0|2:0,0:0:0:0:
240,352,66254,6,0,P|296:360|328:328,1,57.5,0|0,0:0|2:0,0:0:0:0:
380,312,66429,2,0,P|408:309|434:320,1,57.5,0|0,0:0|2:0,0:0:0:0:
504,372,66603,6,0,B|484:288|484:288|492:296|492:296|472:200,1,172.5
256,192,66952,12,0,68173,0:0:0:0:
48,48,68347,5,0,0:0:0:0:
143,54,68696,5,0,0:0:0:0:
239,60,69045,5,0,0:0:0:0:
334,66,69394,5,0,0:0:0:0:
428,76,69743,6,0,L|412:208,1,115
452,300,70440,2,0,P|416:288|384:288,1,57.5
320,336,70789,2,0,P|282:334|251:324,1,57.5
200,252,71138,5,0,0:0:0:0:
200,252,71487,1,0,0:0:0:0:
200,252,71836,6,0,L|128:264,1,57.5
60,144,72184,2,0,L|132:156,1,57.5
188,56,72533,5,4,0:0:0:0:
272,124,72882,2,0,L|264:252,1,115
392,180,73580,2,0,L|384:52,1,115
384,65,74452,5,0,0:0:0:0:
320,144,74626,2,0,L|248:140,1,57.5
136,128,74975,1,0,0:0:0:0:
136,128,75062,1,0,0:0:0:0:
208,64,75237,1,0,0:0:0:0:
208,64,75324,6,0,P|232:104|208:188,1,115
148,228,76022,2,0,L|80:220,1,57.5
244,304,76371,2,0,L|312:296,1,57.5
404,348,76719,5,0,0:0:0:0:
460,264,77068,1,0,0:0:0:0:
460,264,77243,2,0,L|444:128,1,115
328,120,77766,2,0,P|324:160|336:192,1,57.5
446,149,78115,5,4,0:0:0:0:
445,149,79510,6,0,B|471:204|471:204|439:264,1,115,0|0,0:0|2:0,2:0:0:0:
276,256,79684,2,0,B|250:201|250:201|282:141,1,115,0|0,0:0|2:0,2:0:0:0:
445,149,79859,6,0,P|445:253|405:273,1,115,0|0,0:0|2:0,2:0:0:0:
276,256,80033,2,0,P|263:169|297:142,1,115,0|0,0:0|2:0,2:0:0:0:
364,204,80251,5,0,0:0:0:0:
352,352,80557,6,0,L|356:292,1,57.5,2|0,0:0|2:0,0:0:0:0:
376,56,80731,2,0,L|372:116,1,57.5,2|0,0:0|2:0,0:0:0:0:
364,204,80905,6,0,B|292:168|224:152|160:160|104:208|104:208|120:296|120:296|160:260|204:236|248:240|280:244|288:280|288:332|360:332|428:332|480:284|480:212|464:124,1,805,4|0,0:0|2:0,0:0:0:0:
469,199,81603,5,0,0:0:0:0:
472,340,81777,1,0,0:0:0:0:
320,328,81952,1,0,0:0:0:0:
329,187,82126,1,0,0:0:0:0:
320,328,82301,6,0,L|192:308,1,86.2500032901765
144,188,82650,2,0,L|272:168,1,86.2500032901765
336,100,82998,5,0,0:0:0:0:
456,80,83173,1,0,0:0:0:0:
452,192,83347,1,0,0:0:0:0:
452,192,83696,6,0,B|400:216|360:256|360:360|360:360|360:256|384:116|288:36|132:36|72:140|44:252|148:364|240:312,1,805,4|0,0:0|0:0,0:0:0:0:
142,297,84394,6,0,P|164:243|228:223,1,115
300,304,84743,2,0,P|277:357|213:377,1,115
142,297,85091,5,0,0:0:0:0:
122,193,85266,1,0,0:0:0:0:
226,173,85440,1,0,0:0:0:0:
246,276,85615,1,0,0:0:0:0:
38,157,85789,6,0,P|110:105|182:125,1,115
226,173,86138,1,0,0:0:0:0:
226,173,86487,6,0,B|298:329|298:329|402:129,1,345,4|0,0:0|2:0,0:0:0:0:
226,173,86836,6,0,P|302:297|376:172,1,345,4|0,0:0|0:0,0:0:0:0:
377,175,87184,6,0,P|371:260|342:285,1,115
246,278,87533,2,0,P|219:192|238:154,1,115
254,89,87882,5,0,0:0:0:0:
225,172,88057,1,0,0:0:0:0:
320,200,88231,1,0,0:0:0:0:
356,112,88406,1,0,0:0:0:0:
225,172,88580,6,0,L|100:129,1,115
116,134,88929,1,0,0:0:0:0:
120,44,89277,6,0,B|32:36|-84:164|12:312|192:332|272:260|248:120|208:100|248:36|312:28|388:36|476:72|456:208|388:264|296:224,1,805,4|0,3:0|2:0,0:0:0:0:
344,236,89975,5,0,0:0:0:0:
260,340,90150,1,4,3:0:0:0:
260,340,90237,1,4,3:0:0:0:
260,340,90324,1,4,3:0:0:0:
196,212,90498,1,4,3:0:0:0:
96,336,90673,5,0,0:0:0:0:
96,336,90847,1,0,0:0:0:0:
56,240,91022,2,0,L|168:228,1,86.2500032901765
280,328,91371,5,0,0:0:0:0:
280,328,91545,1,0,0:0:0:0:
320,148,91720,2,0,L|208:136,1,86.2500032901765
120,268,92068,6,0,B|64:200|68:88|112:40|112:40|172:48|224:104|248:188|236:268|224:296|200:332|200:332|224:296|256:248|320:216|392:232|456:268|464:360,1,905.625034546853,4|0,0:0|2:0,0:0:0:0:
456,328,92766,5,0,0:0:0:0:
432,200,92940,1,0,0:0:0:0:
312,216,93115,1,0,0:0:0:0:
336,344,93289,1,0,0:0:0:0:
236,168,93464,6,0,P|352:140|388:184,1,115
384,264,93812,2,0,P|268:292|232:248,1,115
283,299,94161,1,0,0:0:0:0:
216,372,94336,1,0,0:0:0:0:
156,292,94510,1,2,2:0:0:0:
136,296,94684,1,0,2:0:0:0:
112,304,94859,6,0,B|64:244|40:152|96:92|116:84|116:84|140:120|176:160|240:188|316:240|436:192|420:116|364:20|256:-4|184:56|176:160|176:232|280:312|368:224,1,905.625034546853,4|0,0:0|2:0,0:0:0:0:
348,248,95557,6,0,L|364:348,1,86.2500032901765
488,208,95905,2,0,L|472:308,1,86.2500032901765
340,148,96254,5,0,0:0:0:0:
340,148,96429,1,0,0:0:0:0:
484,104,96603,1,0,0:0:0:0:
484,104,96777,1,0,0:0:0:0:
288,68,96952,6,0,P|248:144|256:172,1,86.2500032901765
296,208,97301,1,0,0:0:0:0:
320,200,97475,1,0,0:0:0:0:
352,192,97650,6,0,B|360:288|416:368|416:368|472:304|464:176|424:120,1,388.125014805794,4|0,0:0|2:0,0:0:0:0:
352,192,97998,6,0,P|441:318|442:175,1,388.125014805794,4|0,0:0|0:0,0:0:0:0:
448,178,98347,5,2,0:0:0:0:
408,264,98522,2,0,L|424:360,1,57.5,0|0,0:0|0:0,0:0:0:0:
356,176,98696,5,2,0:0:0:0:
316,262,98871,2,0,L|332:358,1,57.5
260,168,99045,5,2,0:0:0:0:
220,254,99220,2,0,L|236:350,1,57.5
168,164,99394,5,2,0:0:0:0:
128,250,99569,2,0,L|144:346,1,57.5
72,160,99743,5,2,0:0:0:0:
32,246,99918,2,0,L|48:342,1,57.5
72,160,100091,5,2,0:0:0:0:
128,250,100266,1,0,0:0:0:0:
132,272,100353,1,0,0:0:0:0:
136,288,100440,6,0,B|136:328|220:348|220:348|264:316|336:172|264:104|216:104|216:104|152:172|196:248|280:296|364:288|404:264|416:224|428:172|432:96|376:40|340:36|272:56,1,905.625034546853,4|0,3:0|2:0,0:0:0:0:
348,56,101138,5,2,0:0:0:0:
424,132,101312,2,0,L|504:120,1,57.5
320,152,101487,5,2,0:0:0:0:
396,228,101661,2,0,L|476:216,1,57.5
336,320,101836,6,0,L|256:308,1,57.5,2|8,0:0|0:0,0:0:0:0:
180,352,102184,2,0,L|192:272,1,57.5
144,196,102446,1,0,0:0:0:0:
144,196,102533,2,0,L|224:208,1,57.5,8|0,0:0|0:0,0:0:0:0:
300,168,102882,2,0,L|288:248,1,57.5,8|0,0:0|0:0,0:0:0:0:
408,160,103231,6,0,B|396:92|356:44|272:44|240:72|228:88|208:112|208:112|204:108|204:108|204:112|204:112|200:108|200:108|196:112|196:112|192:108|192:108|188:112|188:112|184:108|184:108|180:112|180:112|176:108|176:108|172:112|172:112|168:108|168:108|164:112|164:112|160:108|160:108|156:112|156:112|152:108|152:108|148:112|148:112|144:108|144:108|140:112|140:112|136:108|136:108|132:112|132:112|128:108|128:108|124:112|124:112|120:108|120:108|116:112|116:112|112:108|112:108|108:112|108:112|104:108|104:108|72:108|-20:224|76:320,1,603.750023031236,0|0,0:0|2:0,0:0:0:0:
48,280,103929,6,0,P|120:312|156:296,1,86.2500032901765,4|0,0:0|0:0,0:0:0:0:
204,232,104277,1,0,0:0:0:0:
232,244,104452,1,0,0:0:0:0:
264,256,104626,6,0,L|236:368,1,86.2500032901765
408,272,104975,2,0,L|380:160,1,86.2500032901765
352,80,105324,5,8,0:0:0:0:
352,80,105498,1,0,0:0:0:0:
288,164,105673,1,0,0:0:0:0:
288,164,105847,1,0,0:0:0:0:
212,240,106022,6,0,B|176:204|176:140|184:92|244:64|244:64|236:72|236:72|228:64|228:64|220:72|220:72|212:64|212:64|204:72|204:72|196:64|196:64|188:72|188:72|180:64|180:64|172:72|172:72|164:64|164:64|156:72|156:72|148:64|148:64|140:72|140:72|132:64|132:64|124:72|124:72|116:64|116:64|108:72|108:72|100:64|100:64|92:72|92:72|84:64|84:64|20:84|-4:144|8:224|80:224,1,603.750023031236,0|0,0:0|2:0,0:0:0:0:
40,216,106719,6,0,P|100:236|152:208,1,86.2500032901765
224,168,107068,2,0,L|232:268,1,86.2500032901765
240,344,107417,5,0,0:0:0:0:
276,332,107591,1,0,0:0:0:0:
356,224,107766,1,0,0:0:0:0:
320,212,107940,1,8,0:0:0:0:
260,104,108115,6,0,L|380:84,1,86.2500032901765
356,88,108464,1,8,0:0:0:0:
472,200,108812,6,0,B|424:172|380:208|380:208|340:172|280:152|220:196|224:252,1,258.75000987053,4|0,0:0|2:0,0:0:0:0:
196,284,109161,2,0,B|20:272|20:272|176:244,1,258.75000987053,4|0,0:0|0:0,0:0:0:0:
152,184,109510,5,8,0:0:0:0:
144,156,109684,1,8,0:0:0:0:
244,72,109859,1,0,0:0:0:0:
236,100,110033,1,0,0:0:0:0:
328,164,110208,6,0,L|444:156,1,86.2500032901765
512,272,110557,2,0,L|396:264,1,86.2500032901765,0|8,0:0|0:0,0:0:0:0:
360,348,110905,5,0,0:0:0:0:
328,344,111080,1,0,0:0:0:0:
304,340,111254,1,8,0:0:0:0:
208,316,111603,6,0,B|168:280|152:240|164:204|176:168|176:168|176:168|172:176|172:176|168:168|168:168|164:176|164:176|160:168|160:168|156:176|156:176|152:168|152:168|148:176|148:176|144:168|144:168|140:176|140:176|136:168|136:168|128:220|100:256|24:288|-52:240|-68:204|-64:104|-12:48|52:48,1,603.750023031236,0|0,0:0|2:0,0:0:0:0:
4,68,112301,5,0,0:0:0:0:
88,212,112475,1,4,3:0:0:0:
88,212,112562,1,4,3:0:0:0:
88,212,112650,1,4,3:0:0:0:
192,80,112824,1,4,3:0:0:0:
236,236,112998,5,0,0:0:0:0:
236,236,113173,1,8,0:0:0:0:
284,320,113347,2,0,L|392:316,1,86.2500032901765
488,120,113696,5,8,0:0:0:0:
488,120,113871,1,0,0:0:0:0:
440,204,114045,2,0,L|332:200,1,86.2500032901765,8|0,0:0|0:0,0:0:0:0:
464,336,114394,6,0,B|420:256|312:256|284:324|280:328|280:328|276:324|276:324|272:328|272:328|268:324|268:324|264:328|264:328|260:324|260:324|256:328|256:328|252:324|252:324|248:328|248:328|244:324|244:324|240:328|240:328|236:328|236:324|236:324|232:328|232:328|228:324|228:324|224:328|224:328|220:324|220:324|216:328|216:328|212:324|212:324|208:328|208:328|204:324|204:324|200:328|200:328|196:324|196:324|192:328|192:328|188:324|188:324|184:328|184:328|180:324|180:324|176:328|176:328|172:324|172:324|168:328|168:328|164:324|164:324|160:328|160:328|156:324|156:324|152:328|152:328|148:324|148:324|144:328|144:328|140:324|140:324|136:328|136:328|132:324|132:324|128:328|128:328|124:324|124:324|120:328|120:328|68:244|68:244|264:244,1,690.000026321412,0|4,0:0|0:0,0:0:0:0:
288,184,115440,1,0,0:0:0:0:
204,152,115702,1,0,0:0:0:0:
204,152,115789,5,0,0:0:0:0:
132,208,116138,1,0,0:0:0:0:
156,296,116400,1,0,0:0:0:0:
156,296,116487,5,0,0:0:0:0:
236,336,116661,1,0,0:0:0:0:
320,300,116836,1,0,0:0:0:0:
320,300,117184,6,0,B|348:240|344:208|336:184|336:184|356:200|401:218|437:207|476:168|484:152|488:59|434:-7|312:20|312:104,1,506.000015441895
336,186,118231,1,0,0:0:0:0:
256,260,118493,1,0,0:0:0:0:
256,260,118580,5,0,0:0:0:0:
152,228,118929,1,0,0:0:0:0:
120,128,119277,1,0,0:0:0:0:
184,40,119626,1,0,0:0:0:0:
224,148,119888,1,0,0:0:0:0:
224,148,119975,6,0,L|332:140,1,86.25,4|0,0:0|0:0,0:0:0:0:
224,164,120324,6,0,L|336:156,1,92,4|0,0:0|0:0,0:0:0:0:
412,144,121022,1,0,0:0:0:0:
376,240,121283,1,0,0:0:0:0:
376,240,121371,5,0,0:0:0:0:
340,328,121719,1,0,0:0:0:0:
276,248,122068,1,0,0:0:0:0:
220,168,122417,1,0,0:0:0:0:
168,248,122679,1,0,0:0:0:0:
219,307,122766,6,0,P|213:186|154:325,1,413.999987365723,4|0,0:0|0:0,0:0:0:0:
244,260,123812,1,0,0:0:0:0:
332,332,124074,1,0,0:0:0:0:
332,332,124161,5,0,0:0:0:0:
432,280,124510,1,0,0:0:0:0:
412,176,124684,5,0,0:0:0:0:
412,176,124772,1,0,0:0:0:0:
412,176,124859,6,0,L|279:158,1,100.625000959635,8|0,0:0|0:0,0:0:0:0:
164,256,125033,2,0,L|293:240,1,100.625000959635,8|0,0:0|0:0,0:0:0:0:
408,340,125208,2,0,L|285:324,1,100.625000959635,8|0,0:0|0:0,0:0:0:0:
