osu file format v14

[General]
AudioFilename: caralho.mp3
AudioLeadIn: 0
PreviewTime: 13458
Countdown: 0
SampleSet: Soft
StackLeniency: 0.7
Mode: 0
LetterboxInBreaks: 0
EpilepsyWarning: 1
WidescreenStoryboard: 1

[Editor]
DistanceSpacing: 0.6
BeatDivisor: 6
GridSize: 32
TimelineZoom: 2.3

[Metadata]
Title:Feliz Pascoa pra todos voces apesar de ninguem ter me mandado chocolates
TitleUnicode:Feliz P�scoa pra todos voc�s apesar de ningu�m ter me mandado chocolates
Artist:Maffalda
ArtistUnicode:Maffalda
Creator:nasobol90
Version:LAPIN MONSTER
Source:
Tags:
BeatmapID:1435015
BeatmapSetID:678657

[Difficulty]
HPDrainRate:6
CircleSize:4
OverallDifficulty:9
ApproachRate:9.7
SliderMultiplier:3.59999990463257
SliderTickRate:1

[Events]
//Background and Video events
0,0,"maxresdefault.jpg",0,0
//Break Periods
//Storyboard Layer 0 (Background)
//Storyboard Layer 1 (Fail)
//Storyboard Layer 2 (Pass)
//Storyboard Layer 3 (Foreground)
//Storyboard Sound Samples

[TimingPoints]
15,857.142857142857,3,2,1,80,1,0
15,-200,3,2,1,80,0,0
3464,857.142857142857,3,2,1,80,1,0
3464,-200,3,2,1,80,0,0
6913,857.142857142857,3,2,1,80,1,0
6913,-200,3,2,1,80,0,0
10893,857.142857142857,3,2,1,80,1,0
12035,857.142857142857,3,2,1,80,1,0
13501,857.142857142857,3,2,1,100,1,0
14644,857.142857142857,3,2,1,80,1,0
14644,-66.6666666666667,3,2,1,100,0,0
17572,-66.6666666666667,3,2,1,5,0,0
17644,-66.6666666666667,3,2,1,100,0,0
17715,-66.6666666666667,3,2,1,5,0,0
17786,-66.6666666666667,3,2,1,100,0,0
17858,-66.6666666666667,3,2,1,5,0,0
17929,-66.6666666666667,3,2,1,100,0,0
18501,-50,3,2,1,100,0,0
18929,-66.6666666666667,3,2,1,100,0,0
21072,-200,3,2,1,100,0,0
21501,-66.6666666666667,3,2,66,100,0,0
21572,-66.6666666666667,3,2,1,100,0,0
22072,-50,3,2,1,80,0,0
24358,-66.6666666666667,3,2,1,80,0,0
24929,-66.6666666666667,3,2,1,100,0,1
25358,-50,3,2,1,80,0,0
25929,-50,3,2,1,100,0,1
26644,-33.3333333333333,3,2,1,80,0,0
27501,-100,3,2,1,100,0,1
28358,-66.6666666666667,3,2,1,100,0,1
29572,-66.6666666666667,3,2,1,5,0,1
29644,-66.6666666666667,3,2,1,100,0,1
29715,-66.6666666666667,3,2,1,5,0,1
29786,-66.6666666666667,3,2,1,100,0,1
29858,-66.6666666666667,3,2,1,5,0,1
29929,-66.6666666666667,3,2,1,100,0,1
32643,-33.3333333333333,3,2,1,80,0,0
33501,857.142857142857,3,2,1,80,1,0
33501,-100,3,2,1,100,0,0
46429,-100,3,2,1,5,0,0

[Colours]
Combo1 : 255,40,40
Combo2 : 0,128,192
Combo3 : 248,211,7

[HitObjects]
410,277,15,6,0,P|350:313|284:291,1,119.999996821086
132,244,872,2,0,P|125:307|79:359,1,119.999996821086
224,128,1729,2,0,P|277:146|338:120,1,119.999996821086
512,64,2586,2,0,P|495:144|500:186,1,119.999996821086
384,64,3443,5,0,0:0:0:0:
320,192,3749,1,0,0:0:0:0:
256,64,4035,1,0,0:0:0:0:
128,320,4321,5,0,0:0:0:0:
192,191,4627,1,0,0:0:0:0:
256,319,4913,1,0,0:0:0:0:
64,128,5178,5,0,0:0:0:0:
256,128,5464,1,0,0:0:0:0:
256,320,5749,1,0,0:0:0:0:
64,320,6035,6,0,B|37:309|30:275|30:275|81:258|131:259,1,149.999996026357
160,258,6913,5,0,0:0:0:0:
283,175,7198,1,0,0:0:0:0:
127,127,7484,1,0,0:0:0:0:
301,264,7770,2,0,P|351:241|373:190,1,89.9999976158142
365,177,8341,1,0,0:0:0:0:
406,342,8627,5,0,0:0:0:0:
243,182,8913,1,0,0:0:0:0:
455,246,9198,1,0,0:0:0:0:
269,351,9484,2,0,P|228:295|226:260,1,89.9999976158142
231,243,10055,5,0,0:0:0:0:
448,128,10341,5,0,0:0:0:0:
192,96,10627,1,0,0:0:0:0:
352,288,10893,1,0,0:0:0:0:
64,255,11178,5,0,0:0:0:0:
352,288,11464,1,0,0:0:0:0:
128,64,11750,1,0,0:0:0:0:
429,229,12035,6,0,P|429:197|397:133,1,89.9999976158142
385,60,12320,2,0,P|385:92|417:156,1,89.9999976158142
511,197,12606,2,0,P|493:140|474:108,1,89.9999976158142
300,23,12892,1,0,0:0:0:0:
253,267,13501,6,0,L|145:267,1,89.9999976158142
76,269,13786,2,0,P|69:318|79:359,1,89.9999976158142
164,354,14072,2,0,L|274:354,1,89.9999976158142
336,353,14358,2,0,P|340:298|323:259,1,89.9999976158143
114,120,14644,6,0,P|133:182|229:247,1,180.000002098084
358,67,15072,1,0,0:0:0:0:
342,302,15215,1,0,0:0:0:0:
358,67,15358,1,0,0:0:0:0:
204,340,15501,6,0,P|97:305|41:224,1,180.000002098084
248,67,15929,1,0,0:0:0:0:
362,265,16072,1,0,0:0:0:0:
136,139,16215,1,0,0:0:0:0:
446,207,16358,6,0,P|459:279|390:354,1,180.000002098084
107,159,16786,1,0,0:0:0:0:
358,260,16929,1,0,0:0:0:0:
98,293,17072,1,0,0:0:0:0:
446,207,17215,6,0,P|482:162|499:102,1,90.0000010490418
260,28,17501,6,0,L|275:99,1,45.0000005245209
455,251,17644,2,0,L|439:180,1,45.0000005245209
186,95,17786,6,0,L|201:166,1,45.0000005245209
381,318,17929,2,0,L|365:247,1,45.0000005245209
151,18,18072,6,0,B|111:27|111:27|92:56|96:104|96:104|108:172,1,180.000002098084
428,55,18501,5,0,0:0:0:0:
186,102,18644,1,0,0:0:0:0:
455,190,18786,1,0,0:0:0:0:
157,271,18929,6,0,P|70:276|-3:209,1,180.000002098084
390,147,19358,1,0,0:0:0:0:
219,364,19501,1,0,0:0:0:0:
214,45,19644,5,0,0:0:0:0:
398,334,19786,2,0,P|449:372|498:387,1,90.0000010490418
473,381,20215,5,0,0:0:0:0:
474,66,20358,1,0,0:0:0:0:
296,384,20501,1,0,0:0:0:0:
263,23,20644,6,0,P|322:13|478:70,1,225.000002622605
444,133,21072,6,0,P|388:138|390:126,1,89.9999976158143
309,106,21572,6,0,P|314:170|446:248,1,225.000002622605
195,32,22072,6,0,P|162:88|162:137,1,59.9999984105428
166,326,22215,2,0,P|198:269|198:220,1,59.9999984105428
309,106,22358,6,0,P|244:111|203:140,1,59.9999984105428
52,252,22501,2,0,P|116:246|157:217,1,59.9999984105428
316,237,22644,6,0,P|272:189|225:174,1,59.9999984105428
44,120,22787,2,0,P|88:168|135:183,1,59.9999984105428
256,362,22929,6,0,P|310:327|334:283,1,59.9999984105428
182,56,23072,2,0,P|127:90|103:134,1,59.9999984105428
421,297,23215,2,0,L|385:200,1,59.9999984105428
337,20,23358,1,0,0:0:0:0:
337,20,23429,1,0,0:0:0:0:
337,20,23501,2,0,L|246:24,1,59.9999984105428
141,206,23644,6,0,L|211:203,1,59.9999984105428
412,119,23786,2,0,L|342:122,1,59.9999984105428
78,103,23929,6,0,L|148:100,1,59.9999984105428
470,212,24071,2,0,L|400:215,1,59.9999984105428
29,285,24215,6,0,L|110:285,1,59.9999984105428
512,52,24358,2,0,L|431:52,1,59.9999984105428
1,64,24501,6,0,P|-4:115|92:181,1,180.000002098084
309,312,24929,6,0,P|237:362|142:381,1,180.000002098084
483,157,25358,6,0,P|513:222|518:266,1,59.9999984105428
166,209,25501,2,0,P|135:143|131:99,1,59.9999984105428
439,292,25644,6,0,P|405:356|372:386,1,59.9999984105428
207,71,25787,2,0,P|242:7|274:-22,1,59.9999984105428
306,342,25929,6,0,P|234:354|190:346,1,59.9999984105428
342,22,26072,2,0,P|414:11|457:19,1,59.9999984105428
185,264,26215,6,0,P|133:214|113:174,1,59.9999984105428
462,100,26358,2,0,P|515:151|535:190,1,59.9999984105428
144,120,26501,1,0,0:0:0:0:
424,320,26644,6,0,P|536:300|564:272,1,90.0000010490418
88,64,26786,2,0,P|-24:84|-52:112,1,90.0000010490418
467,196,26929,6,0,P|546:114|552:75,1,90.0000010490418
44,187,27071,2,0,P|-34:269|-40:308,1,90.0000010490418
435,81,27215,6,0,P|457:-30|441:-66,1,90.0000010490418
76,302,27357,2,0,P|54:414|70:450,1,90.0000010490418
336,40,27501,2,0,P|336:-36|196:32,1,299.999992052714
348,208,28358,6,0,P|440:208|516:156,1,180.000002098084
240,96,28786,1,0,0:0:0:0:
280,308,28929,1,0,0:0:0:0:
412,56,29072,1,0,0:0:0:0:
360,340,29215,6,0,P|280:392|200:348,1,180.000002098084
100,124,29644,1,0,0:0:0:0:
276,300,29786,1,0,0:0:0:0:
32,288,29929,1,0,0:0:0:0:
344,132,30072,6,0,P|380:80|384:-40,1,180.000002098084
488,140,30501,1,0,0:0:0:0:
164,140,30643,1,0,0:0:0:0:
432,248,30786,1,0,0:0:0:0:
192,32,30929,6,0,P|124:24|44:100,1,180.000002098084
299,329,31358,1,0,0:0:0:0:
322,284,31429,1,0,0:0:0:0:
339,238,31501,1,0,0:0:0:0:
349,189,31572,1,0,0:0:0:0:
351,140,31643,1,0,0:0:0:0:
345,90,31715,1,0,0:0:0:0:
333,41,31786,6,0,B|393:15|393:15|453:41|453:41|483:97,1,180.000002098084
80,204,32215,1,0,0:0:0:0:
392,128,32358,1,0,0:0:0:0:
276,384,32501,1,0,0:0:0:0:
24,32,32643,6,0,L|388:-16,1,360.000004196167
372,64,32965,2,0,L|28:112,1,270.000003147125
144,176,33233,2,0,L|332:152,1,180.000002098084
244,288,33501,5,0,0:0:0:0:
432,296,34072,2,0,L|448:216,1,59.9999984105428
264,192,34358,2,0,P|248:264|344:264,1,179.999995231629
432,160,34929,2,0,P|500:168|520:180,1,59.9999984105428
336,84,35215,2,0,P|376:48|412:32,1,59.9999984105428
456,232,35786,5,0,0:0:0:0:
152,184,36072,2,0,P|148:264|200:360,1,179.999995231629
288,192,36643,2,0,P|280:116|264:88,1,59.9999984105428
256,64,36929,1,0,0:0:0:0:
192,256,37215,1,0,0:0:0:0:
96,96,37501,1,0,0:0:0:0:
256,320,37786,6,0,P|192:352|128:320,1,119.999996821086
384,224,38358,2,0,P|416:288|416:320,1,59.9999984105428
384,352,38643,1,0,0:0:0:0:
288,160,38929,1,0,0:0:0:0:
512,160,39215,1,0,0:0:0:0:
320,288,39501,6,0,B|192:288|192:288|128:320,1,179.999995231629
416,192,40358,6,0,L|416:64,1,119.999996821086
160,128,40929,1,0,0:0:0:0:
256,224,41072,1,0,0:0:0:0:
232,64,41215,2,0,P|181:35|81:74,1,119.999996821086
189,292,41786,2,0,P|258:277|295:260,1,59.9999984105428
80,237,42072,6,0,P|65:312|87:374,1,119.999996821086
97,93,42643,1,0,0:0:0:0:
295,199,42929,2,0,L|171:207,1,119.999996821086
398,79,43501,2,0,P|421:146|422:168,1,59.9999984105428
418,241,43786,5,0,0:0:0:0:
116,300,44072,1,0,0:0:0:0:
413,243,44358,1,0,0:0:0:0:
93,171,44643,5,0,0:0:0:0:
362,319,44929,1,0,0:0:0:0:
98,173,45215,5,0,0:0:0:0:
251,84,45358,1,0,0:0:0:0:
194,309,45501,1,0,0:0:0:0:
2,8,45786,5,0,0:0:0:0:
497,143,46072,1,0,0:0:0:0:
43,361,46358,2,0,B|-8:391|-8:391|51:356,1,119.999996821086
