osu file format v14

[General]
AudioFilename: caralho.mp3
AudioLeadIn: 0
PreviewTime: 13458
Countdown: 0
SampleSet: None
StackLeniency: 0.9
Mode: 0
LetterboxInBreaks: 0
WidescreenStoryboard: 1

[Editor]
Bookmarks: 22216,34359,37788,46359
DistanceSpacing: 1.5
BeatDivisor: 4
GridSize: 4
TimelineZoom: 2.5

[Metadata]
Title:Feliz Pascoa pra todos voces apesar de ninguem ter me mandado chocolates
TitleUnicode:Feliz Páscoa pra todos vocês apesar de ninguém ter me mandado chocolates
Artist:Maffalda
ArtistUnicode:Maffalda
Creator:jieusieu
Version:i lik teletubbies
Source:
Tags:coelho coelhinho da rabbit bunny easter day dubstep mashup
BeatmapID:982871
BeatmapSetID:458706

[Difficulty]
HPDrainRate:6
CircleSize:4
OverallDifficulty:8
ApproachRate:9.3
SliderMultiplier:0.5
SliderTickRate:1

[Events]
//Background and Video events
0,0,"Img12.jpg",0,0
//Break Periods
//Storyboard Layer 0 (Background)
//Storyboard Layer 1 (Fail)
//Storyboard Layer 2 (Pass)
//Storyboard Layer 3 (Foreground)
//Storyboard Sound Samples

[TimingPoints]
0,285.714285714286,4,2,1,40,1,0
6887,285.714285714286,4,2,1,40,1,0
12887,-66.6666666666667,4,2,0,40,0,0
13788,285.714285714286,4,2,1,60,1,0
14645,-15.015015015015,4,2,1,60,0,1
14930,-25,4,2,1,60,0,1
15502,-100,4,2,1,60,0,1
16930,-25,4,2,1,60,0,1
17216,-100,4,2,1,60,0,1
18073,-15.015015015015,4,2,1,60,0,1
18359,-25,4,2,1,60,0,1
18930,-100,4,2,1,60,0,1
20359,-25,4,2,1,60,0,1
20645,-100,4,2,1,60,0,1
21073,-200,4,2,0,60,0,0
21502,-15.015015015015,4,2,1,60,0,1
21788,-25,4,2,1,60,0,1
22073,-15.015015015015,4,2,1,60,0,1
22359,-25,4,2,1,60,0,1
24502,-133.333333333333,4,2,1,60,0,0
24930,-15.015015015015,4,2,1,60,0,1
25216,-25,4,2,1,60,0,1
25502,-15.015015015015,4,2,1,60,0,1
25788,-25,4,2,1,60,0,1
26645,-76.9230769230769,4,2,1,60,0,0
26930,-90.9090909090909,4,2,1,60,0,0
27219,-111.111111111111,4,2,1,60,0,0
27502,-200,4,2,1,60,0,0
28359,-15.015015015015,4,2,1,60,0,1
28645,-25,4,2,1,60,0,1
29216,-100,4,2,1,60,0,1
31502,-25,4,2,1,60,0,1
31788,-15.015015015015,4,2,1,60,0,1
32073,-25,4,2,1,60,0,1
32645,-100,4,2,1,60,0,0
32930,-133.333333333333,4,2,1,60,0,0
33216,-200,4,2,1,60,0,0
34361,-100,4,2,1,60,0,0
46359,-15.015015015015,4,2,0,100,0,0

[Colours]
Combo1 : 255,128,191
Combo2 : 173,255,95
Combo3 : 17,254,176
Combo4 : 255,88,100
Combo5 : 255,94,55
Combo6 : 223,0,223
Combo7 : 134,13,255
Combo8 : 70,255,255

[HitObjects]
148,192,13458,37,2,0:0:0:0:
148,192,13788,2,0,L|152:136,1,50,2|0,0:0|0:0,0:0:0:0:
144,124,14359,1,2,0:0:0:0:
304,96,14645,22,0,B|312:140|312:140|310:199,1,83.2500020324708,4|0,0:0|0:0,0:0:0:0:
192,344,14788,2,0,B|184:300|184:300|188:248,1,83.2500020324708,4|0,0:0|0:0,0:0:0:0:
84,192,14930,102,0,L|152:204,1,50
376,232,15073,1,6,0:0:0:0:
148,192,15216,69,0,1:0:0:0:
412,304,15359,2,0,P|384:308|356:320,1,50,4|0,0:0|0:0,0:0:0:0:
395,131,15502,6,0,L|391:155,1,25,8|0,1:2|0:0,0:0:0:0:
408,52,15788,1,0,1:0:0:0:
364,316,15930,1,8,0:0:0:0:
248,92,16073,5,0,1:0:0:0:
304,368,16216,1,6,0:0:0:0:
96,112,16359,6,0,L|100:76,1,25,8|0,1:2|0:0,0:0:0:0:
84,192,16645,1,0,1:0:0:0:
395,131,16788,1,6,0:0:0:0:
168,28,16930,69,0,1:0:0:0:
140,264,17073,1,6,0:0:0:0:
324,12,17216,6,0,L|327:38,1,25,8|6,1:2|0:0,0:0:0:0:
52,72,17502,5,0,1:0:0:0:
296,116,17645,1,8,0:0:0:0:
72,320,17788,1,0,1:0:0:0:
328,264,17930,1,6,0:0:0:0:
128,104,18073,38,0,B|136:196|136:196|132:228|132:228|140:256|140:256|148:356,1,249.750006097412,12|0,1:2|0:0,0:0:0:0:
264,212,18359,102,0,P|224:216|204:224,1,50,0|0,1:0|0:0,0:0:0:0:
3,63,18502,2,0,P|27:70|52:72,1,50,6|0,0:0|0:0,0:0:0:0:
248,28,18645,85,0,1:2:0:0:
16,148,18788,1,6,0:0:0:0:
256,132,18930,6,0,L|254:105,1,25,8|2,1:2|0:0,0:0:0:0:
264,212,19216,1,0,1:0:0:0:
124,24,19359,69,10,0:0:0:0:
410,81,19502,2,0,L|407:106,1,25,0|6,1:0|0:0,0:0:0:0:
384,272,19788,5,8,1:2:0:0:
344,28,19930,1,6,0:0:0:0:
148,176,20073,1,0,1:0:0:0:
416,192,20216,5,6,0:0:0:0:
172,96,20359,1,0,1:0:0:0:
410,81,20502,1,6,0:0:0:0:
164,280,20645,86,0,L|160:256,1,25,8|6,1:2|0:0,0:0:0:0:
176,360,20930,1,0,1:0:0:0:
272,128,21073,86,0,L|270:140,2,12.5,4|0|0,0:0|0:0|0:0,0:0:0:0:
224,208,21502,102,0,B|332:200|332:200|372:208|372:208|472:200,1,249.750006097412,12|0,1:2|0:0,0:0:0:0:
324,352,21788,102,0,P|301:344|276:341,1,50,6|0,0:0|0:0,0:0:0:0:
140,120,21930,2,0,P|164:127|189:130,1,50,0|0,1:0|0:0,0:0:0:0:
384,44,22073,6,0,B|384:88|384:88|372:132,1,83.2500020324708,2|0,1:0|0:0,0:0:0:0:
213,289,22216,2,0,B|213:245|213:245|229:189,1,83.2500020324708,2|0,1:0|0:0,0:0:0:0:
304,76,22359,101,8,1:2:0:0:
324,352,22502,1,2,1:0:0:0:
188,129,22645,5,4,0:0:0:0:
476,200,22788,1,10,0:0:0:0:
213,289,22930,101,2,1:0:0:0:
256,8,23073,1,8,1:2:0:0:
144,240,23216,5,6,1:0:0:0:
396,224,23359,1,0,0:0:0:0:
396,224,23430,1,2,0:0:0:0:
396,224,23502,1,2,1:0:0:0:
188,364,23645,101,4,0:0:0:0:
104,112,23788,1,8,1:2:0:0:
292,276,23930,5,2,1:0:0:0:
0,208,24073,1,8,1:2:0:0:
96,28,24216,101,2,1:0:0:0:
120,316,24359,1,4,0:0:0:0:
372,124,24502,22,0,L|368:148,2,18.7500007152558,4|0|0,0:0|0:0|0:0,0:0:0:0:
312,196,24930,102,0,B|280:224|272:264|272:264|244:88,1,249.750006097412,12|0,1:2|0:0,0:0:0:0:
384,44,25216,102,0,L|376:96,1,50,0|0,1:0|0:0,0:0:0:0:
172,140,25359,2,0,P|164:100|168:76,1,50,4|0,0:0|0:0,0:0:0:0:
388,172,25502,6,0,B|428:172|428:172|472:184,1,83.2500020324708,2|0,1:0|0:0,0:0:0:0:
216,20,25645,2,0,B|172:20|172:20|120:0,1,83.2500020324708,2|0,1:0|0:0,0:0:0:0:
224,304,25788,101,8,1:2:0:0:
245,96,25930,1,2,1:0:0:0:
120,208,26073,5,4,0:0:0:0:
388,172,26216,1,10,0:0:0:0:
248,380,26359,101,2,1:0:0:0:
172,140,26502,1,2,1:0:0:0:
388,308,26645,22,0,L|384:340,1,32.4999985122681,4|2,1:0|0:0,0:0:0:0:
343,201,26930,6,0,L|340:228,1,27.5000008392334,2|2,0:0|0:0,0:0:0:0:
412,129,27216,102,0,L|408:168,1,27.5000008392334,2|2,0:0|0:0,0:0:0:0:
399,51,27502,6,0,L|392:120,1,68.75,4|0,1:0|0:0,0:0:0:0:
384,40,28359,86,0,B|392:148|392:148|384:188|384:188|392:288,1,249.750006097412,12|0,1:2|0:0,0:0:0:0:
296,120,28645,102,0,P|300:100|304:64,1,50,4|0,0:0|0:0,0:0:0:0:
480,204,28788,2,0,P|476:224|472:260,1,50,6|0,0:0|0:0,0:0:0:0:
240,184,28930,101,0,1:0:0:0:
468,124,29073,1,6,0:0:0:0:
360,384,29216,2,0,L|356:360,1,25,8|6,1:2|0:0,0:0:0:0:
296,120,29502,69,0,1:0:0:0:
280,344,29645,1,14,0:0:0:0:
216,104,29788,1,0,1:0:0:0:
396,216,29930,1,6,0:0:0:0:
184,272,30073,2,0,L|187:248,1,25,8|6,1:2|0:0,0:0:0:0:
192,24,30359,5,0,1:0:0:0:
264,264,30502,1,6,0:0:0:0:
44,80,30645,1,0,1:0:0:0:
352,60,30788,5,6,0:0:0:0:
36,164,30930,2,0,L|32:200,1,25,8|0,1:2|0:0,0:0:0:0:
44,80,31216,1,0,1:0:0:0:
100,340,31359,21,12,0:0:0:0:
100,340,31430,1,0,0:0:0:0:
100,340,31502,2,0,L|106:290,1,50,2|2,1:2|0:0,0:0:0:0:
136,36,31645,2,0,L|129:85,1,50,6|2,0:0|0:0,0:0:0:0:
26,267,31788,6,0,B|118:259|118:259|150:264|150:264|178:255|178:255|274:248,1,249.750006097412,12|0,1:2|0:0,0:0:0:0:
512,144,32073,102,0,P|487:144|462:139,1,50,0|0,1:0|0:0,0:0:0:0:
268,260,32216,2,0,P|292:261|316:268,1,50,6|0,0:0|0:0,0:0:0:0:
404,76,32359,85,0,1:0:0:0:
372,336,32502,1,6,0:0:0:0:
140,100,32645,70,0,L|143:138,1,37.5,2|0,1:0|0:0,0:0:0:0:
112,222,32930,102,0,L|115:250,1,28.1250010728836,2|0,1:0|0:0,0:0:0:0:
168,302,33216,6,0,L|169:321,1,18.75,2|0,1:0|0:0,0:0:0:0:
156,358,33502,101,4,1:0:0:0:
