osu file format v14

[General]
AudioFilename: audio.mp3
AudioLeadIn: 0
PreviewTime: 13501
Countdown: 0
SampleSet: Normal
StackLeniency: 0.7
Mode: 1
LetterboxInBreaks: 0
WidescreenStoryboard: 0

[Editor]
DistanceSpacing: 1
BeatDivisor: 4
GridSize: 16
TimelineZoom: 0.8999999

[Metadata]
Title:Feliz Pascoa pra todos voces apesar de ninguem ter me mandado chocolates
TitleUnicode:Feliz Páscoa pra todos vocês apesar de ninguém ter me mandado chocolates
Artist:MAFFALDA
ArtistUnicode:MAFFALDA
Creator:Faputa
Version:Kantan
Source:
Tags:coelho coelhinho da rabbit bunny easter day dubstep mashup brazil portuguese electronic
BeatmapID:1870198
BeatmapSetID:894424

[Difficulty]
HPDrainRate:9
CircleSize:2
OverallDifficulty:3
ApproachRate:10
SliderMultiplier:1.4
SliderTickRate:1

[Events]
//Background and Video events
0,0,"bunny.jpg",0,0
//Break Periods
//Storyboard Layer 0 (Background)
//Storyboard Layer 1 (Fail)
//Storyboard Layer 2 (Pass)
//Storyboard Layer 3 (Foreground)
//Storyboard Layer 4 (Overlay)
//Storyboard Sound Samples

[TimingPoints]
15,285.714285714286,6,1,0,65,1,0
15,-111.111111111111,6,1,0,65,0,0
569,287.081339712919,6,1,0,65,1,8
569,-111.111111111111,6,1,0,65,0,0
1717,285.714285714286,6,1,0,65,1,0
1717,-111.111111111111,6,1,0,65,0,0
3431,285.714285714286,6,1,0,65,1,8
3454,283.018867924528,6,1,0,65,1,0
3454,-111.111111111111,6,1,0,65,0,0
6850,285.714285714286,6,1,0,65,1,8
6903,285.714285714286,6,1,0,65,1,0
6903,-111.111111111111,6,1,0,65,0,0
10883,284.36018957346,6,1,0,65,1,8
10883,-111.111111111111,6,1,0,65,0,0
12020,285.714285714286,6,1,0,65,1,0
12020,-111.111111111111,6,1,0,65,0,0
13020,-111.111111111111,6,1,0,30,0,0
13501,285.714285714286,6,1,0,30,1,8
13501,-111.111111111111,6,1,0,30,0,0
14501,-111.111111111111,6,1,0,100,0,0
14644,285.714285714286,6,1,0,100,1,1
14644,-111.111111111111,6,1,0,100,0,1
33501,-111.111111111111,6,1,0,90,0,0

[HitObjects]
258,191,15,5,8,0:0:0:0:
258,191,856,1,8,0:0:0:0:
258,191,1717,1,0,0:0:0:0:
258,191,2574,1,8,0:0:0:0:
258,191,3145,1,8,0:0:0:0:
258,191,3454,1,8,0:0:0:0:
258,191,4303,1,8,0:0:0:0:
258,191,5152,1,0,0:0:0:0:
258,191,5718,1,0,0:0:0:0:
272,192,6001,1,8,0:0:0:0:
256,192,6903,1,8,0:0:0:0:
256,192,7760,1,8,0:0:0:0:
256,192,8617,1,0,0:0:0:0:
256,192,9188,1,0,0:0:0:0:
256,192,9474,1,8,0:0:0:0:
256,192,10331,1,0,0:0:0:0:
256,192,11167,1,8,0:0:0:0:
256,192,12020,1,8,0:0:0:0:
256,192,12591,1,0,0:0:0:0:
256,192,12877,1,8,0:0:0:0:
256,195,14644,5,12,0:0:0:0:
256,195,15501,1,8,0:0:0:0:
256,195,16072,1,0,0:0:0:0:
256,195,16358,1,0,0:0:0:0:
256,195,17215,1,8,0:0:0:0:
256,195,17786,1,8,0:0:0:0:
256,195,18072,1,0,0:0:0:0:
256,195,18644,1,0,0:0:0:0:
256,199,18929,1,8,0:0:0:0:
256,195,19786,1,0,0:0:0:0:
256,195,20358,1,0,0:0:0:0:
263,183,20644,1,8,0:0:0:0:
252,187,21501,1,12,0:0:0:0:
237,193,22358,1,8,0:0:0:0:
237,193,22929,1,8,0:0:0:0:
248,197,23215,1,0,0:0:0:0:
245,195,23786,1,0,0:0:0:0:
237,193,24072,1,8,0:0:0:0:
252,187,24929,1,12,0:0:0:0:
237,193,25786,1,8,0:0:0:0:
237,193,26358,1,8,0:0:0:0:
248,197,26644,1,0,0:0:0:0:
248,197,27501,1,8,0:0:0:0:
256,195,28358,1,12,0:0:0:0:
256,195,29215,1,8,0:0:0:0:
256,195,29786,1,0,0:0:0:0:
256,195,30072,1,0,0:0:0:0:
256,195,30929,1,8,0:0:0:0:
256,195,31501,1,8,0:0:0:0:
256,195,31786,1,0,0:0:0:0:
256,199,32644,1,8,0:0:0:0:
256,195,33215,1,0,0:0:0:0:
256,195,33501,1,12,0:0:0:0:
256,176,34358,1,12,0:0:0:0:
266,187,35215,1,4,0:0:0:0:
266,187,36072,1,12,0:0:0:0:
266,187,36929,1,4,0:0:0:0:
266,187,37786,1,12,0:0:0:0:
266,187,38358,1,8,0:0:0:0:
266,187,38643,1,4,0:0:0:0:
266,187,39501,1,12,0:0:0:0:
256,195,40358,1,4,0:0:0:0:
256,176,41215,1,12,0:0:0:0:
266,187,42072,1,4,0:0:0:0:
266,187,42929,1,12,0:0:0:0:
266,187,43786,1,4,0:0:0:0:
266,187,44643,1,12,0:0:0:0:
266,187,45501,1,4,0:0:0:0:
256,192,46072,1,8,0:0:0:0:
266,187,46358,1,12,0:0:0:0:
