osu file format v14

[General]
AudioFilename: audio.mp3
AudioLeadIn: 0
PreviewTime: 13501
Countdown: 0
SampleSet: Normal
StackLeniency: 0.7
Mode: 1
LetterboxInBreaks: 0
WidescreenStoryboard: 0

[Editor]
DistanceSpacing: 1
BeatDivisor: 4
GridSize: 16
TimelineZoom: 1.7

[Metadata]
Title:Feliz Pascoa pra todos voces apesar de ninguem ter me mandado chocolates
TitleUnicode:Feliz Páscoa pra todos vocês apesar de ninguém ter me mandado chocolates
Artist:MAFFALDA
ArtistUnicode:MAFFALDA
Creator:Faputa
Version:Inner Oni
Source:
Tags:coelho coelhinho da rabbit bunny easter day dubstep mashup brazil portuguese electronic
BeatmapID:1869069
BeatmapSetID:894424

[Difficulty]
HPDrainRate:6.5
CircleSize:2
OverallDifficulty:6.5
ApproachRate:10
SliderMultiplier:1.4
SliderTickRate:1

[Events]
//Background and Video events
0,0,"bunny.jpg",0,0
//Break Periods
//Storyboard Layer 0 (Background)
//Storyboard Layer 1 (Fail)
//Storyboard Layer 2 (Pass)
//Storyboard Layer 3 (Foreground)
//Storyboard Layer 4 (Overlay)
//Storyboard Sound Samples

[TimingPoints]
15,285.714285714286,6,1,0,65,1,0
15,-200,6,1,0,65,0,0
569,287.081339712919,6,1,0,65,1,8
569,-200,6,1,0,65,0,0
1717,285.714285714286,6,1,0,65,1,0
1717,-200,6,1,0,65,0,0
3431,285.714285714286,6,1,0,65,1,8
3454,283.018867924528,6,1,0,65,1,0
3454,-200,6,1,0,65,0,0
6850,285.714285714286,6,1,0,65,1,8
6903,285.714285714286,6,1,0,65,1,0
6903,-200,6,1,0,65,0,0
10883,284.36018957346,6,1,0,65,1,8
10883,-200,6,1,0,65,0,0
12020,285.714285714286,6,1,0,65,1,0
12020,-200,6,1,0,65,0,0
13020,-200,6,1,0,30,0,0
13501,285.714285714286,6,1,0,30,1,8
13501,-200,6,1,0,30,0,0
14501,-200,6,1,0,100,0,0
14644,285.714285714286,6,1,0,100,1,1
21786,-100,6,1,0,100,0,1
21929,-99.1007597064239,6,1,0,100,0,1
22001,-98.6571771616527,6,1,0,100,0,1
22072,-98.2176444069471,6,1,0,100,0,1
22215,-97.3500347052874,6,1,0,100,0,1
22358,-96.4976189212531,6,1,0,100,0,1
22501,-95.660001396636,6,1,0,100,0,1
22644,-94.8368900328325,6,1,0,100,0,1
22786,-94.0277344205447,6,1,0,100,0,1
22929,-93.2322695531377,6,1,0,100,0,1
23072,-92.4501508786462,6,1,0,100,0,1
23215,-91.681129364824,6,1,0,100,0,1
23286,-90.9090909090909,6,1,0,100,0,1
23358,-90.9247134280345,6,1,0,100,0,1
23429,-90.5511668423359,6,1,0,100,0,1
23501,-90.1806769863421,6,1,0,100,0,1
23644,-89.4487986131858,6,1,0,100,0,1
23786,-88.7286252741714,6,1,0,100,0,1
23929,-88.0199558843981,6,1,0,100,0,1
24072,-87.3225169842296,6,1,0,100,0,1
24215,-86.636118771188,6,1,0,100,0,1
24358,-85.9603533658206,6,1,0,100,0,1
24501,-85.2950483665572,6,1,0,100,0,1
24786,-83.9949334256158,6,1,0,100,0,1
24929,-83.3595916046888,6,1,0,100,0,1
25215,-100,6,1,0,100,0,1
25358,-98.0471940363775,6,1,0,100,0,1
25429,-97.0990682373412,6,1,0,100,0,1
25501,-96.1691962370917,6,1,0,100,0,1
25644,-94.3617887598124,6,1,0,100,0,1
25786,-92.6210649940537,6,1,0,100,0,1
25929,-90.9434013741548,6,1,0,100,0,1
26072,-89.3254322011037,6,1,0,100,0,1
26215,-87.7640271050421,6,1,0,100,0,1
26358,-86.2562708308894,6,1,0,100,0,1
26501,-84.7994450724314,6,1,0,100,0,1
26644,-83.3333333333333,6,1,0,100,0,1
26679,-83.91606044306,6,1,0,100,0,1
26786,-85.7142612244968,6,1,0,100,0,1
26822,-86.3309600952403,6,1,0,100,0,1
26929,-88.2353200692118,6,1,0,100,0,1
26965,-88.8888888888889,6,1,0,100,0,1
27072,-90.9090909090909,6,1,0,100,0,1
27108,-91.6030254647251,6,1,0,100,0,1
27215,-93.7499707031342,6,1,0,100,0,1
27251,-94.4882187364469,6,1,0,100,0,1
27358,-96.774224765879,6,1,0,100,0,1
27394,-97.5609756097561,6,1,0,100,0,1
27501,-100,6,1,0,100,0,1
33501,-100,6,1,0,90,0,0

[HitObjects]
258,191,15,5,8,0:0:0:0:
258,191,300,1,0,0:0:0:0:
258,191,569,1,0,0:0:0:0:
258,191,856,1,8,0:0:0:0:
258,191,1143,1,0,0:0:0:0:
258,191,1430,1,8,0:0:0:0:
258,191,1717,1,8,0:0:0:0:
258,191,2288,1,0,0:0:0:0:
258,191,2574,1,8,0:0:0:0:
258,191,3145,1,8,0:0:0:0:
258,191,3454,1,8,0:0:0:0:
258,191,3737,1,0,0:0:0:0:
258,191,4020,1,0,0:0:0:0:
258,191,4303,1,8,0:0:0:0:
258,191,4586,1,0,0:0:0:0:
258,191,4869,1,8,0:0:0:0:
258,191,5152,1,8,0:0:0:0:
258,191,5435,1,0,0:0:0:0:
258,191,5718,1,0,0:0:0:0:
272,192,6001,1,8,0:0:0:0:
256,192,6903,1,8,0:0:0:0:
256,192,7188,1,0,0:0:0:0:
256,192,7474,1,0,0:0:0:0:
256,192,7760,1,8,0:0:0:0:
256,192,8045,1,0,0:0:0:0:
256,192,8331,1,8,0:0:0:0:
256,192,8617,1,8,0:0:0:0:
256,192,8903,1,0,0:0:0:0:
256,192,9188,1,0,0:0:0:0:
256,192,9474,1,8,0:0:0:0:
256,192,9760,1,0,0:0:0:0:
256,192,10045,1,8,0:0:0:0:
256,192,10331,1,8,0:0:0:0:
256,192,10617,1,0,0:0:0:0:
256,192,10883,1,8,0:0:0:0:
256,192,11167,1,8,0:0:0:0:
251,187,11451,1,0,0:0:0:0:
256,192,11736,1,0,0:0:0:0:
256,192,12020,1,8,0:0:0:0:
255,192,12305,1,8,0:0:0:0:
256,192,12591,1,0,0:0:0:0:
256,192,12877,1,8,0:0:0:0:
256,192,13162,12,8,14358,0:0:0:0:
256,195,14644,5,12,0:0:0:0:
256,195,14786,1,0,0:0:0:0:
256,195,14858,1,0,0:0:0:0:
256,195,14929,1,0,0:0:0:0:
256,195,15072,1,8,0:0:0:0:
256,195,15215,1,8,0:0:0:0:
256,195,15358,1,0,0:0:0:0:
256,195,15429,1,0,0:0:0:0:
256,195,15501,1,8,0:0:0:0:
256,195,15786,1,8,0:0:0:0:
256,195,15929,1,8,0:0:0:0:
256,195,16072,1,0,0:0:0:0:
256,195,16215,1,8,0:0:0:0:
256,195,16358,1,0,0:0:0:0:
256,195,16786,1,8,0:0:0:0:
256,195,16929,1,8,0:0:0:0:
256,195,17072,1,0,0:0:0:0:
256,195,17144,1,0,0:0:0:0:
256,195,17215,1,8,0:0:0:0:
256,195,17501,1,8,0:0:0:0:
263,194,17644,1,8,0:0:0:0:
256,195,17715,1,8,0:0:0:0:
256,195,17786,1,0,0:0:0:0:
256,195,17858,1,0,0:0:0:0:
263,195,17929,1,8,0:0:0:0:
256,195,18072,1,4,0:0:0:0:
256,195,18215,1,0,0:0:0:0:
256,195,18286,1,0,0:0:0:0:
256,195,18358,1,0,0:0:0:0:
256,195,18501,1,8,0:0:0:0:
263,194,18644,1,0,0:0:0:0:
256,195,18786,1,8,0:0:0:0:
263,195,18858,1,0,0:0:0:0:
256,199,18929,1,8,0:0:0:0:
256,195,19215,1,8,0:0:0:0:
256,195,19358,1,8,0:0:0:0:
256,195,19501,1,8,0:0:0:0:
254,192,19644,1,0,0:0:0:0:
256,195,19715,1,0,0:0:0:0:
256,195,19786,1,0,0:0:0:0:
250,194,19929,1,8,0:0:0:0:
268,191,20215,1,8,0:0:0:0:
268,191,20358,1,8,0:0:0:0:
266,187,20501,1,0,0:0:0:0:
254,192,20572,1,0,0:0:0:0:
263,183,20644,1,8,0:0:0:0:
264,188,20929,1,0,0:0:0:0:
268,191,21072,1,0,0:0:0:0:
259,183,21215,1,8,0:0:0:0:
268,191,21358,1,0,0:0:0:0:
252,187,21501,1,12,0:0:0:0:
248,188,21786,1,8,0:0:0:0:
250,190,21929,1,0,0:0:0:0:
247,190,22001,1,0,0:0:0:0:
246,193,22072,1,8,0:0:0:0:
242,189,22215,1,0,0:0:0:0:
237,193,22358,1,8,0:0:0:0:
237,193,22501,1,8,0:0:0:0:
237,193,22644,1,8,0:0:0:0:
248,188,22786,1,0,0:0:0:0:
237,193,22929,1,8,0:0:0:0:
237,193,23072,1,8,0:0:0:0:
248,197,23215,1,0,0:0:0:0:
237,193,23286,1,0,0:0:0:0:
237,193,23358,1,8,0:0:0:0:
247,199,23429,1,0,0:0:0:0:
245,195,23501,1,8,0:0:0:0:
251,199,23644,1,0,0:0:0:0:
245,195,23786,1,8,0:0:0:0:
237,193,23929,1,8,0:0:0:0:
251,194,24072,1,0,0:0:0:0:
256,194,24215,1,8,0:0:0:0:
254,194,24358,1,8,0:0:0:0:
256,201,24501,1,4,0:0:0:0:
245,195,24786,1,0,0:0:0:0:
252,187,24929,1,12,0:0:0:0:
248,188,25215,1,8,0:0:0:0:
250,190,25358,1,0,0:0:0:0:
247,190,25429,1,0,0:0:0:0:
246,193,25501,1,8,0:0:0:0:
242,189,25644,1,0,0:0:0:0:
237,193,25786,1,8,0:0:0:0:
237,193,25929,1,8,0:0:0:0:
237,193,26072,1,8,0:0:0:0:
248,188,26215,1,0,0:0:0:0:
237,193,26358,1,8,0:0:0:0:
237,193,26501,1,8,0:0:0:0:
248,197,26644,1,0,0:0:0:0:
247,199,26691,1,0,0:0:0:0:
237,193,26786,1,8,0:0:0:0:
243,194,26834,1,8,0:0:0:0:
245,195,26929,1,8,0:0:0:0:
245,196,26977,1,8,0:0:0:0:
251,199,27072,1,0,0:0:0:0:
248,188,27120,1,0,0:0:0:0:
245,195,27215,1,8,0:0:0:0:
253,181,27263,1,8,0:0:0:0:
237,193,27358,1,8,0:0:0:0:
253,181,27405,1,8,0:0:0:0:
245,186,27501,2,0,P|421:184|434:256,1,280
256,195,28358,5,12,0:0:0:0:
256,195,28501,1,0,0:0:0:0:
256,195,28572,1,0,0:0:0:0:
256,195,28644,1,0,0:0:0:0:
256,195,28786,1,8,0:0:0:0:
256,195,28929,1,8,0:0:0:0:
256,195,29072,1,0,0:0:0:0:
256,195,29144,1,0,0:0:0:0:
256,195,29215,1,8,0:0:0:0:
256,195,29501,1,8,0:0:0:0:
256,195,29644,1,8,0:0:0:0:
256,195,29786,1,0,0:0:0:0:
256,195,29929,1,8,0:0:0:0:
256,195,30072,1,0,0:0:0:0:
256,195,30501,1,8,0:0:0:0:
256,195,30644,1,8,0:0:0:0:
256,195,30786,1,0,0:0:0:0:
256,195,30858,1,0,0:0:0:0:
256,195,30929,1,8,0:0:0:0:
256,195,31215,1,8,0:0:0:0:
263,194,31358,1,8,0:0:0:0:
256,195,31429,1,8,0:0:0:0:
256,195,31501,1,0,0:0:0:0:
256,195,31572,1,0,0:0:0:0:
263,195,31644,1,8,0:0:0:0:
256,195,31786,1,4,0:0:0:0:
256,195,31929,1,0,0:0:0:0:
256,195,32001,1,0,0:0:0:0:
256,195,32072,1,0,0:0:0:0:
256,195,32215,1,8,0:0:0:0:
263,194,32358,1,0,0:0:0:0:
256,195,32501,1,8,0:0:0:0:
263,195,32572,1,0,0:0:0:0:
256,199,32644,1,8,0:0:0:0:
256,195,32929,1,8,0:0:0:0:
256,195,33001,1,8,0:0:0:0:
256,195,33072,1,8,0:0:0:0:
256,195,33215,1,0,0:0:0:0:
254,192,33358,1,0,0:0:0:0:
256,195,33501,1,12,0:0:0:0:
256,195,33786,1,0,0:0:0:0:
268,191,34072,1,8,0:0:0:0:
266,187,34215,1,0,0:0:0:0:
256,176,34358,1,12,0:0:0:0:
256,195,34644,1,0,0:0:0:0:
268,191,34929,1,8,0:0:0:0:
266,187,35215,1,4,0:0:0:0:
256,192,35786,1,0,0:0:0:0:
268,191,35929,1,0,0:0:0:0:
266,187,36072,1,12,0:0:0:0:
256,195,36358,1,0,0:0:0:0:
256,192,36643,1,8,0:0:0:0:
266,187,36929,1,4,0:0:0:0:
256,192,37215,1,0,0:0:0:0:
256,192,37501,1,0,0:0:0:0:
266,187,37786,1,12,0:0:0:0:
256,192,38072,1,0,0:0:0:0:
256,192,38358,1,8,0:0:0:0:
256,192,38501,1,0,0:0:0:0:
266,187,38643,1,4,0:0:0:0:
256,192,38929,1,8,0:0:0:0:
256,192,39215,1,8,0:0:0:0:
266,187,39501,1,12,0:0:0:0:
256,192,39786,1,8,0:0:0:0:
256,192,39822,1,8,0:0:0:0:
256,195,40358,1,4,0:0:0:0:
268,191,40644,1,0,0:0:0:0:
268,191,40929,1,8,0:0:0:0:
266,187,41072,1,0,0:0:0:0:
256,176,41215,1,12,0:0:0:0:
268,191,41501,1,0,0:0:0:0:
268,191,41786,1,8,0:0:0:0:
266,187,42072,1,4,0:0:0:0:
256,192,42643,1,0,0:0:0:0:
268,191,42786,1,0,0:0:0:0:
266,187,42929,1,12,0:0:0:0:
268,191,43215,1,0,0:0:0:0:
256,192,43501,1,8,0:0:0:0:
266,187,43786,1,4,0:0:0:0:
256,192,44072,1,0,0:0:0:0:
256,192,44358,1,0,0:0:0:0:
266,187,44643,1,12,0:0:0:0:
256,192,44929,1,0,0:0:0:0:
256,192,45215,1,8,0:0:0:0:
256,192,45358,1,0,0:0:0:0:
266,187,45501,1,4,0:0:0:0:
256,192,45786,1,8,0:0:0:0:
256,192,46072,1,8,0:0:0:0:
266,187,46358,1,12,0:0:0:0:
