osu file format v14

[General]
AudioFilename: audio.mp3
AudioLeadIn: 0
PreviewTime: -1
Countdown: 0
SampleSet: Normal
StackLeniency: 0.7
Mode: 0
LetterboxInBreaks: 0
WidescreenStoryboard: 1

[Editor]
DistanceSpacing: 0.9
BeatDivisor: 4
GridSize: 8
TimelineZoom: 1.7

[Metadata]
Title:Aqui Na Base (classicos maffalda 1997)
TitleUnicode:Aqui Na Base (clássicos maffalda 1997)
Artist:Maffalda
ArtistUnicode:Maffalda
Creator:Kiritosz1
Version:Harder
Source:
Tags:
BeatmapID:2155749
BeatmapSetID:1009075

[Difficulty]
HPDrainRate:5.5
CircleSize:3.8
OverallDifficulty:8
ApproachRate:9
SliderMultiplier:2
SliderTickRate:2

[Events]
//Background and Video events
0,0,"bg.jpg",0,0
//Break Periods
2,59763,65751
2,133116,139378
//Storyboard Layer 0 (Background)
//Storyboard Layer 1 (Fail)
//Storyboard Layer 2 (Pass)
//Storyboard Layer 3 (Foreground)
//Storyboard Layer 4 (Overlay)
//Storyboard Sound Samples

[TimingPoints]
-6,461.538461538462,4,1,0,30,1,0
13263,-200,4,1,0,30,0,0
14763,-100,4,1,0,30,0,0
29532,-100,4,1,0,30,0,0
32301,-200,4,1,0,30,0,0
32763,-100,4,1,0,30,0,0
36917,-100,4,1,0,35,0,0
43378,-200,4,1,0,25,0,0
44301,-66.6666666666667,4,1,0,40,0,0
59070,-133.333333333333,4,1,0,35,0,0
66452,-100,4,1,0,30,0,0
72917,-66.6666666666667,4,1,0,35,0,0
73840,-133.333333333333,4,1,0,45,0,1
101532,-100,4,1,0,30,0,0
101532,-133.333333333333,4,1,0,30,0,0
103378,-133.333333333333,4,1,0,40,0,1
111224,-200,4,1,0,40,0,1
111686,-100,4,1,0,40,0,1
115840,-200,4,1,0,40,0,1
116301,-100,4,1,0,40,0,0
116532,-200,4,1,0,40,0,0
118147,-133.333333333333,4,1,0,40,0,1
132917,-133.333333333333,4,1,0,35,0,0
140301,-133.333333333333,4,1,0,35,0,0
145840,-200,4,1,0,5,0,0
146301,-133.333333333333,4,1,0,5,0,0
146763,-100,4,1,0,5,0,0
147224,-66.6666666666667,4,1,0,5,0,0
147683,-100,4,1,0,30,0,1
175378,-100,4,1,0,30,0,0
177224,-66.6666666666667,4,1,0,40,0,0
206762,-133.333333333333,4,1,0,40,0,0

[Colours]
Combo1 : 0,255,255
Combo2 : 255,0,0
Combo3 : 255,128,192
Combo4 : 192,192,192

[HitObjects]
256,192,11070,12,0,12916,0:0:0:0:
472,162,13263,6,0,B|400:165|400:165|305:122|305:122|257:203|163:191,1,325
426,335,15224,2,0,P|377:282|370:236,1,100
272,288,15686,2,0,P|254:334|216:366,1,100
92,320,16147,1,0,0:0:0:0:
58,215,16378,1,0,0:0:0:0:
113,111,16609,6,0,P|182:63|220:63,1,100
288,144,17070,2,0,L|268:251,1,100
352,336,17532,2,0,P|388:260|386:228,1,100
416,144,17994,1,0,0:0:0:0:
352,64,18224,1,0,0:0:0:0:
241,68,18455,6,0,B|187:52|187:52|105:72,1,100
62,241,18917,2,0,L|78:139,1,100
137,329,19378,2,0,L|153:227,1,100
256,272,19840,1,0,0:0:0:0:
368,288,20070,1,0,0:0:0:0:
460,231,20301,6,0,P|469:140|459:89,1,100
273,103,20763,2,0,L|410:122,1,100
203,17,21224,2,0,L|340:36,1,100
240,144,21686,1,0,0:0:0:0:
160,224,21917,1,0,0:0:0:0:
145,342,22147,6,0,L|244:329,1,100
228,249,22609,2,0,L|327:236,1,100
208,96,23070,2,0,P|210:145|232:190,1,100
320,240,23532,2,0,P|318:190|295:145,1,100
256,64,23994,5,0,0:0:0:0:
208,160,24224,1,0,0:0:0:0:
157,54,24455,2,0,L|59:86,1,100
48,240,24917,2,0,L|146:208,1,100
256,256,25378,1,0,0:0:0:0:
384,176,25609,1,0,0:0:0:0:
320,64,25840,6,0,L|305:165,1,100
221,255,26301,2,0,P|321:240|353:256,1,100
432,320,26763,2,0,P|451:225|447:178,1,100
437,117,27224,1,0,0:0:0:0:
336,64,27455,1,0,0:0:0:0:
164,59,27686,6,0,L|102:79,1,50
103,111,27917,1,0,0:0:0:0:
103,111,28032,1,0,0:0:0:0:
103,111,28148,1,0,0:0:0:0:
125,268,28378,5,0,0:0:0:0:
269,345,28609,2,0,P|414:328|456:304,1,150
487,223,29070,2,0,P|342:206|300:182,1,150
192,80,29532,5,0,0:0:0:0:
68,146,29763,1,0,0:0:0:0:
97,311,29994,1,0,0:0:0:0:
206,190,30224,1,0,0:0:0:0:
289,303,30455,1,0,0:0:0:0:
206,190,30686,1,0,0:0:0:0:
346,188,30917,1,0,0:0:0:0:
436,336,31147,1,0,0:0:0:0:
470,162,31378,6,0,L|447:51,1,100
313,30,31840,2,0,L|292:127,1,100
154,148,32301,2,0,L|131:37,1,100
60,170,32994,1,0,0:0:0:0:
41,328,33224,6,0,P|134:359|170:362,1,100
256,336,33686,1,0,0:0:0:0:
352,304,33917,1,0,0:0:0:0:
432,240,34147,2,0,B|452:187|452:187|430:128,1,100
368,80,34609,1,0,0:0:0:0:
327,197,34840,1,0,0:0:0:0:
232,64,35070,5,0,0:0:0:0:
165,240,35301,1,0,0:0:0:0:
99,108,35532,2,0,L|28:17,1,100
55,229,35994,1,0,0:0:0:0:
161,340,36224,1,0,0:0:0:0:
192,160,36455,1,0,0:0:0:0:
312,248,36686,1,0,0:0:0:0:
265,317,36917,6,0,P|368:313|381:298,1,100
416,240,37378,2,0,L|422:127,1,100
323,75,37840,2,0,P|218:84|204:95,1,100
114,162,38301,2,0,L|127:38,1,100
155,261,38763,5,0,0:0:0:0:
251,132,38994,1,0,0:0:0:0:
325,261,39224,1,0,0:0:0:0:
240,352,39455,1,0,0:0:0:0:
405,357,39686,1,0,0:0:0:0:
356,175,39917,1,0,0:0:0:0:
471,275,40147,1,0,0:0:0:0:
459,117,40378,1,0,0:0:0:0:
320,80,40609,6,0,L|207:103,1,100
144,160,41070,2,0,L|173:267,1,100
224,336,41532,1,0,0:0:0:0:
359,318,41763,1,0,0:0:0:0:
317,201,41994,2,0,P|204:199|177:211,1,100
96,96,42455,6,0,P|116:180|140:217,1,100
220,161,42917,2,0,P|241:256|241:280,1,100
176,304,43378,2,0,L|330:286,1,150
400,237,44301,5,0,0:0:0:0:
416,32,44532,1,0,0:0:0:0:
184,160,44763,1,0,0:0:0:0:
392,152,44994,1,0,0:0:0:0:
336,288,45224,2,0,P|277:338|198:335,1,150.000005722046
128,256,45686,2,0,L|112:95,1,150.000005722046
240,64,46147,5,0,0:0:0:0:
331,188,46378,1,0,0:0:0:0:
256,320,46609,2,0,P|160:313|109:290,1,150.000005722046
64,192,47070,1,0,0:0:0:0:
234,77,47301,5,0,0:0:0:0:
373,178,47532,1,0,0:0:0:0:
180,249,47763,1,0,0:0:0:0:
316,350,47993,5,0,0:0:0:0:
439,241,48224,2,0,P|450:150|445:92,1,150.000005722046
334,35,48686,1,0,0:0:0:0:
331,206,48917,1,0,0:0:0:0:
202,59,49147,1,0,0:0:0:0:
159,259,49378,1,0,0:0:0:0:
45,139,49609,1,0,0:0:0:0:
46,289,49840,6,0,B|117:329|117:329|221:304,1,150.000005722046
250,179,50301,1,0,0:0:0:0:
214,334,50532,1,0,0:0:0:0:
377,260,50763,1,0,0:0:0:0:
388,130,50994,1,0,0:0:0:0:
277,66,51224,2,0,P|157:84|123:93,1,150.000005722046
30,186,51686,6,0,L|48:33,1,150.000005722046
118,88,52147,1,0,0:0:0:0:
194,102,52378,1,0,0:0:0:0:
150,195,52609,1,0,0:0:0:0:
289,228,52840,1,0,0:0:0:0:
191,317,53070,1,0,0:0:0:0:
404,354,53301,1,0,0:0:0:0:
468,214,53532,6,0,P|452:93|435:62,1,150.000005722046
343,121,53994,2,0,L|181:107,1,150.000005722046
97,151,54455,1,0,0:0:0:0:
134,261,54686,2,0,L|236:295,4,75.0000028610231
306,303,55378,5,0,0:0:0:0:
407,196,55609,1,0,0:0:0:0:
273,110,55840,1,0,0:0:0:0:
160,224,56070,1,0,0:0:0:0:
80,128,56301,2,0,P|121:43|174:55,1,150.000005722046
210,164,56763,2,0,L|341:263,1,150.000005722046
370,355,57224,5,0,0:0:0:0:
471,219,57455,1,0,0:0:0:0:
298,277,57686,1,0,0:0:0:0:
271,52,57917,1,0,0:0:0:0:
386,109,58147,1,0,0:0:0:0:
98,205,58378,1,0,0:0:0:0:
120,89,58609,1,0,0:0:0:0:
285,353,58840,1,0,0:0:0:0:
366,219,59070,6,0,P|373:165|362:114,1,75.0000028610231
82,220,66455,6,0,P|210:226|234:224,1,150
291,289,67147,2,0,P|324:192|336:176,1,100
374,262,67609,1,0,0:0:0:0:
399,361,67840,1,0,0:0:0:0:
296,350,68070,6,0,P|208:325|183:313,1,100
153,304,68647,2,0,L|153:250,1,50
85,214,68994,2,0,P|171:170|210:184,1,100
242,246,69455,2,0,P|252:329|275:366,1,100
361,358,69917,1,0,0:0:0:0:
467,310,70147,2,0,L|459:168,1,100
373,182,70609,2,0,L|394:105,1,50
470,118,70840,2,0,P|397:61|350:65,1,100
281,122,71301,5,0,0:0:0:0:
183,100,71532,2,0,P|138:157|126:192,1,100
153,299,71994,1,0,0:0:0:0:
290,288,72224,2,0,L|296:354,1,50
373,348,72455,2,0,P|466:325|474:290,1,100
307,321,72917,5,0,0:0:0:0:
271,329,73032,1,0,0:0:0:0:
237,335,73147,1,0,0:0:0:0:
201,336,73263,1,0,0:0:0:0:
166,329,73378,1,0,0:0:0:0:
133,313,73493,1,0,0:0:0:0:
106,291,73609,1,0,0:0:0:0:
82,263,73724,1,0,0:0:0:0:
64,240,73840,2,0,P|42:155|42:139,1,75.0000028610231
160,80,74301,5,0,0:0:0:0:
208,272,74532,1,0,0:0:0:0:
336,96,74763,1,0,0:0:0:0:
264,376,74994,1,0,0:0:0:0:
192,160,75224,1,0,0:0:0:0:
376,280,75455,1,0,0:0:0:0:
432,112,75686,6,0,P|448:48|448:32,1,75.0000028610231
304,64,76147,1,0,0:0:0:0:
160,112,76378,1,0,0:0:0:0:
64,224,76609,2,0,P|48:144|48:128,1,75.0000028610231
176,208,77070,2,0,P|192:288|192:304,1,75.0000028610231
288,336,77532,6,0,P|352:368|416:320,1,150.000005722046
464,224,78224,1,0,0:0:0:0:
296,120,78455,1,0,0:0:0:0:
336,320,78686,1,0,0:0:0:0:
480,64,78917,1,0,0:0:0:0:
344,16,79147,1,0,0:0:0:0:
224,32,79378,6,0,P|192:32|128:48,1,75.0000028610231
67,118,79840,2,0,L|80:192,1,75.0000028610231
48,304,80301,1,0,0:0:0:0:
144,176,80532,1,0,0:0:0:0:
192,352,80763,1,0,0:0:0:0:
272,144,80994,1,0,0:0:0:0:
320,328,81224,6,0,P|432:312|464:280,1,150.000005722046
400,192,81917,1,0,0:0:0:0:
464,112,82147,1,0,0:0:0:0:
368,48,82378,2,0,P|336:48|272:32,2,75.0000028610231
304,144,83070,6,0,L|272:224,1,75.0000028610231
184,120,83532,1,0,0:0:0:0:
240,16,83763,1,0,0:0:0:0:
0,88,83994,1,0,0:0:0:0:
168,256,84224,1,0,0:0:0:0:
64,256,84455,1,0,0:0:0:0:
272,336,84686,1,0,0:0:0:0:
272,336,84917,6,0,P|320:272|320:256,1,75.0000028610231
240,224,85378,1,0,0:0:0:0:
256,64,85609,1,0,0:0:0:0:
352,144,85840,2,0,P|368:80|368:64,1,75.0000028610231
448,192,86301,2,0,B|464:224|464:224|448:288,2,75.0000028610231
352,304,86994,6,0,L|368:240,1,37.5000014305115
368,224,87224,1,0,0:0:0:0:
256,352,87455,2,0,L|272:288,1,37.5000014305115
272,272,87685,1,0,0:0:0:0:
128,304,87917,2,0,L|144:240,1,37.5000014305115
144,224,88147,2,0,P|176:160|144:80,1,150.000005722046
272,64,88840,5,0,0:0:0:0:
408,136,89070,1,0,0:0:0:0:
208,200,89301,1,0,0:0:0:0:
448,288,89532,1,0,0:0:0:0:
168,344,89763,1,0,0:0:0:0:
480,352,89994,1,0,0:0:0:0:
432,104,90224,1,0,0:0:0:0:
272,96,90455,6,0,P|208:96|176:112,1,75.0000028610231
112,192,90917,1,0,0:0:0:0:
64,24,91147,1,0,0:0:0:0:
240,128,91378,1,0,0:0:0:0:
120,368,91609,1,0,0:0:0:0:
208,88,91840,1,0,0:0:0:0:
232,248,92070,1,0,0:0:0:0:
328,336,92301,6,0,P|408:336|424:320,1,75.0000028610231
464,224,92763,2,0,L|448:128,1,75.0000028610231
320,80,93224,2,0,L|400:64,2,75.0000028610231
240,144,93917,2,0,P|192:160|144:144,1,75.0000028610231
48,144,94378,5,0,0:0:0:0:
152,56,94609,1,0,0:0:0:0:
240,176,94840,1,0,0:0:0:0:
144,256,95070,2,0,P|144:304|128:352,1,75.0000028610231
240,368,95532,2,0,P|238:330|246:294,1,75.0000028610231
336,336,95994,6,0,P|432:352|464:320,1,150.000005722046
432,224,96686,1,0,0:0:0:0:
264,128,96917,1,0,0:0:0:0:
248,320,97147,1,0,0:0:0:0:
432,224,97378,1,0,0:0:0:0:
416,16,97609,1,0,0:0:0:0:
304,48,97840,6,0,P|256:48|208:64,1,75.0000028610231
128,144,98301,1,0,0:0:0:0:
144,32,98532,1,0,0:0:0:0:
224,112,98763,2,0,P|240:192|240:208,1,75.0000028610231
160,320,99224,2,0,L|144:224,1,75.0000028610231
256,288,99686,6,0,B|288:304|288:304|352:272,1,75.0000028610231
352,184,100147,1,0,0:0:0:0:
512,320,100378,1,0,0:0:0:0:
296,104,100609,1,0,0:0:0:0:
512,208,100840,1,0,0:0:0:0:
240,32,101070,1,0,0:0:0:0:
512,96,101301,1,0,0:0:0:0:
352,144,101532,6,0,P|288:160|240:144,1,100
184,48,101994,1,0,0:0:0:0:
112,136,102224,1,0,0:0:0:0:
176,240,102455,5,0,0:0:0:0:
208,256,102570,1,0,0:0:0:0:
248,320,102686,5,0,0:0:0:0:
280,336,102801,1,0,0:0:0:0:
344,296,102917,5,0,0:0:0:0:
376,312,103032,1,0,0:0:0:0:
448,280,103148,5,0,0:0:0:0:
480,296,103263,1,0,0:0:0:0:
480,192,103378,5,0,0:0:0:0:
440,56,103609,1,0,0:0:0:0:
256,120,103840,1,0,0:0:0:0:
336,40,104070,1,0,0:0:0:0:
296,240,104301,1,0,0:0:0:0:
160,176,104763,6,0,L|144:128,1,37.5000014305115
224,288,105224,2,0,L|256:320,1,37.5000014305115
400,272,105686,2,0,L|368:224,1,37.5000014305115
384,48,106147,2,0,L|352:80,1,37.5000014305115
160,128,106609,2,0,P|208:128|256:144,1,75.0000028610231
288,304,107070,2,0,L|320:256,2,37.5000014305115
128,288,107532,5,0,0:0:0:0:
176,96,107763,1,0,0:0:0:0:
256,352,107994,1,0,0:0:0:0:
280,200,108224,1,0,0:0:0:0:
400,304,108455,6,0,P|432:224|432:208,1,75.0000028610231
368,112,108917,2,0,P|336:192|336:208,1,75.0000028610231
288,256,109378,2,0,L|192:240,1,75.0000028610231
224,336,109840,2,0,L|128:320,1,75.0000028610231
64,272,110301,2,0,P|64:192|80:176,1,75.0000028610231
128,128,110763,2,0,L|144:80,2,37.5000014305115
192,208,111224,6,0,P|240:224|288:208,1,100
400,272,112147,6,0,L|416:208,1,50
176,336,112609,2,0,L|240:352,1,50
112,112,113070,2,0,L|96:176,1,50
336,48,113532,2,0,L|272:32,1,50
400,272,113994,2,0,L|416:208,1,50
264,112,114455,5,0,0:0:0:0:
304,304,114686,1,0,0:0:0:0:
112,240,114917,1,0,0:0:0:0:
336,224,115147,1,0,0:0:0:0:
120,72,115378,1,0,0:0:0:0:
64,272,115840,2,0,B|96:304|96:304|128:320,1,75
160,304,116301,5,0,0:0:0:0:
256,304,116532,2,0,L|280:272,1,25
208,232,116763,2,0,L|240:184,1,50
312,224,117224,2,0,L|344:176,1,50
288,112,117686,2,0,L|344:24,1,100
448,120,118378,1,0,0:0:0:0:
384,352,118609,5,0,0:0:0:0:
336,120,118840,1,0,0:0:0:0:
168,360,119071,1,0,0:0:0:0:
264,80,119302,1,0,0:0:0:0:
320,304,119532,1,0,0:0:0:0:
136,168,119763,1,0,0:0:0:0:
80,272,119994,6,0,P|64:336|64:352,1,75.0000028610231
208,320,120455,1,0,0:0:0:0:
352,272,120686,1,0,0:0:0:0:
448,160,120917,2,0,P|464:240|464:256,1,75.0000028610231
336,176,121378,2,0,P|320:96|320:80,1,75.0000028610231
224,48,121840,6,0,P|160:16|96:64,1,150.000005722046
48,160,122532,1,0,0:0:0:0:
240,256,122763,1,0,0:0:0:0:
184,56,122994,1,0,0:0:0:0:
56,304,123225,1,0,0:0:0:0:
176,368,123455,1,0,0:0:0:0:
288,352,123686,6,0,P|320:352|384:336,1,75.0000028610231
445,266,124148,2,0,L|432:192,1,75.0000028610231
464,80,124609,1,0,0:0:0:0:
368,208,124840,1,0,0:0:0:0:
320,32,125071,1,0,0:0:0:0:
224,216,125302,1,0,0:0:0:0:
208,64,125532,6,0,P|96:80|64:112,1,150.000005722046
112,192,126225,1,0,0:0:0:0:
48,272,126455,1,0,0:0:0:0:
144,336,126686,2,0,P|176:336|240:352,2,75.0000028610231
208,240,127378,6,0,L|240:160,1,75.0000028610231
336,208,127840,1,0,0:0:0:0:
288,368,128071,1,0,0:0:0:0:
472,328,128302,1,0,0:0:0:0:
312,80,128532,1,0,0:0:0:0:
488,232,128763,1,0,0:0:0:0:
416,16,128994,1,0,0:0:0:0:
240,48,129225,6,0,P|192:112|192:128,1,75.0000028610231
272,160,129686,1,0,0:0:0:0:
280,296,129917,1,0,0:0:0:0:
160,240,130148,2,0,P|144:304|144:320,1,75.0000028610231
64,192,130609,2,0,B|48:160|48:160|64:96,2,75.0000028610231
160,80,131302,6,0,L|144:144,1,37.5000014305115
144,160,131532,1,0,0:0:0:0:
256,32,131763,2,0,L|240:96,1,37.5000014305115
240,112,131993,1,0,0:0:0:0:
384,80,132225,2,0,L|368:144,1,37.5000014305115
368,160,132455,2,0,P|336:224|368:304,1,150.000005722046
112,256,140301,6,0,P|104:192|104:168,1,75.0000028610231
224,192,140763,2,0,L|224:280,1,75.0000028610231
296,328,141224,2,0,P|376:336|400:336,1,75.0000028610231
456,296,141686,2,0,P|464:224|456:208,1,75.0000028610231
368,152,142147,6,0,L|360:248,1,75.0000028610231
464,152,142609,2,0,B|464:112|464:112|440:56,1,75.0000028610231
352,32,143070,2,0,L|256:40,1,75.0000028610231
216,112,143532,2,0,P|160:96|136:72,1,75.0000028610231
48,32,143994,6,0,L|56:120,1,75.0000028610231
128,192,144455,2,0,P|136:256|136:288,1,75.0000028610231
80,352,144917,2,0,P|168:352|184:344,1,75.0000028610231
240,304,145378,2,0,L|336:312,1,75.0000028610231
408,360,145840,6,0,P|448:336|464:296,1,75
464,280,146301,2,0,P|456:216|416:184,1,112.500004291535
392,184,146763,2,0,P|360:96|392:48,1,150.000005722046
360,40,147224,2,0,P|272:40|240:200,1,225.000008583069
224,184,147686,5,0,0:0:0:0:
312,320,147917,1,0,0:0:0:0:
136,216,148147,1,0,0:0:0:0:
128,368,148378,1,0,0:0:0:0:
48,256,148609,2,0,P|56:152|72:128,1,100
168,80,149070,2,0,P|160:184|144:208,1,100
230,242,149532,5,0,0:0:0:0:
345,133,149763,1,0,0:0:0:0:
184,320,149994,1,0,0:0:0:0:
345,133,150224,1,0,0:0:0:0:
288,384,150455,1,0,0:0:0:0:
345,133,150686,1,0,0:0:0:0:
480,376,150917,1,0,0:0:0:0:
345,133,151147,1,0,0:0:0:0:
480,256,151378,6,0,P|424:256|368:200,1,100
272,112,151840,2,0,L|248:216,1,100
64,280,152301,2,0,P|160:296|184:280,1,100
344,360,152763,2,0,P|248:344|224:360,1,100
200,256,153224,5,0,0:0:0:0:
298,40,153455,1,0,0:0:0:0:
288,352,153686,1,0,0:0:0:0:
489,171,153917,1,0,0:0:0:0:
95,182,154147,1,0,0:0:0:0:
416,320,154378,1,0,0:0:0:0:
320,80,154609,1,0,0:0:0:0:
152,248,154840,1,0,0:0:0:0:
344,256,155070,6,0,P|424:240|440:224,1,100
408,80,155532,1,0,0:0:0:0:
292,205,155763,1,0,0:0:0:0:
229,25,155994,2,0,P|157:33|109:49,1,100
220,164,156455,1,0,0:0:0:0:
32,66,156686,1,0,0:0:0:0:
48,208,156917,6,0,P|64:296|72:312,1,100
306,250,157378,1,0,0:0:0:0:
99,343,157609,1,0,0:0:0:0:
296,352,157840,2,0,L|416:336,1,100
481,247,158301,1,0,0:0:0:0:
236,167,158532,1,0,0:0:0:0:
408,152,158763,6,0,L|416:48,1,100
304,72,159224,1,0,0:0:0:0:
304,72,159455,1,0,0:0:0:0:
246,226,159686,1,0,0:0:0:0:
127,18,159917,1,0,0:0:0:0:
48,128,160147,2,0,P|64:192|88:232,1,100
95,325,160609,5,0,0:0:0:0:
159,317,160724,1,0,0:0:0:0:
207,277,160840,1,0,0:0:0:0:
257,187,160955,1,0,0:0:0:0:
314,158,161070,5,0,0:0:0:0:
378,166,161185,1,0,0:0:0:0:
426,206,161301,1,0,0:0:0:0:
477,295,161417,1,0,0:0:0:0:
420,324,161532,5,0,0:0:0:0:
356,316,161647,1,0,0:0:0:0:
308,276,161763,1,0,0:0:0:0:
257,187,161878,1,0,0:0:0:0:
209,147,161994,5,0,0:0:0:0:
145,139,162109,1,0,0:0:0:0:
88,168,162224,1,0,0:0:0:0:
432,176,162455,5,0,0:0:0:0:
320,80,162686,1,0,0:0:0:0:
248,256,162917,1,0,0:0:0:0:
160,40,163147,1,0,0:0:0:0:
56,192,163378,2,0,P|48:272|64:304,1,100
144,360,163840,2,0,L|168:248,1,100
192,176,164301,5,0,0:0:0:0:
264,384,164532,1,0,0:0:0:0:
352,112,164763,1,0,0:0:0:0:
272,232,164994,1,0,0:0:0:0:
512,312,165224,1,0,0:0:0:0:
416,72,165455,1,0,0:0:0:0:
168,40,165686,1,0,0:0:0:0:
120,224,165917,1,0,0:0:0:0:
280,296,166147,6,0,P|368:336|376:336,1,100
464,336,166609,2,0,L|464:216,1,100
392,152,167070,1,0,0:0:0:0:
280,256,167301,1,0,0:0:0:0:
416,304,167532,1,0,0:0:0:0:
472,64,167763,1,0,0:0:0:0:
352,104,167994,6,0,P|304:120|240:96,1,100
88,56,168455,2,0,P|136:40|200:64,1,100
144,224,168917,2,0,P|128:176|152:112,1,100
312,168,169378,2,0,P|264:184|200:160,1,100
392,328,169840,5,0,0:0:0:0:
448,90,170070,1,0,0:0:0:0:
272,336,170301,1,0,0:0:0:0:
320,153,170532,1,0,0:0:0:0:
216,40,170763,1,0,0:0:0:0:
121,360,170994,1,0,0:0:0:0:
136,88,171224,1,0,0:0:0:0:
33,337,171455,1,0,0:0:0:0:
208,184,171686,6,0,P|264:136|264:104,1,100
368,23,172147,2,0,L|376:135,1,100
448,247,172609,2,0,P|408:311|368:335,1,100
266,335,173070,2,0,B|218:327|218:327|170:279,1,100
88,352,173532,5,0,0:0:0:0:
51,147,173763,1,0,0:0:0:0:
192,40,173994,1,0,0:0:0:0:
220,260,174224,1,0,0:0:0:0:
312,304,174455,2,0,P|336:216|336:192,1,100
432,80,174917,2,0,P|440:176|456:216,1,100
488,264,175378,6,0,L|480:313,2,50
368,352,175840,2,0,L|375:302,2,50
432,248,176301,5,0,0:0:0:0:
392,224,176416,1,0,0:0:0:0:
344,216,176531,1,0,0:0:0:0:
296,224,176647,1,0,0:0:0:0:
224,288,176763,1,0,0:0:0:0:
176,296,176879,1,0,0:0:0:0:
128,288,176994,1,0,0:0:0:0:
88,264,177109,1,0,0:0:0:0:
64,232,177224,6,0,P|48:120|56:64,1,150.000005722046
168,32,177686,2,0,P|184:144|176:200,1,150.000005722046
240,296,178147,1,0,0:0:0:0:
270,58,178378,1,0,0:0:0:0:
367,271,178609,1,0,0:0:0:0:
416,24,178840,1,0,0:0:0:0:
480,144,179070,6,0,P|488:256|480:312,1,150.000005722046
392,336,179532,1,0,0:0:0:0:
208,216,179763,1,0,0:0:0:0:
176,360,179994,1,0,0:0:0:0:
48,277,180224,2,0,P|51:314|56:352,4,75.0000028610231
64,168,180917,2,0,B|88:64|88:64|128:40,1,150.000005722046
187,202,181378,5,0,0:0:0:0:
232,24,181609,1,0,0:0:0:0:
270,313,181840,1,0,0:0:0:0:
308,60,182070,1,0,0:0:0:0:
352,384,182301,1,0,0:0:0:0:
375,100,182532,1,0,0:0:0:0:
456,368,182763,1,0,0:0:0:0:
464,232,182994,1,0,0:0:0:0:
456,128,183224,6,0,P|368:64|344:80,1,150.000005722046
296,160,183686,2,0,L|192:288,1,150.000005722046
40,328,184147,1,0,0:0:0:0:
104,80,184378,1,0,0:0:0:0:
152,256,184609,1,0,0:0:0:0:
16,184,184840,1,0,0:0:0:0:
192,232,185070,6,0,P|264:168|256:112,1,150.000005722046
288,32,185532,1,0,0:0:0:0:
368,176,185763,1,0,0:0:0:0:
472,32,185994,1,0,0:0:0:0:
424,312,186224,1,0,0:0:0:0:
240,64,186455,5,0,0:0:0:0:
336,352,186686,1,0,0:0:0:0:
208,336,186917,2,0,P|64:328|32:312,1,150.000005722046
48,232,187378,1,0,0:0:0:0:
56,128,187609,2,0,P|160:64|208:48,1,150.000005722046
288,64,188070,1,0,0:0:0:0:
392,32,188301,5,0,0:0:0:0:
495,165,188532,1,0,0:0:0:0:
344,272,188763,1,0,0:0:0:0:
472,52,188994,1,0,0:0:0:0:
416,375,189224,1,0,0:0:0:0:
472,80,189455,1,0,0:0:0:0:
117,322,189686,1,0,0:0:0:0:
450,194,189917,1,0,0:0:0:0:
22,204,190147,5,0,0:0:0:0:
391,335,190378,1,0,0:0:0:0:
114,19,190609,1,0,0:0:0:0:
136,368,190840,1,0,0:0:0:0:
395,43,191070,1,0,0:0:0:0:
56,288,191301,1,0,0:0:0:0:
343,376,191532,1,0,0:0:0:0:
200,24,191763,1,0,0:0:0:0:
112,147,191993,5,0,0:0:0:0:
103,384,192224,1,0,0:0:0:0:
397,242,192455,1,0,0:0:0:0:
39,255,192686,1,0,0:0:0:0:
176,96,192916,2,0,P|235:46|314:49,1,150.000005722046
384,128,193378,2,0,L|400:289,1,150.000005722046
272,320,193839,5,0,0:0:0:0:
168,192,194070,1,0,0:0:0:0:
256,64,194301,2,0,P|352:71|403:94,1,150.000005722046
448,192,194762,1,0,0:0:0:0:
278,307,194993,5,0,0:0:0:0:
152,192,195224,1,0,0:0:0:0:
352,152,195455,1,0,0:0:0:0:
184,32,195685,5,0,0:0:0:0:
73,143,195916,2,0,P|62:234|67:292,1,150.000005722046
178,349,196378,1,0,0:0:0:0:
216,144,196609,1,0,0:0:0:0:
344,360,196839,1,0,0:0:0:0:
392,96,197070,1,0,0:0:0:0:
512,240,197301,1,0,0:0:0:0:
466,95,197532,6,0,B|395:55|395:55|291:80,1,150.000005722046
288,200,197993,1,0,0:0:0:0:
264,8,198224,1,0,0:0:0:0:
232,112,198455,1,0,0:0:0:0:
96,288,198686,1,0,0:0:0:0:
235,318,198916,2,0,P|355:300|389:291,1,150.000005722046
482,198,199378,6,0,L|464:351,1,150.000005722046
394,296,199839,1,0,0:0:0:0:
248,256,200070,1,0,0:0:0:0:
400,200,200301,1,0,0:0:0:0:
112,104,200532,1,0,0:0:0:0:
424,80,200762,1,0,0:0:0:0:
40,32,200993,1,0,0:0:0:0:
44,170,201224,6,0,P|60:291|77:322,1,150.000005722046
169,263,201686,2,0,L|331:277,1,150.000005722046
415,233,202147,1,0,0:0:0:0:
378,123,202378,2,0,L|276:89,4,75.0000028610231
206,81,203070,5,0,0:0:0:0:
48,224,203301,1,0,0:0:0:0:
208,352,203532,1,0,0:0:0:0:
352,160,203762,1,0,0:0:0:0:
432,256,203993,2,0,P|391:341|338:329,1,150.000005722046
302,220,204455,2,0,L|171:121,1,150.000005722046
142,29,204916,5,0,0:0:0:0:
24,176,205147,1,0,0:0:0:0:
182,73,205378,1,0,0:0:0:0:
219,377,205609,1,0,0:0:0:0:
63,300,205840,1,0,0:0:0:0:
453,170,206070,1,0,0:0:0:0:
423,327,206301,1,0,0:0:0:0:
256,0,206532,1,0,0:0:0:0:
146,165,206762,6,0,P|139:219|150:270,1,75.0000028610231
