osu file format v14

[General]
AudioFilename: audio.mp3
AudioLeadIn: 0
PreviewTime: 66172
Countdown: 0
SampleSet: Normal
StackLeniency: 0.7
Mode: 0
LetterboxInBreaks: 0
WidescreenStoryboard: 0

[Editor]
DistanceSpacing: 1
BeatDivisor: 4
GridSize: 4
TimelineZoom: 1

[Metadata]
Title:Gabriel Dropkick
TitleUnicode:Gabriel Dropkick
Artist:Maeyamada Kenichi
ArtistUnicode:Maeyamada Kenichi
Creator:I Hate Smoothie
Version:Normal
Source:ガヴリールドロップアウト
Tags:OP - opening - TVsize
BeatmapID:1185351
BeatmapSetID:560266

[Difficulty]
HPDrainRate:5
CircleSize:3.5
OverallDifficulty:5
ApproachRate:5
SliderMultiplier:1.2
SliderTickRate:1

[Events]
//Background and Video events
0,0,"L7VXgfh.jpg",0,0
//Break Periods
2,41729,43543
//Storyboard Layer 0 (Background)
//Storyboard Layer 1 (Fail)
//Storyboard Layer 2 (Pass)
//Storyboard Layer 3 (Foreground)
//Storyboard Sound Samples

[TimingPoints]
3315,357.142857142857,4,2,1,100,1,0
3315,-100,4,2,1,100,0,0
9029,-133.333333333333,4,2,1,100,0,0
10457,-100,4,2,2,100,0,0
21886,-100,4,2,1,100,0,0
24743,-100,4,1,2,100,0,0
27600,-100,4,2,1,100,0,0
30457,-100,4,1,2,100,0,0
31886,-200,4,1,1,100,0,0
32957,-100,4,1,1,100,0,0
33314,-100,4,2,2,100,0,0
36172,-100,4,1,2,100,0,0
39029,-100,4,2,2,100,0,0
41886,-200,4,1,1,100,0,0
44743,-100,4,1,2,100,0,0
56172,-100,4,1,2,100,0,0
59029,-100,4,1,1,100,0,0
66172,-100,4,1,2,100,0,1
81886,-133.333333333333,4,1,1,100,0,1
83314,-100,4,2,1,100,0,0

[Colours]
Combo1 : 52,150,222
Combo2 : 0,255,166
Combo3 : 58,58,58

[HitObjects]
124,116,3315,6,0,B|200:104|200:104|256:80,1,120,8|0,0:0|0:0,0:0:0:0:
348,36,4029,1,0,0:0:0:0:
408,140,4386,1,0,0:0:0:0:
332,232,4743,2,0,B|244:224|232:180|84:192,1,240,8|0,0:0|0:0,0:0:0:0:
108,312,5815,1,0,0:0:0:0:
232,316,6172,6,0,B|308:316|352:308|376:292,1,120,8|0,0:0|0:0,0:0:0:0:
436,220,6886,1,0,0:0:0:0:
340,148,7243,1,0,0:0:0:0:
228,108,7600,2,0,L|96:100,1,120,8|0,0:0|0:0,0:0:0:0:
120,184,8136,2,0,L|244:196,1,120,8|0,0:0|0:0,0:0:0:0:
312,228,8672,1,0,0:0:0:0:
372,164,9029,2,0,B|432:236|380:364|532:376,1,270.000010299683,8|8,0:0|0:0,0:0:0:0:
484,256,10457,6,0,P|452:200|412:156,1,120,10|8,0:0|0:0,0:0:0:0:
316,92,11172,1,8,0:0:0:0:
256,80,11350,1,0,0:0:0:0:
196,84,11529,1,8,0:0:0:0:
100,184,11886,6,0,P|92:272|104:304,1,120,10|8,0:0|0:0,0:0:0:0:
220,324,12600,1,8,0:0:0:0:
280,320,12779,1,0,0:0:0:0:
340,312,12957,1,8,0:0:0:0:
392,204,13314,5,10,0:0:0:0:
392,204,13493,2,0,P|356:160|340:148,2,60,0|8|0,0:0|0:0|0:0,0:0:0:0:
396,264,14029,1,10,0:0:0:0:
396,264,14207,2,0,P|392:300|368:332,2,60,0|8|0,0:0|0:0|0:0,0:0:0:0:
400,204,14743,6,0,P|384:140|332:100,1,120,10|8,0:0|0:0,0:0:0:0:
228,80,15457,1,10,0:0:0:0:
168,84,15636,1,10,0:0:0:0:
112,100,15814,1,10,0:0:0:0:
96,220,16172,6,0,P|160:208|176:208,3,60,10|0|8|0,0:0|0:0|0:0|0:0,0:0:0:0:
216,204,16886,2,0,P|280:200|300:204,1,60,8|0,0:0|0:0,0:0:0:0:
336,200,17243,2,0,P|376:200|408:204,1,60,8|0,0:0|0:0,0:0:0:0:
392,264,17600,6,0,L|392:328,3,60,10|0|8|0,0:0|0:0|0:0|0:0,0:0:0:0:
332,332,18314,2,0,P|268:336|248:328,1,60,8|0,0:0|0:0,0:0:0:0:
212,336,18672,2,0,P|156:328|136:320,1,60,8|0,0:0|0:0,0:0:0:0:
124,276,19029,6,0,L|116:224,7,30,8|0|0|0|0|0|0|0,0:0|0:0|0:0|0:0|0:0|0:0|0:0|0:0,0:0:0:0:
148,256,19743,2,0,L|184:224,7,30,8|0|0|0|0|0|0|0,0:0|0:0|0:0|0:0|0:0|0:0|0:0|0:0,0:0:0:0:
200,224,20457,1,10,0:0:0:0:
300,160,20814,1,10,0:0:0:0:
404,220,21172,1,6,0:0:0:0:
168,264,21886,5,8,0:0:0:0:
168,264,22064,2,0,P|144:192|160:152,1,120
200,112,22600,2,0,L|256:64,1,60,8|0,0:0|0:0,0:0:0:0:
304,68,22957,2,0,L|392:76,1,60,8|0,0:0|0:0,0:0:0:0:
416,104,23314,1,0,0:0:0:0:
444,220,23672,2,0,P|448:284|388:296,1,120,8|0,0:0|0:0,0:0:0:0:
288,332,24386,1,0,0:0:0:0:
184,276,24743,6,0,P|116:236|152:136,1,180,12|0,0:0|0:0,0:0:0:0:
172,100,25457,1,10,0:0:0:0:
224,72,25636,1,0,0:0:0:0:
284,60,25814,1,10,0:0:0:0:
344,64,25993,1,0,0:0:0:0:
400,168,26350,2,0,L|432:240,1,60,2|8,0:0|0:0,0:0:0:0:
372,252,26707,2,0,L|344:312,1,60,2|8,0:0|0:0,0:0:0:0:
228,316,27243,1,4,0:0:0:0:
140,232,27600,6,0,P|116:168|136:116,1,120,8|0,0:0|0:0,0:0:0:0:
244,160,28314,1,0,0:0:0:0:
328,72,28672,1,0,0:0:0:0:
388,176,29029,2,0,L|348:240,1,60,8|0,0:0|0:0,0:0:0:0:
400,268,29386,2,0,L|352:332,1,60,8|0,0:0|0:0,0:0:0:0:
304,324,29743,2,0,P|232:324|168:308,1,120
116,216,30457,6,0,P|144:148|188:112,1,120,4|0,0:0|0:0,0:0:0:0:
220,232,31172,2,0,P|248:176|308:148,1,120,10|0,0:0|0:0,0:0:0:0:
352,172,31886,2,0,P|424:264|416:324,1,180,10|0,0:0|0:0,0:0:0:0:
296,328,33314,5,8,0:0:0:0:
176,308,33672,1,8,0:0:0:0:
132,196,34029,2,0,L|168:136,1,60,8|0,0:0|0:0,0:0:0:0:
208,184,34386,2,0,L|248:128,1,60,8|0,0:0|0:0,0:0:0:0:
300,120,34743,2,0,L|376:152,1,60,8|0,0:0|0:0,0:0:0:0:
364,204,35100,2,0,L|432:232,1,60
412,288,35457,2,0,P|344:328|284:328,1,120,8|0,0:0|0:0,0:0:0:0:
200,268,36172,6,0,B|176:240|176:204|176:204,1,60,6|0,0:0|0:0,0:0:0:0:
236,216,36529,2,0,P|224:160|224:148,1,60,8|0,0:0|0:0,0:0:0:0:
264,112,36886,1,10,0:0:0:0:
376,72,37243,1,8,0:0:0:0:
368,192,37600,2,0,P|348:256|344:264,1,60,10|0,0:0|0:0,0:0:0:0:
292,264,37957,2,0,P|264:312|252:328,1,60,8|0,0:0|0:0,0:0:0:0:
200,316,38314,2,0,B|128:308|112:288|84:240,1,120,10|0,0:0|0:0,0:0:0:0:
108,144,39029,5,8,0:0:0:0:
212,80,39386,2,0,P|264:60|280:56,1,60,8|0,0:0|0:0,0:0:0:0:
304,108,39743,2,0,P|360:92|388:88,1,60,8|0,0:0|0:0,0:0:0:0:
412,128,40100,1,8,0:0:0:0:
412,128,40279,1,0,0:0:0:0:
400,188,40457,2,0,P|384:240|376:248,1,60,8|0,0:0|0:0,0:0:0:0:
348,292,40814,2,0,P|312:320|288:332,1,60,8|0,0:0|0:0,0:0:0:0:
240,328,41172,2,0,P|140:292|124:276,1,120,8|0,0:0|0:0,0:0:0:0:
56,116,44743,6,0,P|108:80|128:76,1,60,10|0,0:0|0:0,0:0:0:0:
156,108,45100,2,0,P|208:88|220:88,1,60,8|0,0:0|0:0,0:0:0:0:
268,104,45457,2,0,P|332:96|352:96,3,60,10|0|8|0,0:0|0:0|0:0|0:0,0:0:0:0:
376,132,46172,6,0,P|412:176|416:192,1,60,10|0,0:0|0:0,0:0:0:0:
408,236,46529,2,0,P|404:284|400:304,1,60
344,312,46886,2,0,P|280:320|272:320,3,60,10|0|8|0,0:0|0:0|0:0|0:0,0:0:0:0:
228,296,47600,5,2,0:0:0:0:
112,260,47957,1,0,0:0:0:0:
104,140,48314,2,0,P|156:100|168:100,1,60,10|0,0:0|0:0,0:0:0:0:
208,108,48672,2,0,P|240:84|268:80,1,60,8|0,0:0|0:0,0:0:0:0:
308,116,49029,6,0,P|328:160|400:168,1,120
324,268,49743,2,0,L|252:256,1,60
220,220,50100,2,0,L|140:204,1,60
108,184,50457,6,0,P|104:144|132:124,1,60,10|0,0:0|0:0,0:0:0:0:
168,104,50814,2,0,P|216:84|240:84,1,60,8|0,0:0|0:0,0:0:0:0:
284,88,51172,1,10,0:0:0:0:
284,88,51350,1,0,0:0:0:0:
340,116,51529,2,0,P|368:136|392:168,1,60,8|0,0:0|0:0,0:0:0:0:
384,220,51886,5,10,0:0:0:0:
384,220,52064,1,0,0:0:0:0:
380,280,52243,2,0,P|364:316|324:324,1,60,8|0,0:0|0:0,0:0:0:0:
288,324,52600,1,10,0:0:0:0:
288,324,52779,1,0,0:0:0:0:
228,320,52957,2,0,L|168:320,1,60,8|0,0:0|0:0,0:0:0:0:
132,272,53314,6,0,L|96:216,1,60,10|0,0:0|0:0,0:0:0:0:
160,220,53672,2,0,L|204:164,1,60,8|0,0:0|0:0,0:0:0:0:
140,160,54029,2,0,L|88:116,1,60,10|0,0:0|0:0,0:0:0:0:
152,100,54386,2,0,L|196:56,1,60,8|0,0:0|0:0,0:0:0:0:
252,68,54743,2,0,L|312:68,1,60,10|0,0:0|0:0,0:0:0:0:
352,112,55100,2,0,L|396:156,1,60,8|0,0:0|0:0,0:0:0:0:
400,216,55457,2,0,L|400:280,1,60,10|0,0:0|0:0,0:0:0:0:
356,316,55814,2,0,L|284:324,1,60,8|0,0:0|0:0,0:0:0:0:
236,320,56172,6,8,P|172:308|144:264,1,120
260,240,56886,2,0,P|328:240|360:176,1,120,8|8,0:0|0:0,0:0:0:0:
288,104,57600,1,8,0:0:0:0:
180,160,57957,2,0,L|144:228,1,60,8|0,0:0|0:0,0:0:0:0:
208,240,58314,2,0,L|176:304,1,60,8|0,0:0|0:0,0:0:0:0:
120,300,58672,1,8,0:0:0:0:
120,300,58850,1,0,0:0:0:0:
256,192,59029,12,0,64743,0:0:0:0:
136,156,66172,6,0,L|88:84,3,60,10|0|8|0,0:0|0:0|0:0|0:0,0:0:0:0:
160,124,66886,2,0,L|148:52,3,60,10|0|8|0,0:0|0:0|0:0|0:0,0:0:0:0:
212,68,67600,2,0,L|284:56,1,60,10|0,0:0|0:0,0:0:0:0:
328,80,67957,2,0,L|392:80,1,60,8|0,0:0|0:0,0:0:0:0:
416,132,68314,1,10,0:0:0:0:
428,192,68493,1,0,0:0:0:0:
404,248,68672,2,0,P|384:292|368:304,1,60,8|0,0:0|0:0,0:0:0:0:
316,308,69029,6,4,P|208:312|60:296,1,240,2|4,0:0|0:0,0:0:0:0:
56,180,70100,1,0,0:0:0:0:
160,120,70457,2,0,L|224:100,1,60,10|0,0:0|0:0,0:0:0:0:
276,100,70814,2,0,L|360:80,1,60,8|0,0:0|0:0,0:0:0:0:
376,132,71172,1,10,0:0:0:0:
396,188,71350,1,0,0:0:0:0:
388,248,71529,2,0,P|368:296|360:320,1,60,8|0,0:0|0:0,0:0:0:0:
308,316,71886,6,0,L|240:320,1,60,10|0,0:0|0:0,0:0:0:0:
188,320,72243,2,0,P|148:316|124:280,1,60,8|0,0:0|0:0,0:0:0:0:
96,256,72600,1,10,0:0:0:0:
88,196,72779,1,0,0:0:0:0:
116,144,72957,2,0,L|200:140,1,60,8|0,0:0|0:0,0:0:0:0:
236,144,73314,5,10,0:0:0:0:
296,148,73493,1,0,0:0:0:0:
356,152,73672,2,0,L|432:156,1,60,8|0,0:0|0:0,0:0:0:0:
388,208,74029,2,0,L|312:204,1,60,10|0,0:0|0:0,0:0:0:0:
356,260,74386,2,0,L|420:264,1,60,8|0,0:0|0:0,0:0:0:0:
388,316,74743,6,0,P|308:316|140:304,1,240,10|4,0:0|0:0,0:0:0:0:
76,208,75814,1,0,0:0:0:0:
144,108,76172,2,0,L|208:76,1,60,10|0,0:0|0:0,0:0:0:0:
256,96,76529,2,0,L|332:72,1,60,8|0,0:0|0:0,0:0:0:0:
364,112,76886,1,10,0:0:0:0:
400,160,77064,1,0,0:0:0:0:
412,220,77243,2,0,L|408:288,1,60,8|0,0:0|0:0,0:0:0:0:
356,312,77600,5,10,0:0:0:0:
296,324,77779,1,0,0:0:0:0:
236,328,77957,2,0,L|152:324,1,60,8|0,0:0|0:0,0:0:0:0:
120,308,78314,2,0,L|68:252,1,60,10|0,0:0|0:0,0:0:0:0:
68,204,78672,1,12,0:0:0:0:
132,104,79029,5,10,0:0:0:0:
188,84,79207,1,0,0:0:0:0:
248,72,79386,2,0,P|300:72|324:80,1,60,8|0,0:0|0:0,0:0:0:0:
364,100,79743,2,8,P|432:160|440:200,1,120,10|12,0:0|0:0,0:0:0:0:
388,292,80457,5,10,0:0:0:0:
332,312,80636,1,0,0:0:0:0:
272,312,80814,1,8,0:0:0:0:
152,304,81172,1,10,0:0:0:0:
104,268,81350,1,0,0:0:0:0:
84,212,81529,1,8,0:0:0:0:
68,124,81886,6,0,B|120:88|184:64|236:56|336:52|420:80,1,360.000013732911,10|0,0:0|0:0,0:0:0:0:
404,196,83672,5,0,0:0:0:0:
324,284,84029,1,0,0:0:0:0:
208,312,84386,1,0,0:0:0:0:
124,224,84743,2,0,P|160:168|208:152,1,120
208,151,85457,1,10,0:0:0:0:
416,272,86172,2,0,P|352:300|292:304,1,120
