osu file format v14

[General]
AudioFilename: audio.mp3
AudioLeadIn: 0
PreviewTime: 66172
Countdown: 0
SampleSet: Soft
StackLeniency: 0.7
Mode: 0
LetterboxInBreaks: 0
WidescreenStoryboard: 0

[Editor]
Bookmarks: 3315,10457,21886,33314,44743,56172,66172
DistanceSpacing: 1.7
BeatDivisor: 4
GridSize: 4
TimelineZoom: 1

[Metadata]
Title:Gabriel Dropkick
TitleUnicode:Gabriel Dropkick
Artist:Maeyamada Kenichi
ArtistUnicode:Maeyamada Kenichi
Creator:I Hate Smoothie
Version:Insane
Source:ガヴリールドロップアウト
Tags:OP - opening - TVsize
BeatmapID:1184978
BeatmapSetID:560266

[Difficulty]
HPDrainRate:6
CircleSize:4
OverallDifficulty:7.6
ApproachRate:9
SliderMultiplier:1.8
SliderTickRate:1

[Events]
//Background and Video events
0,0,"L7VXgfh.jpg",0,0
//Break Periods
//Storyboard Layer 0 (Background)
//Storyboard Layer 1 (Fail)
//Storyboard Layer 2 (Pass)
//Storyboard Layer 3 (Foreground)
//Storyboard Sound Samples

[TimingPoints]
3315,357.142857142857,4,2,0,60,1,0
3315,-133.333333333333,4,2,1,60,0,0
4743,-200,4,2,1,60,0,0
5100,-133.333333333333,4,2,1,60,0,0
6172,-200,4,2,1,60,0,0
7422,-133.333333333333,4,2,1,60,0,0
9029,-153.846153846153,4,2,1,60,0,0
10457,-100,4,1,1,60,0,0
21886,-200,4,2,1,60,0,0
22243,-100,4,2,1,60,0,0
23314,-200,4,2,1,60,0,0
23493,-100,4,2,1,60,0,0
24743,-200,4,1,2,60,0,0
25100,-100,4,1,2,60,0,0
26886,-100,4,1,2,60,0,0
27243,-100,4,1,2,60,0,0
27600,-100,4,2,1,60,0,0
28314,-133.333333333333,4,2,1,60,0,0
28493,-100,4,2,1,60,0,0
30457,-100,4,1,2,60,0,0
33314,-100,4,2,2,60,0,0
36172,-100,4,1,2,60,0,0
39029,-100,4,2,2,60,0,0
41886,-200,4,1,1,60,0,0
44743,-100,4,1,2,60,0,0
55011,-100,4,1,2,60,0,0
55279,-100,4,1,2,60,0,0
56172,-100,4,2,1,60,0,0
63672,-133.333333333333,4,2,1,60,0,0
64029,-133.333333333333,4,2,1,60,0,0
64743,-133.333333333333,4,2,1,60,0,0
65457,-133.333333333333,4,2,1,60,0,0
66172,-100,4,1,1,60,0,1
77600,-100,4,1,1,60,0,1
83314,-100,4,1,1,60,0,0
83672,-100,4,2,1,60,0,0
86886,-100,4,2,1,10,0,0

[Colours]
Combo1 : 58,58,58
Combo2 : 0,255,168
Combo3 : 52,150,222

[HitObjects]
88,296,3315,5,8,0:0:0:0:
204,88,3850,1,0,0:0:0:0:
144,180,4029,1,0,0:0:0:0:
252,180,4207,1,0,0:0:0:0:
324,92,4386,2,0,P|372:116|396:132,1,67.5000025749208
424,188,4743,6,0,P|432:236|420:288,1,90,8|0,0:0|0:0,0:0:0:0:
316,312,5279,1,0,0:0:0:0:
264,208,5457,1,0,0:0:0:0:
196,300,5636,1,0,0:0:0:0:
100,236,5814,2,0,P|96:184|104:144,1,67.5000025749208
136,104,6172,6,0,L|196:84,1,45,8|0,0:0|0:0,0:0:0:0:
320,168,6529,2,0,L|264:184,1,45
132,272,6886,2,0,L|180:260,1,45
320,304,7243,2,0,L|256:320,1,45
88,228,7600,2,0,P|80:176|116:76,1,135.000005149842,8|0,0:0|0:0,0:0:0:0:
212,60,8136,2,0,P|280:60|368:100,1,135.000005149842,8|0,0:0|0:0,0:0:0:0:
396,184,8672,1,0,0:0:0:0:
168,260,9029,6,0,B|132:184|208:208|168:104|168:104|176:52|220:184|340:100,1,350.999983932496,8|0,0:0|0:0,0:0:0:0:
356,308,10279,1,0,0:0:0:0:
356,308,10368,1,0,0:0:0:0:
356,308,10457,6,0,P|296:324|268:324,1,90,12|0,0:0|0:0,0:0:0:0:
136,252,10814,1,8,0:0:0:0:
172,236,10904,1,0,0:0:0:0:
208,224,10993,1,0,0:0:0:0:
367,279,11172,2,0,P|387:211|371:155,1,90,8|0,0:0|0:0,0:0:0:0:
236,116,11529,2,0,P|220:184|244:236,1,90,10|0,0:0|0:0,0:0:0:0:
386,194,11886,5,8,0:0:0:0:
386,194,11975,1,0,0:0:0:0:
386,194,12064,1,0,0:0:0:0:
296,320,12243,2,2,L|192:320,1,90,10|2,0:0|0:0,0:0:0:0:
112,232,12600,1,8,0:0:0:0:
112,232,12689,1,0,0:0:0:0:
112,232,12779,1,0,0:0:0:0:
148,104,12957,2,2,P|228:84|276:96,1,90,10|0,0:0|0:0,0:0:0:0:
268,296,13314,5,8,0:0:0:0:
336,128,13493,1,0,0:0:0:0:
188,216,13672,1,10,0:0:0:0:
356,220,13850,1,0,0:0:0:0:
120,84,14029,2,0,P|112:160|128:200,1,90,8|0,0:0|0:0,0:0:0:0:
272,188,14386,1,10,0:0:0:0:
180,292,14564,1,0,0:0:0:0:
372,312,14743,6,0,P|388:256|380:132,1,180,8|10,0:0|0:0,0:0:0:0:
381,135,15279,1,0,0:0:0:0:
160,120,15457,1,10,0:0:0:0:
145,162,15547,1,0,0:0:0:0:
139,207,15636,1,0,0:0:0:0:
142,251,15725,1,0,0:0:0:0:
152,295,15814,1,10,0:0:0:0:
328,304,16172,6,10,L|368:256,1,45,8|8,0:0|0:0,0:0:0:0:
396,216,16350,2,0,L|368:164,1,45
328,104,16529,1,10,0:0:0:0:
256,316,16707,1,0,0:0:0:0:
204,168,16886,1,8,0:0:0:0:
340,240,17064,1,0,0:0:0:0:
216,280,17243,1,10,0:0:0:0:
308,132,17422,1,0,0:0:0:0:
448,148,17600,6,2,L|464:200,1,45,8|0,0:0|0:0,0:0:0:0:
456,232,17779,2,0,L|436:276,1,45
404,304,17957,2,0,P|340:320|300:316,1,90,10|0,0:0|0:0,0:0:0:0:
144,240,18314,2,2,P|212:224|264:232,1,90,8|0,0:0|0:0,0:0:0:0:
224,128,18672,2,2,P|296:112|348:120,1,90,8|0,0:0|0:0,0:0:0:0:
408,232,19029,6,2,P|400:288|392:300,1,45,10|0,0:0|0:0,0:0:0:0:
384,312,19207,1,0,0:0:0:0:
284,248,19386,1,8,0:0:0:0:
352,164,19564,1,0,0:0:0:0:
264,84,19743,2,2,L|184:88,1,45,10|0,0:0|0:0,0:0:0:0:
176,96,19922,1,0,0:0:0:0:
284,248,20100,1,8,0:0:0:0:
240,56,20279,1,0,0:0:0:0:
68,184,20457,5,10,0:0:0:0:
240,256,20636,1,0,0:0:0:0:
68,184,20814,1,10,0:0:0:0:
240,152,20993,1,0,0:0:0:0:
68,184,21172,2,0,P|120:120|180:188,1,180,4|0,0:0|0:0,0:0:0:0:
196,324,21886,6,8,P|152:308|112:264,1,90,8|0,0:0|0:0,0:0:0:0:
148,128,22422,1,0,0:0:0:0:
300,156,22600,1,8,0:0:0:0:
164,228,22779,1,0,0:0:0:0:
252,104,22957,2,0,P|308:104|348:116,1,90
408,196,23314,2,0,P|412:220|412:252,1,45,8|0,0:0|0:0,0:0:0:0:
320,320,23672,6,0,P|264:300|240:280,1,90
344,128,24029,1,8,0:0:0:0:
192,172,24207,1,0,0:0:0:0:
280,60,24386,1,0,0:0:0:0:
360,240,24564,1,0,0:0:0:0:
192,172,24743,6,0,P|188:252|196:276,1,90,4|0,0:0|0:0,0:0:0:0:
190,260,25279,1,0,0:0:0:0:
340,244,25457,1,10,0:0:0:0:
432,120,25636,1,0,0:0:0:0:
340,244,25814,2,0,P|328:176|308:144,1,90
188,80,26172,1,10,0:0:0:0:
188,80,26261,1,0,0:0:0:0:
188,80,26350,2,0,P|168:132|164:184,1,90
304,232,26707,1,0,0:0:0:0:
104,288,26886,6,0,B|72:240|76:192|76:192,3,90,10|0|0|0,0:0|0:0|0:0|0:0,0:0:0:0:
136,68,27600,5,8,0:0:0:0:
220,292,27957,1,0,0:0:0:0:
288,120,28314,2,0,L|372:96,1,67.5000025749208,8|0,0:0|0:0,0:0:0:0:
352,101,28672,1,0,0:0:0:0:
256,216,28850,1,0,0:0:0:0:
384,196,29029,1,8,0:0:0:0:
276,328,29207,1,0,0:0:0:0:
140,256,29386,2,0,P|128:192|136:136,1,90
48,256,29743,2,0,P|44:136|60:64,1,180,8|0,0:0|0:0,0:0:0:0:
180,192,30457,5,12,0:0:0:0:
180,192,30547,1,0,0:0:0:0:
180,192,30636,1,0,0:0:0:0:
268,68,30814,2,0,P|336:80|376:92,1,90
428,220,31172,2,0,P|364:240|332:244,1,90,10|0,0:0|0:0,0:0:0:0:
200,184,31529,2,0,P|188:252|192:288,1,90
340,296,31886,5,2,0:0:0:0:
340,296,31975,1,0,0:0:0:0:
340,296,32064,1,0,0:0:0:0:
452,204,32243,1,0,0:0:0:0:
448,160,32332,1,0,0:0:0:0:
440,108,32422,1,0,0:0:0:0:
336,68,32600,2,0,P|260:48|228:52,1,90,2|0,0:0|0:0,0:0:0:0:
188,144,32957,2,0,P|152:188|112:204,1,90
220,304,33314,6,0,P|276:296|336:260,1,90,10|0,0:0|0:0,0:0:0:0:
408,100,33672,1,10,0:0:0:0:
336,208,33850,1,0,0:0:0:0:
249,108,34029,1,10,0:0:0:0:
230,324,34207,1,0,0:0:0:0:
340,215,34386,1,10,0:0:0:0:
200,164,34564,1,0,0:0:0:0:
341,280,34743,6,0,P|376:272|436:264,1,90,10|0,0:0|0:0,0:0:0:0:
356,164,35100,2,0,P|416:152|448:152,1,90,10|0,0:0|0:0,0:0:0:0:
429,264,35457,1,10,0:0:0:0:
316,312,35636,1,0,0:0:0:0:
188,304,35814,2,0,P|148:244|148:196,1,90,10|0,0:0|0:0,0:0:0:0:
176,108,36172,5,12,0:0:0:0:
176,108,36261,1,0,0:0:0:0:
176,108,36350,1,0,0:0:0:0:
176,108,36439,1,0,0:0:0:0:
176,108,36529,2,0,P|228:100|272:104,1,90,8|0,0:0|0:0,0:0:0:0:
184,280,36886,1,8,0:0:0:0:
328,168,37064,1,0,0:0:0:0:
172,184,37243,1,8,0:0:0:0:
312,304,37422,1,0,0:0:0:0:
152,208,37600,6,0,P|112:136|120:92,1,90,10|0,0:0|0:0,0:0:0:0:
196,64,37957,1,8,0:0:0:0:
196,64,38047,1,0,0:0:0:0:
196,64,38136,1,0,0:0:0:0:
196,64,38225,1,0,0:0:0:0:
196,64,38314,2,0,P|256:60|308:64,1,90,8|0,0:0|0:0,0:0:0:0:
400,200,38672,2,0,P|392:256|384:300,1,90,8|0,0:0|0:0,0:0:0:0:
200,328,39029,5,8,0:0:0:0:
152,140,39386,2,0,P|184:104|228:80,1,90,8|0,0:0|0:0,0:0:0:0:
320,184,39743,1,8,0:0:0:0:
136,232,39922,1,0,0:0:0:0:
292,264,40100,1,8,0:0:0:0:
160,156,40279,1,0,0:0:0:0:
156,296,40457,1,8,0:0:0:0:
276,124,40636,5,0,0:0:0:0:
128,200,40814,1,8,0:0:0:0:
304,260,40993,1,0,0:0:0:0:
120,296,41172,2,0,P|112:188|128:84,1,180,8|0,0:0|0:0,0:0:0:0:
208,72,41886,6,0,B|232:200|232:200|372:96|372:96|356:224|356:224|448:224|448:224|448:328|448:328,1,630,4|0,0:0|0:0,0:0:0:0:
324,48,44743,5,10,0:0:0:0:
128,92,44922,1,0,0:0:0:0:
332,136,45100,1,10,0:0:0:0:
128,92,45279,1,0,0:0:0:0:
384,68,45457,1,10,0:0:0:0:
389,102,45547,1,0,0:0:0:0:
398,146,45636,1,0,0:0:0:0:
403,191,45725,1,0,0:0:0:0:
404,232,45814,2,0,P|404:284|404:312,3,45,8|0|0|0,0:0|0:0|0:0|0:0,0:0:0:0:
296,300,46172,6,0,P|240:312|200:308,1,90,10|0,0:0|0:0,0:0:0:0:
100,244,46529,2,0,P|184:216|220:220,1,90,10|0,0:0|0:0,0:0:0:0:
284,228,46886,2,0,L|308:176,1,45,10|0,0:0|0:0,0:0:0:0:
352,216,47064,2,0,L|376:168,1,45
412,208,47243,2,0,L|440:156,3,45,8|0|0|0,0:0|0:0|0:0|0:0,0:0:0:0:
312,296,47600,6,0,P|296:212|288:176,1,90,10|0,0:0|0:0,0:0:0:0:
180,252,47957,2,0,P|188:200|192:164,3,45,10|0|0|0,0:0|0:0|0:0|0:0,0:0:0:0:
264,328,48314,2,0,L|336:308,1,45,10|0,0:0|0:0,0:0:0:0:
284,260,48493,2,0,L|344:244,1,45
304,192,48672,2,0,L|352:180,3,45,8|0|0|0,0:0|0:0|0:0|0:0,0:0:0:0:
388,168,49029,5,0,0:0:0:0:
228,64,49386,1,0,0:0:0:0:
120,164,49743,2,0,P|128:240|136:280,1,90
224,188,50100,2,0,P|232:252|240:284,1,90
368,256,50457,5,10,0:0:0:0:
368,256,50547,1,0,0:0:0:0:
368,256,50636,1,0,0:0:0:0:
368,256,50725,1,0,0:0:0:0:
368,256,50814,2,0,P|388:180|384:136,1,90,8|0,0:0|0:0,0:0:0:0:
244,108,51172,1,10,0:0:0:0:
128,204,51350,1,0,0:0:0:0:
252,296,51529,1,8,0:0:0:0:
188,96,51707,1,0,0:0:0:0:
144,268,51886,5,10,0:0:0:0:
144,268,51975,1,0,0:0:0:0:
144,268,52064,1,0,0:0:0:0:
144,268,52154,1,0,0:0:0:0:
144,268,52243,2,0,P|200:252|236:248,1,90,8|0,0:0|0:0,0:0:0:0:
348,148,52600,1,10,0:0:0:0:
260,316,52779,1,0,0:0:0:0:
240,152,52957,1,8,0:0:0:0:
360,304,53136,1,0,0:0:0:0:
148,244,53314,6,0,P|104:208|76:176,1,90,10|0,0:0|0:0,0:0:0:0:
204,92,53672,1,8,0:0:0:0:
332,176,53850,1,0,0:0:0:0:
188,232,54029,2,0,P|188:296|192:332,1,90,10|0,0:0|0:0,0:0:0:0:
344,324,54386,2,0,P|408:316|448:300,1,90,8|0,0:0|0:0,0:0:0:0:
424,156,54743,5,10,0:0:0:0:
252,252,54922,1,0,0:0:0:0:
440,252,55100,1,8,0:0:0:0:
260,160,55279,1,0,0:0:0:0:
292,308,55457,2,0,P|340:300|372:244,1,90,10|0,0:0|0:0,0:0:0:0:
404,120,55814,2,0,P|360:68|308:48,1,90,8|0,0:0|0:0,0:0:0:0:
140,112,56172,6,8,P|104:184|112:288,1,180,14|2,0:0|0:0,0:0:0:0:
240,228,56707,1,0,0:0:0:0:
284,332,56886,1,2,0:0:0:0:
360,252,57064,1,0,0:0:0:0:
476,272,57243,2,0,P|480:196|472:140,1,90,2|0,0:0|0:0,0:0:0:0:
376,72,57600,5,2,0:0:0:0:
224,328,57957,1,2,0:0:0:0:
160,100,58136,1,0,0:0:0:0:
56,296,58314,2,0,P|88:236|76:184,1,90,2|0,0:0|0:0,0:0:0:0:
188,76,58672,2,0,P|164:140|168:180,1,90,2|0,0:0|0:0,0:0:0:0:
316,120,59029,5,10,0:0:0:0:
160,200,59207,1,0,0:0:0:0:
304,244,59386,1,2,0:0:0:0:
192,92,59564,1,8,0:0:0:0:
232,268,59743,1,2,0:0:0:0:
316,136,59922,1,0,0:0:0:0:
136,184,60100,2,0,P|144:244|160:280,1,90,10|0,0:0|0:0,0:0:0:0:
272,320,60457,5,10,0:0:0:0:
272,320,60547,1,0,0:0:0:0:
272,320,60636,1,0,0:0:0:0:
272,320,60725,1,0,0:0:0:0:
272,320,60814,2,0,P|328:304|364:292,1,90,2|0,0:0|0:0,0:0:0:0:
376,48,61172,1,10,0:0:0:0:
444,216,61350,1,0,0:0:0:0:
320,164,61529,1,2,0:0:0:0:
488,88,61707,1,8,0:0:0:0:
296,304,61886,5,2,0:0:0:0:
296,304,61975,1,0,0:0:0:0:
296,304,62064,1,0,0:0:0:0:
296,304,62154,1,0,0:0:0:0:
296,304,62243,2,0,P|308:232|308:196,1,90,10|0,0:0|0:0,0:0:0:0:
128,109,62600,1,2,0:0:0:0:
351,168,62779,1,8,0:0:0:0:
128,109,62957,1,2,0:0:0:0:
363,79,63136,1,0,0:0:0:0:
266,290,63314,5,10,0:0:0:0:
266,290,63493,1,0,0:0:0:0:
104,208,63672,2,0,P|92:144|100:116,1,67.5000025749208,10|0,0:0|0:0,0:0:0:0:
224,140,64029,2,0,P|228:92|256:56,1,67.5000025749208,10|0,0:0|0:0,0:0:0:0:
344,120,64386,2,0,P|404:96|428:104,1,67.5000025749208,10|8,0:0|0:0,0:0:0:0:
256,192,64743,12,0,65993,0:0:0:0:
192,336,66172,5,14,0:0:0:0:
68,232,66350,1,0,0:0:0:0:
240,188,66529,1,8,0:0:0:0:
68,232,66707,1,0,0:0:0:0:
180,64,66886,5,14,0:0:0:0:
180,64,66975,1,0,0:0:0:0:
180,64,67064,1,0,0:0:0:0:
372,136,67243,2,0,P|373:193|389:233,1,90,8|0,0:0|0:0,0:0:0:0:
197,275,67600,5,14,0:0:0:0:
197,275,67689,1,0,0:0:0:0:
197,275,67779,1,0,0:0:0:0:
193,125,67957,1,8,0:0:0:0:
324,208,68136,1,0,0:0:0:0:
420,88,68314,6,0,P|460:112|502:142,1,90,10|0,0:0|0:0,0:0:0:0:
452,264,68672,2,0,P|436:304|399:342,1,90,8|0,0:0|0:0,0:0:0:0:
272,52,69029,5,10,0:0:0:0:
56,300,69386,2,0,B|24:216|48:160|72:112,1,180,0|14,0:0|0:0,0:0:0:0:
65,125,69922,1,0,0:0:0:0:
360,76,70100,1,8,0:0:0:0:
112,60,70279,1,0,0:0:0:0:
224,168,70457,1,10,0:0:0:0:
360,76,70725,5,0,0:0:0:0:
240,308,70993,1,0,0:0:0:0:
84,248,71172,1,10,0:0:0:0:
116,104,71350,2,0,P|165:84|209:75,1,90,0|4,0:0|0:0,0:0:0:0:
381,103,71886,5,14,0:0:0:0:
392,146,71975,1,0,0:0:0:0:
399,190,72064,1,0,0:0:0:0:
404,235,72154,1,0,0:0:0:0:
408,276,72243,2,0,L|416:328,2,45
272,207,72600,1,14,0:0:0:0:
160,269,72779,1,0,0:0:0:0:
213,160,72957,1,8,0:0:0:0:
91,215,73136,1,0,0:0:0:0:
103,107,73314,5,14,0:0:0:0:
144,90,73404,1,0,0:0:0:0:
188,80,73493,1,0,0:0:0:0:
233,76,73582,1,0,0:0:0:0:
272,76,73672,2,0,L|328:76,2,45
306,191,74029,1,10,0:0:0:0:
165,289,74207,1,0,0:0:0:0:
170,191,74386,1,8,0:0:0:0:
311,298,74564,1,0,0:0:0:0:
107,214,74743,5,10,0:0:0:0:
181,108,75100,2,2,P|250:87|360:82,1,180,0|14,0:0|0:0,0:0:0:0:
360,84,75636,1,0,0:0:0:0:
328,312,75814,1,8,0:0:0:0:
244,160,75993,1,0,0:0:0:0:
444,216,76172,1,10,0:0:0:0:
232,304,76439,5,0,0:0:0:0:
76,160,76707,1,0,0:0:0:0:
72,304,76886,1,10,0:0:0:0:
310,195,77064,1,0,0:0:0:0:
310,195,77154,1,0,0:0:0:0:
310,195,77243,1,12,0:0:0:0:
310,195,77600,5,10,0:0:0:0:
170,278,77779,1,0,0:0:0:0:
184,182,77957,1,8,0:0:0:0:
302,296,78136,1,0,0:0:0:0:
335,190,78314,1,10,0:0:0:0:
335,190,78404,1,0,0:0:0:0:
335,190,78493,1,0,0:0:0:0:
325,85,78672,2,0,P|260:72|188:72,1,135,12|0,0:0|0:0,0:0:0:0:
191,71,79029,5,10,0:0:0:0:
191,71,79118,1,0,0:0:0:0:
191,71,79207,1,0,0:0:0:0:
180,328,79386,1,8,0:0:0:0:
297,149,79564,1,0,0:0:0:0:
304,295,79743,2,0,P|229:291|210:280,1,90,10|0,0:0|0:0,0:0:0:0:
112,148,80100,2,0,P|183:174|240:168,1,135,12|0,0:0|0:0,0:0:0:0:
320,156,80457,5,10,0:0:0:0:
268,306,80636,1,0,0:0:0:0:
268,306,80725,1,0,0:0:0:0:
268,306,80814,1,12,0:0:0:0:
104,219,81172,1,10,0:0:0:0:
206,72,81350,1,0,0:0:0:0:
206,72,81439,1,0,0:0:0:0:
206,72,81529,1,12,0:0:0:0:
256,192,81886,12,0,83314,0:0:0:0:
340,209,83672,5,8,0:0:0:0:
233,291,84029,1,0,0:0:0:0:
169,178,84386,1,4,0:0:0:0:
331,62,84743,2,0,P|378:111|384:151,1,90
318,150,85100,2,0,P|342:210|347:254,1,90
278,304,85457,1,8,0:0:0:0:
108,292,86172,2,0,P|60:192|60:184,1,90
48,136,86529,1,0,0:0:0:0:
256,192,86886,12,0,89029,0:0:0:0:
