osu file format v14

[General]
AudioFilename: audio.mp3
AudioLeadIn: 0
PreviewTime: 66172
Countdown: 0
SampleSet: Normal
StackLeniency: 0.7
Mode: 0
LetterboxInBreaks: 0
WidescreenStoryboard: 1

[Editor]
DistanceSpacing: 1
BeatDivisor: 4
GridSize: 4
TimelineZoom: 1

[Metadata]
Title:Gabriel Dropkick
TitleUnicode:Gabriel Dropkick
Artist:Maeyamada Kenichi
ArtistUnicode:Maeyamada Kenichi
Creator:I Hate Smoothie
Version:Hard
Source:ガヴリールドロップアウト
Tags:OP - opening - TVsize
BeatmapID:1184925
BeatmapSetID:560266

[Difficulty]
HPDrainRate:6
CircleSize:4
OverallDifficulty:6
ApproachRate:7
SliderMultiplier:1.5
SliderTickRate:1

[Events]
//Background and Video events
0,0,"L7VXgfh.jpg",0,0
//Break Periods
//Storyboard Layer 0 (Background)
//Storyboard Layer 1 (Fail)
//Storyboard Layer 2 (Pass)
//Storyboard Layer 3 (Foreground)
//Storyboard Sound Samples

[TimingPoints]
3315,357.142857142857,4,1,1,60,1,0
3315,-200,4,2,1,60,0,0
10457,-100,4,1,1,60,0,0
21886,-100,4,2,1,60,0,0
24743,-100,4,1,2,60,0,0
27600,-100,4,2,1,60,0,0
30457,-100,4,1,2,60,0,0
33314,-100,4,2,2,60,0,0
36172,-100,4,1,2,60,0,0
39029,-100,4,2,2,60,0,0
41886,-200,4,1,2,60,0,0
44743,-100,4,1,2,60,0,0
56172,-100,4,2,1,60,0,0
59029,-100,4,1,2,60,0,0
63672,-133.333333333333,4,1,1,60,0,0
66172,-100,4,1,1,60,0,1
69029,-133.333333333333,4,1,1,60,0,1
69743,-100,4,1,1,60,0,1
74743,-133.333333333333,4,1,1,60,0,1
75457,-100,4,1,1,60,0,1
83314,-100,4,1,1,60,0,0
83672,-133.333333333333,4,2,1,60,0,0

[Colours]
Combo1 : 0,255,166
Combo2 : 58,58,58
Combo3 : 52,150,222

[HitObjects]
88,208,3315,5,8,0:0:0:0:
88,208,3672,1,0,0:0:0:0:
136,152,4029,2,0,P|176:148|216:152,1,75
248,216,4743,2,0,P|288:220|328:216,1,75,8|0,0:0|0:0,0:0:0:0:
372,288,5457,2,0,P|332:296|284:296,1,75
232,232,6172,6,0,P|260:192|288:160,1,75,8|0,0:0|0:0,0:0:0:0:
276,171,6886,1,0,0:0:0:0:
276,171,7243,1,0,0:0:0:0:
384,184,7600,2,0,P|396:217|396:256,1,75,8|0,0:0|0:0,0:0:0:0:
376,296,8136,2,0,P|344:328|312:336,1,75,8|0,0:0|0:0,0:0:0:0:
272,336,8672,1,0,0:0:0:0:
256,192,9029,12,0,10100,0:0:0:0:
144,96,10457,5,10,0:0:0:0:
96,152,10636,1,0,0:0:0:0:
88,224,10814,1,8,0:0:0:0:
128,288,10993,1,0,0:0:0:0:
200,272,11172,2,0,L|288:320,1,75,10|0,0:0|0:0,0:0:0:0:
272,232,11529,2,0,L|352:280,1,75,8|0,0:0|0:0,0:0:0:0:
384,208,11886,5,10,0:0:0:0:
416,144,12064,1,0,0:0:0:0:
376,80,12243,1,8,0:0:0:0:
312,40,12422,1,0,0:0:0:0:
256,88,12600,2,0,P|228:120|192:152,1,75,10|0,0:0|0:0,0:0:0:0:
208,208,12957,2,0,P|184:244|144:280,1,75,8|0,0:0|0:0,0:0:0:0:
128,196,13314,6,0,P|88:200|48:212,3,75,10|0|8|0,0:0|0:0|0:0|0:0,0:0:0:0:
164,252,14029,2,0,P|212:244|268:228,3,75,10|0|8|0,0:0|0:0|0:0|0:0,0:0:0:0:
280,264,14743,1,8,0:0:0:0:
416,328,15100,1,8,0:0:0:0:
472,192,15457,1,6,0:0:0:0:
424,136,15636,1,6,0:0:0:0:
360,96,15814,1,6,0:0:0:0:
208,80,16172,6,0,L|112:80,1,75,10|0,0:0|0:0,0:0:0:0:
133,80,16529,1,8,0:0:0:0:
56,152,16707,1,0,0:0:0:0:
112,248,16886,2,0,L|208:248,1,75,10|0,0:0|0:0,0:0:0:0:
187,248,17243,1,8,0:0:0:0:
288,308,17422,1,0,0:0:0:0:
392,272,17600,6,0,L|448:184,1,75,10|0,0:0|0:0,0:0:0:0:
384,152,17957,2,0,L|304:104,1,75,8|0,0:0|0:0,0:0:0:0:
248,112,18314,1,10,0:0:0:0:
176,96,18493,1,0,0:0:0:0:
104,112,18672,1,8,0:0:0:0:
40,136,18850,1,0,0:0:0:0:
48,208,19029,6,0,L|112:272,3,75,10|0|8|0,0:0|0:0|0:0|0:0,0:0:0:0:
168,224,19743,2,0,L|240:296,3,75,10|0|8|0,0:0|0:0|0:0|0:0,0:0:0:0:
296,256,20457,1,8,0:0:0:0:
360,120,20814,1,8,0:0:0:0:
208,136,21172,1,4,0:0:0:0:
88,184,21886,5,8,0:0:0:0:
200,288,22243,1,0,0:0:0:0:
344,240,22600,2,0,P|360:184|304:120,1,150,8|0,0:0|0:0,0:0:0:0:
172,104,23314,2,0,B|108:104|108:104|28:160,1,150,8|0,0:0|0:0,0:0:0:0:
88,268,24029,1,8,0:0:0:0:
248,312,24386,1,0,0:0:0:0:
216,168,24743,6,0,B|128:168|128:168|72:128,1,150,12|0,0:0|0:0,0:0:0:0:
200,48,25457,1,10,0:0:0:0:
328,128,25814,1,8,0:0:0:0:
192,184,26172,2,0,P|144:160|120:152,3,75,10|0|8|0,0:0|0:0|0:0|0:0,0:0:0:0:
104,80,26886,1,10,0:0:0:0:
256,72,27243,1,8,0:0:0:0:
352,184,27600,5,8,0:0:0:0:
352,184,27957,1,0,0:0:0:0:
232,280,28314,2,0,L|128:256,1,75,8|0,0:0|0:0,0:0:0:0:
120,200,28672,1,0,0:0:0:0:
120,200,28850,1,0,0:0:0:0:
160,136,29029,2,0,L|264:120,1,75,8|0,0:0|0:0,0:0:0:0:
304,152,29386,1,0,0:0:0:0:
304,152,29564,1,0,0:0:0:0:
344,216,29743,2,0,P|376:280|296:320,1,150,8|0,0:0|0:0,0:0:0:0:
184,264,30457,6,0,P|104:200|112:152,1,150,12|0,0:0|0:0,0:0:0:0:
224,64,31172,2,0,L|376:72,1,150,10|0,0:0|0:0,0:0:0:0:
256,192,31886,12,0,32957,0:0:0:0:
360,232,33314,5,10,0:0:0:0:
360,232,33672,1,10,0:0:0:0:
224,288,34029,2,0,L|128:240,1,75,10|0,0:0|0:0,0:0:0:0:
156,254,34386,1,10,0:0:0:0:
104,192,34564,1,0,0:0:0:0:
168,136,34743,2,0,L|264:120,1,75,10|0,0:0|0:0,0:0:0:0:
296,176,35100,2,0,L|352:240,1,75,10|0,0:0|0:0,0:0:0:0:
280,272,35457,2,0,P|216:304|136:264,1,150,10|2,0:0|0:0,0:0:0:0:
96,136,36172,6,0,P|104:72|136:56,1,75,12|0,0:0|0:0,0:0:0:0:
184,72,36529,1,8,0:0:0:0:
184,72,36707,1,0,0:0:0:0:
248,104,36886,2,0,L|328:160,1,75,10|0,0:0|0:0,0:0:0:0:
360,200,37243,2,0,L|304:264,1,75,8|0,0:0|0:0,0:0:0:0:
240,280,37600,1,10,0:0:0:0:
168,256,37779,1,0,0:0:0:0:
104,216,37957,1,8,0:0:0:0:
80,144,38136,1,0,0:0:0:0:
120,80,38314,2,0,P|224:72|256:96,1,150,10|0,0:0|0:0,0:0:0:0:
320,232,39029,5,8,0:0:0:0:
192,304,39386,1,8,0:0:0:0:
96,192,39743,2,0,L|96:96,1,75,8|0,0:0|0:0,0:0:0:0:
171,151,40100,2,0,L|171:63,1,75,8|0,0:0|0:0,0:0:0:0:
248,107,40457,2,0,L|336:107,1,75,8|0,0:0|0:0,0:0:0:0:
288,184,40814,2,0,L|376:184,1,75,8|0,0:0|0:0,0:0:0:0:
408,240,41172,2,0,P|440:296|360:336,1,150,8|0,0:0|0:0,0:0:0:0:
320,304,41886,6,0,B|256:256|232:264|208:296|144:328|80:296|64:248|104:216|176:200|184:144|96:128|32:120|112:56|240:72|280:152|280:128,1,525,4|0,0:0|0:0,0:0:0:0:
408,200,44743,5,10,0:0:0:0:
408,200,44922,1,0,0:0:0:0:
360,256,45100,2,0,B|320:280|304:272|264:256,1,75,8|0,0:0|0:0,0:0:0:0:
216,256,45457,1,10,0:0:0:0:
144,248,45636,1,0,0:0:0:0:
96,192,45814,2,0,P|80:128|96:104,1,75,8|0,0:0|0:0,0:0:0:0:
152,104,46172,6,0,L|248:96,1,75,10|0,0:0|0:0,0:0:0:0:
272,160,46529,2,0,L|368:152,1,75,10|0,0:0|0:0,0:0:0:0:
408,200,46886,1,10,0:0:0:0:
424,272,47064,1,0,0:0:0:0:
360,320,47243,2,0,L|280:320,1,75,8|0,0:0|0:0,0:0:0:0:
304,248,47600,6,0,L|304:168,1,75,2|0,0:0|0:0,0:0:0:0:
232,144,47957,1,0,0:0:0:0:
232,144,48136,1,0,0:0:0:0:
168,176,48314,2,0,L|112:232,1,75,10|0,0:0|0:0,0:0:0:0:
184,256,48672,2,0,L|216:344,1,75,8|0,0:0|0:0,0:0:0:0:
328,312,49029,5,0,0:0:0:0:
408,128,49386,1,0,0:0:0:0:
192,184,49743,2,0,P|160:248|160:280,1,75
240,264,50100,2,0,P|240:328|248:344,1,75
312,312,50457,5,10,0:0:0:0:
376,272,50636,1,0,0:0:0:0:
384,200,50814,2,0,P|384:136|352:120,1,75,8|0,0:0|0:0,0:0:0:0:
312,104,51172,1,10,0:0:0:0:
240,88,51350,1,0,0:0:0:0:
192,144,51529,2,0,L|112:168,1,75,8|0,0:0|0:0,0:0:0:0:
152,240,51886,5,10,0:0:0:0:
208,296,52064,1,0,0:0:0:0:
280,272,52243,2,0,L|368:256,1,75,8|0,0:0|0:0,0:0:0:0:
312,192,52600,2,0,L|216:208,1,75,10|0,0:0|0:0,0:0:0:0:
168,184,52957,1,8,0:0:0:0:
192,112,53136,1,0,0:0:0:0:
264,104,53314,6,0,L|352:160,1,75,10|0,0:0|0:0,0:0:0:0:
296,272,53672,2,0,L|216:272,1,75,8|0,0:0|0:0,0:0:0:0:
128,232,54029,2,2,L|80:160,1,75,10|0,0:0|0:0,0:0:0:0:
224,80,54386,2,0,L|312:88,1,75,8|0,0:0|0:0,0:0:0:0:
368,232,54743,6,0,L|312:296,1,75,10|0,0:0|0:0,0:0:0:0:
144,248,55100,2,0,L|104:160,1,75,8|0,0:0|0:0,0:0:0:0:
216,88,55457,2,0,L|296:88,1,75,10|0,0:0|0:0,0:0:0:0:
384,240,55814,2,0,L|344:312,1,75,8|0,0:0|0:0,0:0:0:0:
168,288,56172,5,12,0:0:0:0:
168,288,56529,1,8,0:0:0:0:
168,288,56886,2,0,L|168:208,1,75,8|0,0:0|0:0,0:0:0:0:
200,120,57243,2,0,L|296:120,1,75,8|0,0:0|0:0,0:0:0:0:
376,160,57600,1,8,0:0:0:0:
328,304,57957,2,0,L|232:304,1,75,8|0,0:0|0:0,0:0:0:0:
184,232,58314,2,0,L|88:232,1,75,8|0,0:0|0:0,0:0:0:0:
56,176,58672,1,8,0:0:0:0:
88,112,58850,1,0,0:0:0:0:
160,136,59029,6,0,P|160:200|192:216,1,75,10|0,0:0|0:0,0:0:0:0:
240,224,59386,2,0,P|264:272|256:296,1,75,10|0,0:0|0:0,0:0:0:0:
184,312,59743,1,10,0:0:0:0:
136,248,59922,1,0,0:0:0:0:
144,176,60100,2,0,P|168:128|184:112,1,75,8|0,0:0|0:0,0:0:0:0:
256,128,60457,5,8,0:0:0:0:
312,184,60636,1,0,0:0:0:0:
288,256,60814,2,0,P|248:288|224:296,1,75,8|0,0:0|0:0,0:0:0:0:
200,224,61172,2,0,P|232:192|264:176,1,75,8|0,0:0|0:0,0:0:0:0:
336,184,61529,1,8,0:0:0:0:
384,248,61707,1,0,0:0:0:0:
320,280,61886,6,0,P|248:296|224:296,1,75,8|0,0:0|0:0,0:0:0:0:
192,248,62243,1,8,0:0:0:0:
128,200,62422,1,0,0:0:0:0:
136,128,62600,2,0,P|165:96|201:70,1,75,8|0,0:0|0:0,0:0:0:0:
261,65,62957,6,0,P|333:65|357:73,1,75,8|0,0:0|0:0,0:0:0:0:
380,135,63314,1,8,0:0:0:0:
376,205,63493,1,0,0:0:0:0:
320,264,63672,6,0,B|224:328|168:320|96:288|80:288|104:176|152:144|144:168,1,337.500012874604,8|4,0:0|0:0,0:0:0:0:
200,48,66172,5,10,0:0:0:0:
96,112,66350,1,0,0:0:0:0:
128,208,66529,2,0,P|122:252|136:288,1,75,8|0,0:0|0:0,0:0:0:0:
209,323,66886,5,10,0:0:0:0:
286,310,67064,1,0,0:0:0:0:
360,288,67243,2,0,P|390:252|392:216,1,75,8|0,0:0|0:0,0:0:0:0:
320,176,67600,6,0,L|240:176,1,75,10|0,0:0|0:0,0:0:0:0:
240,104,67957,2,0,L|160:104,1,75,8|0,0:0|0:0,0:0:0:0:
112,160,68314,5,10,0:0:0:0:
96,232,68493,1,0,0:0:0:0:
144,288,68672,1,8,0:0:0:0:
208,312,68850,1,0,0:0:0:0:
272,304,69029,2,0,B|392:312|416:248|376:144,1,225.000008583069,2|4,0:0|0:0,0:0:0:0:
248,104,70100,5,8,0:0:0:0:
248,104,70279,1,0,0:0:0:0:
176,128,70457,2,0,L|112:192,1,75,10|0,0:0|0:0,0:0:0:0:
160,248,70814,2,0,L|104:336,1,75,8|0,0:0|0:0,0:0:0:0:
56,208,71172,1,10,0:0:0:0:
96,144,71350,1,8,0:0:0:0:
160,104,71529,1,4,0:0:0:0:
232,80,71707,1,0,0:0:0:0:
304,112,71886,6,0,P|344:136|368:176,1,75,10|0,0:0|0:0,0:0:0:0:
392,224,72243,1,8,0:0:0:0:
368,296,72422,1,0,0:0:0:0:
296,312,72600,6,0,P|224:320|200:304,1,75,10|0,0:0|0:0,0:0:0:0:
232,248,72957,1,8,0:0:0:0:
248,176,73136,1,0,0:0:0:0:
176,184,73314,6,0,L|88:184,1,75,10|0,0:0|0:0,0:0:0:0:
128,256,73672,2,0,L|48:248,1,75,8|0,0:0|0:0,0:0:0:0:
24,184,74029,5,10,0:0:0:0:
40,112,74207,1,0,0:0:0:0:
100,72,74386,1,8,0:0:0:0:
168,64,74564,1,0,0:0:0:0:
228,68,74743,6,0,P|332:100|364:228,1,225.000008583069,10|4,0:0|0:0,0:0:0:0:
256,312,75814,1,10,0:0:0:0:
184,304,75993,1,0,0:0:0:0:
128,256,76172,2,0,P|72:184|216:104,1,300,8|0,0:0|0:0,0:0:0:0:
256,168,77064,1,8,0:0:0:0:
256,168,77243,1,12,0:0:0:0:
424,128,77600,5,10,0:0:0:0:
424,128,77779,1,0,0:0:0:0:
424,128,77957,1,8,0:0:0:0:
424,128,78136,1,0,0:0:0:0:
424,128,78314,2,0,P|320:112|264:144,1,150,10|4,0:0|0:0,0:0:0:0:
152,200,79029,5,10,0:0:0:0:
152,200,79207,1,0,0:0:0:0:
152,200,79386,1,8,0:0:0:0:
152,200,79564,1,0,0:0:0:0:
152,200,79743,2,0,P|200:256|288:240,1,150,10|4,0:0|0:0,0:0:0:0:
312,112,80457,6,0,P|232:108|160:120,1,150,10|6,0:0|0:0,0:0:0:0:
200,264,81172,2,0,P|276:260|352:248,1,150,10|6,0:0|0:0,0:0:0:0:
256,192,81886,12,0,83314,0:0:0:0:
144,216,83671,5,0,0:0:0:0:
288,256,84029,2,0,P|304:200|308:180,1,56.2500021457673
240,128,84386,2,0,P|196:116|160:112,1,56.2500021457673
144,192,84743,1,0,0:0:0:0:
216,328,85100,1,0,0:0:0:0:
368,312,85457,1,0,0:0:0:0:
120,144,86172,2,0,P|172:116|192:112,1,56.2500021457673,8|8,0:0|0:0,0:0:0:0:
256,104,86529,1,0,0:0:0:0:
