osu file format v14

[General]
AudioFilename: audio.mp3
AudioLeadIn: 0
PreviewTime: 66172
Countdown: 0
SampleSet: Soft
StackLeniency: 0.7
Mode: 0
LetterboxInBreaks: 0
WidescreenStoryboard: 0

[Editor]
DistanceSpacing: 1.1
BeatDivisor: 4
GridSize: 4
TimelineZoom: 1

[Metadata]
Title:Gabriel Dropkick
TitleUnicode:Gabriel Dropkick
Artist:Maeyamada Kenichi
ArtistUnicode:Maeyamada Kenichi
Creator:I Hate Smoothie
Version:Easy
Source:ガヴリールドロップアウト
Tags:OP - opening - TVsize
BeatmapID:1184896
BeatmapSetID:560266

[Difficulty]
HPDrainRate:2
CircleSize:2.5
OverallDifficulty:2
ApproachRate:2
SliderMultiplier:0.95
SliderTickRate:1

[Events]
//Background and Video events
0,0,"L7VXgfh.jpg",0,0
//Break Periods
2,41729,43183
//Storyboard Layer 0 (Background)
//Storyboard Layer 1 (Fail)
//Storyboard Layer 2 (Pass)
//Storyboard Layer 3 (Foreground)
//Storyboard Sound Samples

[TimingPoints]
3315,357.142857142857,4,2,1,100,1,0
3315,-100,4,2,1,100,0,0
10457,-100,4,1,2,100,0,0
21886,-100,4,2,1,100,0,0
24743,-100,4,1,2,100,0,0
27600,-100,4,2,1,100,0,0
30457,-100,4,1,2,100,0,0
33314,-100,4,2,1,100,0,0
36172,-100,4,1,2,100,0,0
39029,-100,4,2,1,100,0,0
41886,-200,4,1,2,100,0,0
44743,-100,4,1,2,100,0,0
56172,-100,4,2,1,100,0,0
59029,-100,4,1,2,100,0,0
66172,-100,4,1,2,100,0,1
83314,-100,4,2,1,100,0,0

[Colours]
Combo1 : 0,255,166
Combo2 : 52,150,222
Combo3 : 58,58,58

[HitObjects]
68,256,3315,6,0,B|100:184|128:172|152:180|172:88,1,190,8|0,0:0|0:0,0:0:0:0:
264,52,4386,1,0,0:0:0:0:
308,152,4743,2,0,L|416:152,1,95,8|0,0:0|0:0,0:0:0:0:
352,244,5457,2,0,L|244:248,1,95
160,288,6172,6,0,B|156:204|132:224|100:192|120:108,1,190,8|0,0:0|0:0,0:0:0:0:
216,72,7243,1,0,0:0:0:0:
308,120,7600,2,0,P|376:168|384:276,1,190,8|0,0:0|0:0,0:0:0:0:
296,320,8672,1,0,0:0:0:0:
192,304,9029,2,0,B|152:304|104:272|104:272|40:276|40:276|36:232|36:232|40:140,1,285,8|0,0:0|0:0,0:0:0:0:
128,92,10457,5,10,0:0:0:0:
228,64,10814,1,8,0:0:0:0:
316,136,11172,2,0,P|272:148|224:156,1,95,8|8,0:0|0:0,0:0:0:0:
136,208,11886,5,10,0:0:0:0:
112,308,12243,1,8,0:0:0:0:
216,296,12600,2,0,B|292:284|284:248|316:248,1,95,8|8,0:0|0:0,0:0:0:0:
404,232,13314,6,0,P|404:172|396:124,1,95,10|0,0:0|0:0,0:0:0:0:
300,176,14029,2,0,P|296:120|276:80,1,95,8|0,0:0|0:0,0:0:0:0:
184,124,14743,5,10,0:0:0:0:
128,212,15100,1,8,0:0:0:0:
196,292,15457,2,0,P|272:280|304:280,1,95,8|12,0:0|0:0,0:0:0:0:
396,288,16172,5,10,0:0:0:0:
384,184,16529,1,8,0:0:0:0:
280,184,16886,2,0,B|212:184|176:156,1,95,8|8,0:0|0:0,0:0:0:0:
140,244,17600,5,10,0:0:0:0:
224,304,17957,1,8,0:0:0:0:
328,292,18314,2,0,P|380:272|436:264,1,95,8|8,0:0|0:0,0:0:0:0:
360,176,19029,6,0,P|296:140|256:136,1,95,10|8,0:0|0:0,0:0:0:0:
176,168,19743,2,0,B|148:164|108:168|72:176,1,95,8|8,0:0|0:0,0:0:0:0:
108,276,20457,1,2,0:0:0:0:
208,308,20814,1,2,0:0:0:0:
312,300,21172,1,4,0:0:0:0:
496,168,21886,6,0,P|444:104|432:96,1,95,8|0,0:0|0:0,0:0:0:0:
336,136,22600,2,0,P|280:92|252:84,1,95,8|0,0:0|0:0,0:0:0:0:
180,156,23314,1,0,0:0:0:0:
112,236,23672,1,0,0:0:0:0:
184,312,24029,2,0,B|268:312|284:312,1,95,8|0,0:0|0:0,0:0:0:0:
384,312,24743,5,4,0:0:0:0:
424,216,25100,1,0,0:0:0:0:
372,124,25457,2,0,B|320:120|296:84|264:96,1,95,2|0,0:0|0:0,0:0:0:0:
224,184,26172,2,0,B|156:136|160:144|116:132|120:136,1,95
120,240,26886,1,2,0:0:0:0:
204,300,27243,1,0,0:0:0:0:
308,312,27600,6,0,P|372:300|408:296,1,95,8|0,0:0|0:0,0:0:0:0:
340,212,28314,2,0,P|300:188|248:176,1,95
152,208,29029,1,8,0:0:0:0:
212,296,29386,1,0,0:0:0:0:
316,288,29743,2,0,P|364:268|420:272,1,95,8|0,0:0|0:0,0:0:0:0:
380,168,30457,5,4,0:0:0:0:
292,112,30814,1,0,0:0:0:0:
188,108,31172,2,0,P|168:140|164:200,1,95,2|0,0:0|0:0,0:0:0:0:
260,236,31886,2,0,P|248:292|260:344,1,95
356,312,32600,1,2,0:0:0:0:
448,268,32957,1,0,0:0:0:0:
384,184,33314,6,0,P|332:136|296:124,1,95,8|0,0:0|0:0,0:0:0:0:
208,120,34029,2,0,P|144:124|100:140,1,95
100,236,34743,1,8,0:0:0:0:
168,316,35100,1,0,0:0:0:0:
232,232,35457,1,8,0:0:0:0:
300,312,35814,1,0,0:0:0:0:
392,264,36172,6,0,P|424:212|428:164,1,95,4|0,0:0|0:0,0:0:0:0:
316,192,36886,2,0,P|324:128|312:88,1,95
212,84,37600,1,2,0:0:0:0:
136,156,37957,1,0,0:0:0:0:
216,224,38314,1,2,0:0:0:0:
140,296,38672,1,0,0:0:0:0:
236,336,39029,6,0,P|292:300|332:300,1,95,8|0,0:0|0:0,0:0:0:0:
312,192,39743,2,0,P|352:164|404:160,1,95,8|0,0:0|0:0,0:0:0:0:
424,260,40457,1,0,0:0:0:0:
328,300,40814,1,0,0:0:0:0:
224,320,41172,2,0,P|140:328|112:328,1,95,8|4,0:0|0:0,0:0:0:0:
344,140,44743,5,8,0:0:0:0:
384,236,45100,1,8,0:0:0:0:
316,316,45457,2,0,P|240:328|220:324,1,95,2|0,0:0|0:0,0:0:0:0:
120,308,46172,5,8,0:0:0:0:
56,224,46529,1,8,0:0:0:0:
44,120,46886,2,0,B|88:84|128:80|144:76,1,95,2|0,0:0|0:0,0:0:0:0:
228,44,47600,5,8,0:0:0:0:
332,44,47957,1,8,0:0:0:0:
392,128,48314,2,2,P|452:196|468:208,1,95
484,292,49029,1,0,0:0:0:0:
392,340,49386,1,0,0:0:0:0:
288,332,49743,2,0,B|264:324|264:324|236:328|236:328|212:312|212:312|180:312,1,95
100,284,50457,6,0,P|92:192|92:168,1,95,2|0,0:0|0:0,0:0:0:0:
140,96,51172,2,0,L|256:80,1,95,2|0,0:0|0:0,0:0:0:0:
332,124,51886,2,0,P|388:144|416:192,1,95,2|0,0:0|0:0,0:0:0:0:
440,272,52600,2,0,P|420:312|364:328,1,95,2|0,0:0|0:0,0:0:0:0:
304,252,53314,5,8,0:0:0:0:
228,324,53672,1,8,0:0:0:0:
192,228,54029,1,8,0:0:0:0:
120,304,54386,1,8,0:0:0:0:
192,228,54743,2,0,P|212:148|228:128,1,95,8|8,0:0|0:0,0:0:0:0:
320,112,55457,2,8,P|352:52|376:40,1,95
412,140,56172,6,0,P|400:176|364:228,1,95,4|0,0:0|0:0,0:0:0:0:
288,288,56886,2,0,P|228:288|184:268,1,95
148,184,57600,1,12,0:0:0:0:
232,120,57957,1,0,0:0:0:0:
340,108,58314,1,0,0:0:0:0:
440,136,58672,1,0,0:0:0:0:
256,192,59029,12,0,64743,0:0:0:0:
384,268,66172,6,0,P|304:300|280:308,1,95,10|8,0:0|0:0,0:0:0:0:
192,280,66886,2,0,P|160:260|128:208,1,95,8|8,0:0|0:0,0:0:0:0:
212,148,67600,2,0,P|272:140|300:172,1,95,10|8,0:0|0:0,0:0:0:0:
340,268,68314,2,0,L|396:304,3,47.5,8|0|8|0,0:0|0:0|0:0|0:0,0:0:0:0:
432,296,69029,6,0,P|464:240|388:156,1,190,0|4,0:0|0:0,0:0:0:0:
292,176,70100,1,0,0:0:0:0:
212,244,70457,2,0,P|156:216|144:168,1,95,2|0,0:0|0:0,0:0:0:0:
108,88,71172,2,0,P|119:43|159:20,1,95,2|0,0:0|0:0,0:0:0:0:
264,24,71886,6,0,P|312:64|340:100,1,95,2|8,0:0|0:0,0:0:0:0:
436,104,72600,2,0,P|492:168|492:184,1,95,2|8,0:0|0:0,0:0:0:0:
488,276,73314,2,0,P|464:316|421:335,1,95,2|8,0:0|0:0,0:0:0:0:
316,324,74029,2,0,L|252:336,3,47.5
216,328,74743,6,0,B|172:300|132:252|116:212|104:156,1,190,0|4,0:0|0:0,0:0:0:0:
120,72,75814,1,0,0:0:0:0:
216,36,76172,2,0,P|284:28|316:28,1,95,2|0,0:0|0:0,0:0:0:0:
380,104,76886,2,0,P|312:112|280:112,1,95,2|0,0:0|0:0,0:0:0:0:
220,192,77600,6,0,B|264:268|264:268|280:268|304:268|304:268|372:268,1,190
444,196,78672,1,4,0:0:0:0:
372,112,79029,6,0,B|308:112|308:112|276:112|276:112|220:24,1,190
136,84,80100,1,4,0:0:0:0:
160,184,80457,6,0,P|220:228|232:264,1,95,0|4,0:0|0:0,0:0:0:0:
328,220,81172,2,0,P|376:180|392:148,1,95,0|4,0:0|0:0,0:0:0:0:
412,48,81886,2,0,B|328:28|216:32|32:116,1,380,8|0,0:0|0:0,0:0:0:0:
60,216,83672,5,0,0:0:0:0:
144,276,84029,1,0,0:0:0:0:
248,288,84386,1,0,0:0:0:0:
348,264,84743,2,0,P|396:260|444:240,1,95
440,140,85457,6,0,P|384:144|384:144,1,47.5
340,144,85814,1,0,0:0:0:0:
240,140,86172,2,0,P|195:122|157:94,1,95
