osu file format v14

[General]
AudioFilename: audio.mp3
AudioLeadIn: 0
PreviewTime: 66172
Countdown: 0
SampleSet: Soft
StackLeniency: 0.7
Mode: 0
LetterboxInBreaks: 0
WidescreenStoryboard: 0

[Editor]
Bookmarks: 3315,21886,53314,66172
DistanceSpacing: 2
BeatDivisor: 4
GridSize: 4
TimelineZoom: 1

[Metadata]
Title:Gabriel Dropkick
TitleUnicode:Gabriel Dropkick
Artist:Maeyamada Kenichi
ArtistUnicode:Maeyamada Kenichi
Creator:I Hate Smoothie
Version:Angel
Source:ガヴリールドロップアウト
Tags:OP - opening - TVsize
BeatmapID:1184838
BeatmapSetID:560266

[Difficulty]
HPDrainRate:6
CircleSize:4
OverallDifficulty:7
ApproachRate:9
SliderMultiplier:1.8
SliderTickRate:1

[Events]
//Background and Video events
0,0,"L7VXgfh.jpg",0,0
Video,301,"OP.avi"
//Break Periods
2,41729,44143
//Storyboard Layer 0 (Background)
//Storyboard Layer 1 (Fail)
//Storyboard Layer 2 (Pass)
//Storyboard Layer 3 (Foreground)
//Storyboard Sound Samples

[TimingPoints]
3315,357.142857142857,4,2,1,60,1,0
3315,-133.333333333333,4,2,1,60,0,0
9029,-100,4,2,1,60,0,0
9386,-100,4,2,1,60,0,0
10457,-100,4,1,1,60,0,0
20279,-100,4,1,1,60,0,0
21886,-153.846153846154,4,2,1,60,0,0
24743,-133.333333333333,4,1,2,60,0,0
25100,-100,4,1,2,60,0,0
27600,-153.846153846154,4,2,1,60,0,0
27957,-100,4,2,1,60,0,0
30457,-100,4,1,2,60,0,0
31886,-100,4,1,1,30,0,0
33314,-100,4,2,2,60,0,0
36172,-100,4,1,1,60,0,0
39029,-100,4,2,2,60,0,0
41886,-200,4,1,1,60,0,0
44743,-100,4,2,2,60,0,0
56172,-100,4,2,1,60,0,0
59029,-100,4,2,1,60,0,0
63672,-133.333333333333,4,2,1,60,0,0
64386,-100,4,2,1,60,0,0
66172,-100,4,1,1,60,0,1
76172,-133.333333333333,4,1,1,60,0,1
76886,-100,4,1,1,60,0,1
83314,-100,4,2,1,60,0,0
83672,-100,4,2,2,60,0,0
86172,-100,4,2,2,60,0,0

[Colours]
Combo1 : 167,160,214
Combo2 : 128,255,255
Combo3 : 255,255,128
Combo4 : 0,128,128
Combo5 : 42,42,42
Combo6 : 96,96,96
Combo7 : 255,255,108
Combo8 : 255,60,60

[HitObjects]
96,284,3315,5,8,0:0:0:0:
200,96,4029,1,8,0:0:0:0:
296,288,4743,1,8,0:0:0:0:
392,104,5457,1,8,0:0:0:0:
140,152,5815,5,0,0:0:0:0:
140,152,5904,1,0,0:0:0:0:
140,152,5993,1,0,0:0:0:0:
140,152,6082,1,0,0:0:0:0:
140,152,6172,2,0,P|164:216|176:228,1,67.5000025749208,8|0,0:0|0:0,0:0:0:0:
312,160,6529,2,0,P|368:148|400:152,1,67.5000025749208,8|0,0:0|0:0,0:0:0:0:
296,288,6886,2,0,P|248:304|224:304,1,67.5000025749208,8|0,0:0|0:0,0:0:0:0:
136,208,7243,2,0,P|128:160|132:128,1,67.5000025749208,8|0,0:0|0:0,0:0:0:0:
312,104,7600,6,0,P|336:172|296:224,1,135.000005149842,8|0,0:0|0:0,0:0:0:0:
224,148,8136,2,0,P|188:224|236:280,1,135.000005149842,8|0,0:0|0:0,0:0:0:0:
292,304,8672,1,0,0:0:0:0:
172,272,9029,2,0,B|160:224|160:224|88:232|120:120|84:120|188:60|228:276|216:116|164:20|148:36|272:60|292:140|228:164|248:232|316:176|361:206|304:228|216:176|196:292|352:300|352:300,1,540
396,124,10457,5,10,0:0:0:0:
408,160,10547,1,0,0:0:0:0:
416,208,10636,1,0,0:0:0:0:
264,124,10814,1,2,0:0:0:0:
276,168,10904,1,0,0:0:0:0:
284,208,10993,1,0,0:0:0:0:
92,148,11172,6,0,P|68:156|0:188,1,90,8|0,0:0|0:0,0:0:0:0:
148,264,11529,2,0,P|208:252|244:240,1,90
356,124,11886,5,0,0:0:0:0:
356,124,11975,1,0,0:0:0:0:
356,124,12064,1,0,0:0:0:0:
132,172,12243,1,0,0:0:0:0:
360,252,12422,1,0,0:0:0:0:
132,172,12600,5,8,0:0:0:0:
132,172,12689,1,0,0:0:0:0:
132,172,12779,1,0,0:0:0:0:
280,64,12957,1,0,0:0:0:0:
236,304,13136,1,0,0:0:0:0:
392,200,13314,6,0,P|320:184|292:184,1,90
128,292,13672,2,0,P|112:236|112:176,1,90
296,120,14029,1,8,0:0:0:0:
296,164,14118,1,0,0:0:0:0:
312,204,14207,1,0,0:0:0:0:
128,172,14386,1,0,0:0:0:0:
120,216,14475,1,0,0:0:0:0:
136,260,14564,1,0,0:0:0:0:
304,336,14743,5,0,0:0:0:0:
440,148,15100,1,0,0:0:0:0:
200,112,15457,2,0,P|144:112|100:124,1,90,8|0,0:0|0:0,0:0:0:0:
132,296,15814,2,0,P|180:288|248:288,1,90
360,316,16172,5,0,0:0:0:0:
408,312,16261,1,0,0:0:0:0:
448,292,16350,1,0,0:0:0:0:
456,180,16529,2,0,P|456:112|444:72,1,90,8|0,0:0|0:0,0:0:0:0:
280,76,16886,5,0,0:0:0:0:
268,120,16975,1,0,0:0:0:0:
284,164,17064,1,0,0:0:0:0:
288,296,17243,2,0,P|224:308|168:296,1,90,8|0,0:0|0:0,0:0:0:0:
64,140,17600,5,8,0:0:0:0:
256,112,17779,1,0,0:0:0:0:
104,288,17957,1,8,0:0:0:0:
304,256,18136,1,0,0:0:0:0:
96,108,18314,1,8,0:0:0:0:
212,296,18493,1,0,0:0:0:0:
280,104,18672,1,8,0:0:0:0:
92,244,18850,1,0,0:0:0:0:
288,304,19029,6,0,P|304:248|308:208,1,90,8|0,0:0|0:0,0:0:0:0:
436,68,19386,1,8,0:0:0:0:
444,116,19475,1,0,0:0:0:0:
444,172,19564,1,0,0:0:0:0:
232,80,19743,6,0,P|212:112|192:172,1,90,8|0,0:0|0:0,0:0:0:0:
200,312,20100,1,8,0:0:0:0:
248,316,20189,1,0,0:0:0:0:
296,316,20279,1,0,0:0:0:0:
408,176,20457,6,0,P|364:152|324:144,1,90,8|0,0:0|0:0,0:0:0:0:
148,236,20814,2,0,P|116:180|120:116,1,90,8|0,0:0|0:0,0:0:0:0:
280,132,21172,2,0,P|312:216|296:316,1,180,4|0,0:0|0:0,0:0:0:0:
72,232,21886,37,0,0:0:0:0:
272,128,22422,1,0,0:0:0:0:
248,284,22600,1,0,0:0:0:0:
392,212,22779,1,0,0:0:0:0:
160,232,22957,1,0,0:0:0:0:
328,296,23136,1,0,0:0:0:0:
296,104,23314,6,0,P|260:96|220:96,1,58.4999973220826
364,204,23672,2,0,P|424:200|444:204,1,58.4999973220826
236,200,24029,1,0,0:0:0:0:
48,248,24207,1,0,0:0:0:0:
204,304,24386,1,0,0:0:0:0:
120,124,24564,1,0,0:0:0:0:
112,304,24743,86,0,P|192:288|260:288,1,135.000005149842,4|0,0:0|0:0,0:0:0:0:
332,296,25279,1,0,0:0:0:0:
424,136,25457,1,4,0:0:0:0:
424,136,25547,1,0,0:0:0:0:
424,136,25636,1,0,0:0:0:0:
256,136,25814,2,0,P|192:148|152:164,1,90
112,288,26172,6,0,P|164:272|184:268,1,45,4|0,0:0|0:0,0:0:0:0:
304,252,26350,2,0,P|248:300|208:304,1,90
164,208,26707,1,0,0:0:0:0:
252,112,26886,2,0,P|312:96|340:92,2,90,4|0|0,0:0|0:0|0:0,0:0:0:0:
104,232,27600,5,8,0:0:0:0:
260,284,27957,1,0,0:0:0:0:
232,112,28314,2,0,P|296:100|320:96,1,90,8|0,0:0|0:0,0:0:0:0:
376,284,28672,1,0,0:0:0:0:
148,272,28850,1,0,0:0:0:0:
352,164,29029,5,8,0:0:0:0:
200,328,29207,1,0,0:0:0:0:
264,120,29386,1,0,0:0:0:0:
308,344,29564,1,0,0:0:0:0:
388,108,29743,2,0,P|416:176|428:288,1,180,8|0,0:0|0:0,0:0:0:0:
252,80,30457,5,4,0:0:0:0:
152,296,30636,1,0,0:0:0:0:
68,72,31172,1,4,0:0:0:0:
152,296,31350,1,0,0:0:0:0:
260,80,31529,1,8,0:0:0:0:
336,296,31707,1,0,0:0:0:0:
124,288,31886,6,0,L|84:344,2,45
248,220,32243,1,0,0:0:0:0:
292,200,32332,1,0,0:0:0:0:
340,192,32422,1,0,0:0:0:0:
440,116,32600,2,0,L|468:40,6,45
232,56,33314,5,8,0:0:0:0:
56,184,33672,1,8,0:0:0:0:
252,292,34029,1,8,0:0:0:0:
288,128,34386,2,0,P|340:120|388:116,1,90,8|0,0:0|0:0,0:0:0:0:
408,240,34743,5,8,0:0:0:0:
124,184,34922,1,0,0:0:0:0:
232,336,35100,1,8,0:0:0:0:
312,116,35279,1,0,0:0:0:0:
100,204,35457,2,0,B|48:116|48:116|140:104,1,180,8|0,0:0|0:0,0:0:0:0:
368,192,36172,5,4,0:0:0:0:
368,192,36261,1,0,0:0:0:0:
368,192,36350,1,0,0:0:0:0:
368,192,36439,1,0,0:0:0:0:
368,192,36529,2,0,P|364:256|360:296,1,90
88,212,36886,1,8,0:0:0:0:
360,296,37064,1,0,0:0:0:0:
272,100,37243,1,8,0:0:0:0:
212,316,37422,1,0,0:0:0:0:
212,316,37779,5,8,0:0:0:0:
272,100,37957,1,0,0:0:0:0:
360,296,38136,1,0,0:0:0:0:
92,208,38314,2,0,B|56:108|56:108|148:120,1,180,8|0,0:0|0:0,0:0:0:0:
360,184,39029,5,0,0:0:0:0:
120,180,39386,1,0,0:0:0:0:
120,180,39564,1,0,0:0:0:0:
280,72,39743,1,0,0:0:0:0:
220,320,39922,1,0,0:0:0:0:
356,228,40100,1,0,0:0:0:0:
120,104,40279,1,0,0:0:0:0:
348,108,40457,5,0,0:0:0:0:
120,236,40636,1,0,0:0:0:0:
360,244,40814,1,0,0:0:0:0:
124,112,40993,1,0,0:0:0:0:
124,112,41172,2,0,P|212:112|204:40,1,180,8|4,0:0|0:0,0:0:0:0:
160,132,44743,6,0,L|100:136,2,45,8|0|0,0:0|0:0|0:0,0:0:0:0:
208,216,45100,2,0,L|280:212,2,45,8|0|0,0:0|0:0|0:0,0:0:0:0:
160,220,45368,1,0,0:0:0:0:
140,264,45457,1,8,0:0:0:0:
172,308,45547,1,0,0:0:0:0:
224,316,45636,1,0,0:0:0:0:
272,304,45725,1,0,0:0:0:0:
320,288,45814,2,0,P|372:240|380:236,1,45,8|0,0:0|0:0,0:0:0:0:
396,196,45993,2,0,L|424:140,1,45
192,92,46172,6,0,L|144:92,2,45,8|0|0,0:0|0:0|0:0,0:0:0:0:
344,100,46529,1,8,0:0:0:0:
344,100,46707,1,0,0:0:0:0:
344,100,46886,2,0,L|364:144,1,45,8|0,0:0|0:0,0:0:0:0:
256,152,47064,2,0,L|288:220,1,45,0|0,0:0|0:0,0:0:0:0:
172,184,47243,2,0,L|192:236,1,45,8|0,0:0|0:0,0:0:0:0:
72,224,47422,2,0,L|92:280,1,45,0|0,0:0|0:0,0:0:0:0:
240,340,47600,6,0,L|168:340,2,45,8|0|0,0:0|0:0|0:0,0:0:0:0:
376,336,47957,1,8,0:0:0:0:
376,336,48136,1,0,0:0:0:0:
408,152,48314,2,0,L|380:204,1,45,8|0,0:0|0:0,0:0:0:0:
232,256,48493,1,0,0:0:0:0:
232,256,48672,2,0,B|164:268|164:268|140:212,1,90,8|0,0:0|0:0,0:0:0:0:
108,40,49029,5,0,0:0:0:0:
412,40,49386,1,0,0:0:0:0:
420,280,49743,2,0,P|436:328|440:380,1,90
260,224,50100,2,0,P|272:280|276:328,1,90
84,212,50457,5,8,0:0:0:0:
120,60,50636,1,0,0:0:0:0:
288,76,50814,1,8,0:0:0:0:
248,236,50993,1,0,0:0:0:0:
416,280,51172,5,8,0:0:0:0:
440,128,51350,1,0,0:0:0:0:
260,152,51529,1,8,0:0:0:0:
416,280,51707,1,0,0:0:0:0:
268,312,51886,5,8,0:0:0:0:
80,292,52064,1,8,0:0:0:0:
52,160,52243,2,0,P|40:100|40:84,2,45,8|0|0,0:0|0:0|0:0,0:0:0:0:
88,296,52600,5,8,0:0:0:0:
272,264,52779,1,8,0:0:0:0:
420,236,52957,2,0,L|480:220,2,45,8|0|0,0:0|0:0|0:0,0:0:0:0:
124,116,53314,5,8,0:0:0:0:
220,56,53493,1,0,0:0:0:0:
192,184,53672,5,8,0:0:0:0:
304,112,53850,1,0,0:0:0:0:
256,248,54029,5,10,0:0:0:0:
400,168,54207,1,0,0:0:0:0:
296,320,54386,5,8,0:0:0:0:
452,252,54564,1,0,0:0:0:0:
232,152,54743,2,0,L|164:104,2,45,8|0|0,0:0|0:0|0:0,0:0:0:0:
336,324,55100,1,8,0:0:0:0:
448,132,55279,1,0,0:0:0:0:
208,204,55457,1,8,0:0:0:0:
464,264,55636,1,0,0:0:0:0:
212,200,55814,1,8,0:0:0:0:
352,68,55993,1,0,0:0:0:0:
236,280,56172,5,0,0:0:0:0:
76,208,56350,1,0,0:0:0:0:
180,84,56529,2,0,P|252:68|276:72,1,90
344,208,56886,2,0,P|264:216|224:208,1,90
164,104,57243,1,0,0:0:0:0:
120,288,57422,1,0,0:0:0:0:
252,224,57600,2,0,L|304:224,2,45
64,168,57957,1,0,0:0:0:0:
64,168,58136,2,0,B|152:256|152:256|316:256,1,270
160,76,59029,5,8,0:0:0:0:
252,328,59207,1,0,0:0:0:0:
376,148,59386,1,8,0:0:0:0:
96,232,59564,1,0,0:0:0:0:
268,88,59743,1,8,0:0:0:0:
320,288,59922,1,0,0:0:0:0:
136,120,60100,1,8,0:0:0:0:
364,188,60279,1,0,0:0:0:0:
128,276,60457,5,8,0:0:0:0:
132,116,60636,2,0,L|80:84,2,45,0|0|8,0:0|0:0|0:0,0:0:0:0:
364,188,60993,1,0,0:0:0:0:
128,276,61172,1,8,0:0:0:0:
132,116,61350,2,0,L|256:100,1,90,0|8,0:0|0:0,0:0:0:0:
221,104,61707,1,0,0:0:0:0:
328,308,61886,1,8,0:0:0:0:
388,116,62064,1,0,0:0:0:0:
172,260,62243,6,0,B|100:220|100:220|148:88,1,180,8|8,0:0|0:0,0:0:0:0:
336,64,62779,2,0,B|420:80|420:80|428:180,1,180
404,328,63314,1,8,0:0:0:0:
120,228,63672,1,0,0:0:0:0:
348,80,63850,1,0,0:0:0:0:
344,304,64029,1,0,0:0:0:0:
188,72,64207,1,0,0:0:0:0:
84,288,64386,1,0,0:0:0:0:
344,168,64564,1,0,0:0:0:0:
72,120,64743,5,0,0:0:0:0:
204,60,64922,1,0,0:0:0:0:
256,60,65011,1,0,0:0:0:0:
304,64,65100,1,0,0:0:0:0:
376,192,65279,1,0,0:0:0:0:
168,156,65457,2,0,P|144:216|176:252,1,90
252,220,65814,2,0,P|256:276|232:308,1,90
168,244,66082,5,0,0:0:0:0:
168,244,66172,1,4,0:0:0:0:
256,68,66350,1,0,0:0:0:0:
360,248,66529,1,0,0:0:0:0:
448,72,66707,1,0,0:0:0:0:
360,248,66886,5,4,0:0:0:0:
360,248,66975,1,0,0:0:0:0:
360,248,67064,1,0,0:0:0:0:
256,68,67243,2,0,P|204:116|188:160,1,90
176,272,67600,6,0,L|232:272,2,45,4|0|0,0:0|0:0|0:0,0:0:0:0:
64,128,67957,1,0,0:0:0:0:
64,128,68136,1,0,0:0:0:0:
200,304,68314,1,4,0:0:0:0:
244,88,68493,1,0,0:0:0:0:
84,232,68672,1,0,0:0:0:0:
304,212,68850,1,0,0:0:0:0:
112,108,69029,5,0,0:0:0:0:
308,100,69386,2,0,B|392:140|392:140|500:92,1,180,0|4,0:0|0:0,0:0:0:0:
440,272,69922,1,0,0:0:0:0:
440,272,70011,1,0,0:0:0:0:
440,272,70100,1,0,0:0:0:0:
264,320,70279,1,0,0:0:0:0:
264,120,70457,6,0,B|172:120|172:120|172:176,1,135
396,316,70993,1,0,0:0:0:0:
420,76,71172,1,0,0:0:0:0:
320,64,71350,1,0,0:0:0:0:
300,308,71529,1,4,0:0:0:0:
108,160,71886,6,0,L|52:164,2,45,2|0|0,0:0|0:0|0:0,0:0:0:0:
196,304,72243,1,0,0:0:0:0:
304,96,72422,1,0,0:0:0:0:
392,272,72600,2,0,L|444:300,2,45,4|0|0,0:0|0:0|0:0,0:0:0:0:
156,84,72957,2,0,P|224:60|280:56,1,90
264,252,73314,2,0,B|216:276|152:280|152:280,1,90,2|0,0:0|0:0,0:0:0:0:
352,128,73672,2,0,P|392:152|440:208,1,90
260,300,74029,1,2,0:0:0:0:
260,300,74118,1,0,0:0:0:0:
260,300,74207,1,0,0:0:0:0:
260,300,74297,1,0,0:0:0:0:
260,300,74386,2,0,P|192:296|148:288,1,90
92,60,74743,5,0,0:0:0:0:
112,232,75100,2,0,B|108:308|108:308|220:312,1,180,0|4,0:0|0:0,0:0:0:0:
344,312,75636,1,0,0:0:0:0:
344,312,75814,1,0,0:0:0:0:
344,312,75993,1,0,0:0:0:0:
360,176,76172,6,0,P|360:100|336:56,1,101.250003862381
244,108,76707,2,0,P|248:172|260:200,1,67.5000025749208
352,160,77064,1,0,0:0:0:0:
352,160,77243,1,4,0:0:0:0:
196,76,77600,5,0,0:0:0:0:
84,312,77779,1,0,0:0:0:0:
264,172,77957,1,0,0:0:0:0:
76,156,78136,1,0,0:0:0:0:
216,300,78314,1,0,0:0:0:0:
372,288,78672,2,0,B|392:244|376:144|376:144,1,135,4|0,0:0|0:0,0:0:0:0:
240,76,79029,5,0,0:0:0:0:
240,76,79118,1,0,0:0:0:0:
240,76,79207,1,0,0:0:0:0:
136,284,79386,1,0,0:0:0:0:
332,192,79564,1,0,0:0:0:0:
120,144,79743,1,0,0:0:0:0:
272,300,80100,2,0,P|328:292|412:284,1,135,4|0,0:0|0:0,0:0:0:0:
432,144,80457,5,0,0:0:0:0:
272,84,80814,1,4,0:0:0:0:
272,84,80904,1,0,0:0:0:0:
272,84,80993,1,0,0:0:0:0:
168,280,81172,6,0,P|228:268|272:276,1,90
92,108,81529,1,4,0:0:0:0:
92,108,81618,1,0,0:0:0:0:
92,108,81707,1,0,0:0:0:0:
256,192,81886,12,0,83314,0:0:0:0:
256,192,83672,5,0,0:0:0:0:
128,104,84029,1,0,0:0:0:0:
104,256,84386,1,0,0:0:0:0:
248,200,84743,2,0,L|304:172,2,45
104,256,85100,1,0,0:0:0:0:
140,88,85279,1,0,0:0:0:0:
292,88,85457,1,0,0:0:0:0:
400,288,85814,1,0,0:0:0:0:
324,232,86172,2,0,P|268:176|232:172,1,90
220,264,86529,2,0,P|172:244|144:212,1,90
