osu file format v14

[General]
AudioFilename: audio.mp3
AudioLeadIn: 0
PreviewTime: 48988
Countdown: 0
SampleSet: Soft
StackLeniency: 1
Mode: 0
LetterboxInBreaks: 0
WidescreenStoryboard: 1

[Editor]
DistanceSpacing: 1.1
BeatDivisor: 4
GridSize: 16
TimelineZoom: 1

[Metadata]
Title:story (TV Size)
TitleUnicode:story (TV Size)
Artist:Maeshima Mayu
ArtistUnicode:前島麻由
Creator:Usaha
Version:Insane
Source:異世界おじさん
Tags:isekai ojisan takekii takeki hanasaka yui nana abe azunyan- azu xexyz sakuma mayu ayana rugmunch himekawa angelina jailbait -rei mochia japanese anime pop rock anime
BeatmapID:3809431
BeatmapSetID:1804158

[Difficulty]
HPDrainRate:5
CircleSize:4
OverallDifficulty:8
ApproachRate:9
SliderMultiplier:1.7
SliderTickRate:1

[Events]
//Background and Video events
0,0,"bg.jpg",0,0
Video,512,"story.mp4"
//Break Periods
//Storyboard Layer 0 (Background)
//Storyboard Layer 1 (Fail)
//Storyboard Layer 2 (Pass)
//Storyboard Layer 3 (Foreground)
//Storyboard Layer 4 (Overlay)
//Storyboard Sound Samples

[TimingPoints]
27,272.727272727273,4,2,1,40,1,0
1117,-100,4,2,1,75,0,0
9845,-100,4,2,1,55,0,0
14208,-100,4,2,1,50,0,0
14754,-125,4,2,1,50,0,0
21299,-125,4,2,1,60,0,0
21845,-125,4,2,1,70,0,0
22936,-100,4,2,1,60,0,0
31117,-100,4,2,1,40,0,0
32481,-166.666666666667,4,2,1,40,0,0
36027,-166.666666666667,4,2,1,50,0,0
37117,-166.666666666667,4,2,1,55,0,0
38208,-166.666666666667,4,2,1,60,0,0
39845,-83.3333333333333,4,2,1,70,0,0
40117,-250.000000000001,4,2,1,80,0,0
40390,-80,4,2,1,65,0,0
40799,-90.9090909090909,4,2,1,65,0,0
44754,-90.9090909090909,4,2,1,80,0,0
46936,-90.9090909090909,4,2,1,85,0,0
49117,-76.9230769230769,4,2,1,90,0,1
49390,-90.9090909090909,4,2,1,90,0,1
66027,-90.9090909090909,4,2,1,90,0,0
66572,-90.9090909090909,4,2,1,90,0,1
74208,-100,4,2,1,90,0,1
75299,-76.9230769230769,4,2,1,90,0,0
75845,-90.9090909090909,4,2,1,90,0,0
84027,-90.9090909090909,4,2,1,70,0,0
84981,-100,4,2,1,70,0,0
88186,-100,4,2,1,50,0,0

[Colours]
Combo1 : 128,128,255
Combo2 : 134,249,163
Combo3 : 234,204,149
Combo4 : 255,128,128

[HitObjects]
155,251,572,5,2,1:3:0:0:
155,251,708,6,0,P|166:277|193:301,1,42.5,2|0,2:3|2:0,0:0:0:0:
249,307,845,2,0,P|287:278|279:178,1,127.5,2|0,1:3|2:0,0:0:0:0:
193,163,1117,6,0,B|173:117|173:117|203:-2,1,170,6|8,1:2|2:1,0:0:0:0:
295,45,1527,2,0,P|342:40|376:8,1,85,2|0,2:0|2:0,0:0:0:0:
444,152,1799,1,2,1:2:0:0:
444,152,1936,2,0,P|410:126|368:123,1,85,8|0,2:1|2:0,0:0:0:0:
267,241,2208,6,0,L|279:337,1,85,2|0,1:2|2:0,0:0:0:0:
141,370,2481,2,0,L|153:274,1,85,8|0,2:1|2:0,0:0:0:0:
15,175,2754,1,0,2:0:0:0:
108,204,2890,2,0,P|156:204|195:178,1,85,0|8,1:0|2:1,0:0:0:0:
213,77,3163,1,0,2:0:0:0:
274,234,3299,6,0,L|296:41,1,170,4|8,1:2|2:1,0:0:0:0:
148,132,3708,2,0,P|102:124|118:17,1,170,0|0,2:1|1:0,0:0:0:0:
259,130,4117,1,8,0:1:0:0:
259,130,4390,5,0,1:0:0:0:
178,295,4527,2,0,L|73:286,1,85,0|8,2:0|2:1,0:0:0:0:
167,207,4799,2,0,P|237:210|286:298,1,170,0|0,2:0|1:0,0:0:0:0:
454,234,5208,1,8,2:1:0:0:
349,163,5345,1,0,2:0:0:0:
208,290,5481,6,0,L|195:79,1,170,4|8,1:2|2:1,0:0:0:0:
349,163,5890,2,0,L|360:52,1,85,0|0,2:0|2:0,0:0:0:0:
248,17,6163,1,0,1:0:0:0:
248,17,6299,2,0,P|243:60|283:60,1,85,8|0,2:1|2:0,0:0:0:0:
509,136,6572,6,0,P|443:85|360:93,1,170,0|8,1:0|2:1,0:0:0:0:
288,181,6981,1,0,2:0:0:0:
288,181,7117,2,0,L|301:277,1,85,0|0,2:0|1:0,0:0:0:0:
414,257,7390,2,0,L|401:353,1,85,8|0,2:1|2:0,0:0:0:0:
215,376,7663,6,0,B|147:360|147:360|111:369|111:369|38:352,1,170,0|8,1:0|2:1,0:0:0:0:
193,287,8072,2,0,P|212:242|201:202,1,85,0|0,2:0|2:0,0:0:0:0:
0,196,8345,1,0,1:0:0:0:
53,251,8481,2,0,L|166:235,1,85,8|0,2:1|2:0,0:0:0:0:
257,130,8754,5,8,3:2:0:0:
132,162,8890,2,0,P|80:155|48:128,1,85,0|0,3:0|3:0,0:0:0:0:
179,73,9163,1,0,3:0:0:0:
211,217,9299,5,8,3:2:0:0:
272,49,9436,1,0,3:0:0:0:
211,217,9572,1,0,3:0:0:0:
272,49,9708,1,0,3:0:0:0:
211,217,9845,6,0,P|196:260|281:339,1,170,6|2,1:2|2:0,0:0:0:0:
363,289,10390,1,8,2:1:0:0:
363,289,10663,6,0,L|368:193,1,85,2|2,2:0|2:0,0:0:0:0:
470,145,10936,1,0,1:0:0:0:
470,145,11072,2,0,L|478:234,1,85,2|2,2:0|2:0,0:0:0:0:
282,183,11345,1,0,2:0:0:0:
282,183,11481,2,0,P|257:126|336:69,1,170,8|2,2:1|2:0,0:0:0:0:
108,229,12027,6,0,L|6:243,1,85,2|0,1:2|2:0,0:0:0:0:
154,137,12299,2,0,L|140:35,1,85,2|0,2:0|2:0,0:0:0:0:
14,81,12572,1,8,2:1:0:0:
189,237,12845,6,0,P|238:237|278:203,1,85,0|2,2:0|2:0,0:0:0:0:
356,185,13117,1,2,1:2:0:0:
356,185,13254,2,0,P|359:226|338:263,1,85,0|2,2:0|1:2,0:0:0:0:
235,136,13663,5,2,1:2:0:0:
277,66,13799,1,2,1:2:0:0:
355,59,13936,1,2,1:2:0:0:
230,217,14072,1,2,1:2:0:0:
165,21,14208,1,6,3:2:0:0:
165,21,14754,6,0,L|150:171,1,136,8|0,2:0|2:0,0:0:0:0:
69,182,15163,1,2,3:2:0:0:
14,114,15436,1,2,3:2:0:0:
69,182,15708,1,2,2:0:0:0:
25,253,15845,2,0,L|5:293,3,34,8|0|0|0,2:0|2:0|3:0|2:0,0:0:0:0:
102,260,16117,2,0,P|121:294|116:339,1,68,2|0,3:2|2:0,0:0:0:0:
142,370,16390,6,0,P|180:308|263:306,1,136,6|0,3:2|2:0,0:0:0:0:
475,326,16936,2,0,B|434:347|434:347|321:315,1,136,10|0,2:0|2:0,0:0:0:0:
302,247,17345,1,2,3:2:0:0:
354,176,17617,1,2,3:2:0:0:
302,247,17890,1,0,2:0:0:0:
215,222,18027,2,0,L|163:197,2,34,10|0|0,2:0|2:0|2:0,0:0:0:0:
270,141,18299,1,2,3:2:0:0:
270,141,18436,1,2,2:0:0:0:
109,181,18572,6,0,P|62:165|72:69,1,136,4|0,3:2|2:0,0:0:0:0:
292,147,19117,2,0,P|339:131|329:35,1,136,10|0,2:0|2:0,0:0:0:0:
270,30,19527,1,2,3:2:0:0:
205,92,19799,1,2,3:2:0:0:
119,61,20072,1,0,2:0:0:0:
205,92,20208,6,0,P|218:135|213:167,1,68,8|0,2:0|2:0,0:0:0:0:
157,230,20481,2,0,L|101:219,3,34,0|0|0|0,2:0|2:0|2:0|2:0,0:0:0:0:
221,278,20754,2,0,L|358:264,1,136,2|0,3:2|2:0,0:0:0:0:
193,353,21299,2,0,L|56:339,1,136,2|0,3:2|2:0,0:0:0:0:
31,249,21708,1,0,2:0:0:0:
31,249,21845,6,0,P|31:220|16:182,2,45.3333333333333,2|0|0,3:2|2:0|2:0,0:0:0:0:
122,216,22117,6,0,P|135:190|140:149,2,45.3333333333333,2|0|0,3:2|2:0|2:0,0:0:0:0:
183,280,22390,6,0,L|228:288,3,34,6|0|0|0,3:2|2:0|2:0|2:0,0:0:0:0:
171,361,22663,5,0,2:0:0:0:
196,359,22731,5,0,2:0:0:0:
221,357,22799,5,0,2:0:0:0:
247,355,22867,5,0,2:0:0:0:
272,353,22936,6,0,L|288:166,1,170,2|8,1:2|2:1,0:0:0:0:
177,205,23345,2,0,P|139:180|175:63,1,170,2|0,2:0|1:0,0:0:0:0:
321,106,23754,1,8,2:1:0:0:
321,106,24027,6,0,B|374:142|374:142|494:124,1,170,2|8,1:2|2:1,0:0:0:0:
354,33,24436,2,0,P|273:35|227:111,1,170,2|0,2:0|1:0,0:0:0:0:
215,285,24845,1,8,2:1:0:0:
215,285,25117,6,0,P|196:235|85:218,1,170,2|8,1:2|2:1,0:0:0:0:
156,367,25527,2,0,L|347:344,1,170,2|0,2:0|1:0,0:0:0:0:
448,299,25936,2,0,P|403:278|355:279,1,85,8|0,2:1|2:0,0:0:0:0:
229,212,26208,6,0,L|222:119,1,85,0|0,1:0|2:0,0:0:0:0:
332,95,26481,2,0,L|325:188,1,85,8|0,2:1|2:0,0:0:0:0:
134,156,26754,1,0,2:0:0:0:
157,67,26890,1,0,1:0:0:0:
217,204,27027,2,0,L|202:300,1,85,8|0,2:1|2:0,0:0:0:0:
68,100,27299,6,0,P|132:80|221:139,1,170,0|8,1:0|2:1,0:0:0:0:
364,88,27708,1,2,2:0:0:0:
267,73,27845,2,0,P|249:27|268:-14,1,85,2|2,2:0|1:2,0:0:0:0:
420,29,28117,1,8,2:1:0:0:
305,142,28254,1,0,2:0:0:0:
512,236,28390,6,0,P|444:186|361:192,1,170,0|8,1:0|2:1,0:0:0:0:
272,257,28799,1,0,2:0:0:0:
272,257,28936,2,0,L|285:357,1,85,0|0,2:0|1:0,0:0:0:0:
163,241,29208,2,0,L|176:141,1,85,8|2,2:1|2:0,0:0:0:0:
0,348,29481,6,0,P|53:350|59:246,1,170,0|8,1:0|2:1,0:0:0:0:
13,102,29890,2,0,P|40:149|71:159,1,85,0|0,2:0|2:0,0:0:0:0:
192,123,30163,2,0,P|219:76|212:44,1,85,0|8,1:0|2:1,0:0:0:0:
95,16,30436,1,0,3:0:0:0:
95,16,30572,1,0,1:2:0:0:
143,145,30708,1,0,1:2:0:0:
289,81,30845,1,0,1:2:0:0:
247,243,30981,2,0,L|285:341,1,85,0|2,1:2|2:0,0:0:0:0:
410,226,31663,5,2,2:0:0:0:
410,226,32481,2,0,P|411:186|420:165,1,50.9999999999999,2|0,2:0|2:0,0:0:0:0:
349,130,32754,1,2,2:0:0:0:
349,130,33572,2,0,P|331:161|326:190,1,50.9999999999999,2|0,2:0|2:0,0:0:0:0:
253,203,33845,1,2,2:0:0:0:
253,203,34663,1,2,2:0:0:0:
177,188,34936,6,0,P|168:160|168:130,1,50.9999999999999,2|0,2:0|2:0,0:0:0:0:
253,76,35208,2,0,L|244:134,1,50.9999999999999,2|0,2:0|2:0,0:0:0:0:
329,162,35481,2,0,L|338:104,1,50.9999999999999,2|0,2:0|2:0,0:0:0:0:
405,65,35754,2,0,P|414:93|414:123,1,50.9999999999999,2|0,2:0|2:0,0:0:0:0:
320,253,36027,5,2,2:0:0:0:
320,253,36845,2,0,L|262:269,1,50.9999999999999,2|0,2:0|2:0,0:0:0:0:
197,283,37117,1,0,2:0:0:0:
197,283,37936,2,0,L|138:278,1,50.9999999999999,0|0,2:0|2:0,0:0:0:0:
67,281,38208,1,2,2:0:0:0:
67,281,38481,1,0,2:0:0:0:
67,281,38754,1,0,2:0:0:0:
67,281,39027,1,2,2:0:0:0:
67,281,39299,6,0,L|72:223,1,50.9999999999999,2|0,2:0|2:0,0:0:0:0:
173,147,39572,2,0,L|166:203,1,50.9999999999999,2|0,2:0|2:0,0:0:0:0:
220,286,39845,2,0,P|293:294|347:243,1,153,2|0,3:2|2:0,0:0:0:0:
282,205,40117,2,0,P|273:196|252:221,1,50.9999999999998,2|0,3:2|2:0,0:0:0:0:
282,205,40390,6,0,P|288:149|252:104,1,106.25,4|0,1:0|2:0,0:0:0:0:
140,138,40663,1,2,1:2:0:0:
140,138,40799,2,0,L|122:34,1,93.5,2|0,2:0|1:0,0:0:0:0:
24,177,41072,1,2,2:0:0:0:
24,177,41208,1,2,1:2:0:0:
131,231,41345,1,2,2:0:0:0:
243,184,41481,6,0,L|346:199,1,93.5,2|0,1:2|2:0,0:0:0:0:
332,296,41754,2,0,L|435:311,1,93.5,2|0,1:2|2:0,0:0:0:0:
413,206,42027,2,0,L|516:221,1,93.5,0|0,1:0|2:0,0:0:0:0:
399,101,42299,1,2,1:2:0:0:
399,101,42436,1,2,2:0:0:0:
278,145,42572,6,0,P|250:109|249:63,1,93.5,2|0,1:2|2:0,0:0:0:0:
333,26,42845,1,2,1:2:0:0:
356,167,42981,2,0,L|337:265,1,93.5,2|0,2:0|1:0,0:0:0:0:
227,324,43254,1,2,2:0:0:0:
227,324,43390,1,0,1:0:0:0:
116,250,43527,1,0,3:0:0:0:
228,231,43663,6,0,P|238:181|225:132,1,93.5,2|2,1:2|2:0,0:0:0:0:
74,73,43936,2,0,L|86:166,1,93.5,2|0,1:2|2:0,0:0:0:0:
275,36,44208,2,0,L|264:134,1,93.5,0|0,1:0|2:0,0:0:0:0:
164,44,44481,1,0,1:0:0:0:
164,44,44754,6,0,L|191:236,1,187,4|0,1:2|2:0,0:0:0:0:
234,170,45163,6,0,L|207:362,1,187,4|0,1:2|2:0,0:0:0:0:
137,342,45572,6,0,P|204:284|285:321,1,187,4|0,1:2|2:0,0:0:0:0:
284,301,45981,6,0,P|203:264|135:321,1,187,4|0,1:2|2:0,0:0:0:0:
118,310,46390,6,0,L|94:219,1,93.5,4|0,1:2|2:0,0:0:0:0:
231,201,46663,6,0,L|255:110,1,93.5,4|0,1:2|3:0,0:0:0:0:
273,42,46867,1,0,3:0:0:0:
273,42,46936,1,8,3:2:0:0:
364,124,47072,2,0,P|390:76|384:31,1,93.5,0|0,3:0|3:0,0:0:0:0:
244,146,47345,5,8,3:2:0:0:
343,215,47481,2,0,L|439:206,1,93.5,0|0,3:0|3:0,0:0:0:0:
219,272,47754,5,8,3:2:0:0:
346,319,47890,1,0,3:0:0:0:
150,352,48027,1,8,2:0:0:0:
313,250,48299,1,8,2:0:0:0:
165,192,48572,2,0,L|108:187,7,46.75,0|0|0|0|0|0|0|0,2:0|2:0|2:0|2:0|2:0|2:0|2:0|2:0,0:0:0:0:
118,187,49117,6,0,P|182:197|260:122,1,165.75,4|0,1:0|2:0,0:0:0:0:
206,78,49390,2,0,P|247:64|299:69,1,93.5,8|0,2:1|2:0,0:0:0:0:
399,215,49663,2,0,P|352:219|308:205,1,93.5,2|0,2:0|1:0,0:0:0:0:
425,102,49936,1,8,2:1:0:0:
333,137,50072,6,0,L|323:28,1,93.5,2|0,1:2|2:0,0:0:0:0:
512,40,50345,2,0,L|502:149,1,93.5,2|8,2:0|2:1,0:0:0:0:
330,298,50617,2,0,P|239:273|224:191,1,187,2|0,2:0|1:0,0:0:0:0:
308,218,51027,2,0,P|268:258|224:271,1,93.5,8|0,2:1|2:0,0:0:0:0:
2,225,51299,6,0,P|49:205|153:285,1,187,2|8,1:2|2:1,0:0:0:0:
212,358,51708,1,0,2:0:0:0:
335,314,51845,2,0,L|451:302,1,93.5,2|0,2:0|1:0,0:0:0:0:
475,228,52117,1,8,2:1:0:0:
276,236,52254,6,0,P|246:197|248:153,1,93.5,2|0,1:2|2:0,0:0:0:0:
374,95,52527,2,0,L|360:192,1,93.5,2|8,2:0|2:1,0:0:0:0:
160,181,52799,2,0,P|161:114|290:84,1,187,2|0,2:0|1:0,0:0:0:0:
155,112,53208,2,0,L|51:101,1,93.5,8|0,2:1|2:0,0:0:0:0:
118,250,53481,6,0,L|309:226,1,187,2|8,1:2|2:1,0:0:0:0:
454,170,53890,2,0,L|351:148,1,93.5,2|0,2:0|2:1,0:0:0:0:
313,289,54163,2,0,L|210:267,1,93.5,2|8,1:2|2:1,0:0:0:0:
180,142,54436,5,0,1:0:0:0:
180,142,54572,1,0,2:0:0:0:
62,256,54708,2,0,P|16:249|34:226,1,93.5,0|8,3:0|2:1,0:0:0:0:
181,222,54981,2,0,P|240:216|257:73,1,187,0|0,2:0|1:0,0:0:0:0:
113,63,55390,2,0,L|225:35,1,93.5,8|0,2:1|2:0,0:0:0:0:
363,27,55663,6,0,B|465:51|465:51|415:117,1,187,2|8,1:2|2:1,0:0:0:0:
300,164,56072,2,0,L|313:277,1,93.5,2|0,2:0|2:0,0:0:0:0:
421,330,56345,2,0,P|432:281|416:232,1,93.5,2|8,1:2|2:1,0:0:0:0:
231,316,56617,6,0,L|131:298,1,93.5,0|0,1:0|2:0,0:0:0:0:
57,251,56890,2,0,P|97:226|143:223,1,93.5,0|8,2:0|2:1,0:0:0:0:
313,319,57163,2,0,P|359:272|311:138,1,187,2|0,2:0|1:0,0:0:0:0:
216,209,57572,1,8,2:1:0:0:
143,105,57708,1,0,2:0:0:0:
259,121,57845,6,0,P|267:75|250:32,1,93.5,2|0,1:2|2:0,0:0:0:0:
57,130,58117,2,0,P|92:159|138:165,1,93.5,8|0,2:1|2:0,0:0:0:0:
300,197,58390,2,0,L|396:183,1,93.5,0|0,2:1|1:0,0:0:0:0:
452,130,58663,1,8,2:1:0:0:
286,300,58799,6,0,L|190:286,1,93.5,2|0,1:2|2:0,0:0:0:0:
347,184,59072,2,0,L|251:170,1,93.5,2|8,2:0|2:1,0:0:0:0:
432,340,59345,2,0,P|483:312|456:200,1,187,0|0,2:0|1:0,0:0:0:0:
344,184,59754,2,0,P|331:123|344:84,1,93.5,8|0,2:1|2:0,0:0:0:0:
454,56,60027,6,0,L|296:73,1,140.25,0|0,1:0|2:0,0:0:0:0:
241,85,60299,2,0,L|142:66,1,93.5,8|0,2:1|2:0,0:0:0:0:
5,157,60572,2,0,P|43:190|94:187,1,93.5,0|0,2:1|1:0,0:0:0:0:
195,151,60845,1,8,2:1:0:0:
265,267,60981,6,0,L|243:361,1,93.5,2|0,1:2|2:0,0:0:0:0:
153,224,61254,2,0,L|165:319,1,93.5,0|8,2:0|2:1,0:0:0:0:
302,181,61527,2,0,P|390:178|432:257,1,187,0|0,2:0|1:0,0:0:0:0:
360,355,61936,2,0,L|338:255,1,93.5,8|0,2:1|2:1,0:0:0:0:
233,116,62208,6,0,P|291:135|390:54,1,187,6|8,1:2|2:1,0:0:0:0:
158,73,62617,2,0,P|147:122|165:172,1,93.5,2|0,2:0|2:0,0:0:0:0:
306,163,62890,2,0,P|317:114|299:64,1,93.5,0|8,1:0|2:1,0:0:0:0:
234,192,63163,6,0,L|265:388,1,187,2|2,1:2|2:0,0:0:0:0:
335,293,63572,1,8,2:1:0:0:
154,370,63708,2,0,P|96:344|167:294,1,187,2|0,2:0|1:0,0:0:0:0:
330,372,64117,2,0,P|378:362|414:330,1,93.5,8|0,2:1|2:0,0:0:0:0:
378,211,64390,6,0,L|168:186,1,187,2|8,1:2|2:1,0:0:0:0:
121,110,64799,2,0,P|159:84|205:87,1,93.5,0|0,2:0|2:0,0:0:0:0:
375,114,65072,1,0,1:0:0:0:
375,114,65208,6,0,L|280:127,1,93.5,8|0,2:1|1:0,0:0:0:0:
176,153,65481,2,0,P|164:106|174:58,1,93.5,2|0,2:0|2:0,0:0:0:0:
121,240,65754,2,0,P|73:227|36:194,1,93.5,8|0,2:1|2:0,0:0:0:0:
218,276,66027,2,0,L|232:388,3,93.5,4|4|8|8,3:0|3:0|3:0|3:0,0:0:0:0:
326,301,66572,6,0,B|394:317|394:317|468:286|468:286|511:318,1,187,6|8,1:2|2:1,0:0:0:0:
322,321,66981,2,0,B|390:337|390:337|464:306|464:306|507:338,1,187,2|0,2:0|1:0,0:0:0:0:
358,230,67390,2,0,P|358:188|401:142,1,93.5,8|0,2:1|2:0,0:0:0:0:
393,316,67663,6,0,B|363:338|363:338|289:307|289:307|221:323,1,187,6|8,1:2|2:1,0:0:0:0:
397,336,68072,2,0,B|367:358|367:358|293:327|293:327|225:343,1,187,2|0,2:0|1:0,0:0:0:0:
114,318,68481,2,0,P|108:271|122:227,1,93.5,8|0,2:1|2:0,0:0:0:0:
269,239,68754,6,0,P|315:219|281:88,1,187,4|8,1:2|2:1,0:0:0:0:
208,130,69163,2,0,L|191:229,1,93.5,2|0,2:0|2:0,0:0:0:0:
92,88,69436,1,0,1:0:0:0:
92,88,69572,2,0,L|109:187,1,93.5,8|0,2:1|2:0,0:0:0:0:
254,57,69845,6,0,P|325:63|366:176,1,187,6|8,1:2|2:1,0:0:0:0:
268,301,70254,2,0,P|267:249|299:206,1,93.5,2|0,2:0|2:0,0:0:0:0:
459,264,70527,1,0,1:0:0:0:
459,264,70663,2,0,L|365:274,1,93.5,8|0,2:1|2:0,0:0:0:0:
187,353,70936,6,0,B|56:339|56:339|13:295,1,187,6|8,1:2|2:1,0:0:0:0:
194,178,71345,2,0,P|192:246|95:233,1,187,0|0,2:0|1:0,0:0:0:0:
22,161,71754,2,0,L|126:148,1,93.5,8|0,2:1|2:0,0:0:0:0:
282,186,72027,6,0,P|294:132|277:89,1,93.5,0|0,1:0|3:0,0:0:0:0:
177,12,72299,1,8,2:1:0:0:
177,12,72436,2,0,L|196:108,2,93.5,0|0|0,2:0|3:0|1:0,0:0:0:0:
296,16,72845,5,8,2:1:0:0:
362,104,72981,1,0,2:0:0:0:
468,57,73117,2,0,L|369:23,1,93.5,0|0,1:0|3:0,0:0:0:0:
258,121,73390,1,8,2:1:0:0:
300,186,73527,2,0,L|399:220,1,93.5,0|0,3:0|3:0,0:0:0:0:
436,346,73799,1,0,1:0:0:0:
361,371,73936,2,0,L|262:337,1,93.5,8|0,2:1|3:0,0:0:0:0:
139,298,74208,6,0,B|129:337|129:337|205:333|203:241,1,170,4|0,1:0|2:0,0:0:0:0:
92,228,74617,6,0,P|43:222|94:147,1,170,4|0,1:0|2:0,0:0:0:0:
226,169,75027,6,0,P|238:116|220:75,1,85,4|0,1:0|0:0,0:0:0:0:
127,83,75299,6,0,L|351:47,1,221,6|8,1:2|2:1,0:0:0:0:
453,46,75708,1,0,3:0:0:0:
453,46,75845,2,0,P|479:86|477:134,1,93.5,2|0,2:0|3:0,0:0:0:0:
399,197,76117,2,0,P|351:199|310:173,1,93.5,8|0,2:1|2:0,0:0:0:0:
73,242,76390,6,0,P|136:178|223:197,1,187,2|8,1:2|2:1,0:0:0:0:
279,294,76799,1,0,2:0:0:0:
193,359,76936,2,0,L|99:346,1,93.5,0|0,2:0|1:0,0:0:0:0:
206,227,77208,2,0,L|120:185,1,93.5,8|0,2:1|2:0,0:0:0:0:
316,198,77481,6,0,L|285:5,1,187,2|8,1:2|2:1,0:0:0:0:
215,102,77890,1,0,2:0:0:0:
108,58,78027,2,0,P|61:78|34:119,1,93.5,0|0,2:0|3:3,0:0:0:0:
114,241,78299,2,0,L|137:132,1,93.5,8|0,2:1|2:0,0:0:0:0:
242,236,78572,6,0,L|265:345,1,93.5,2|0,1:2|2:0,0:0:0:0:
432,349,78845,2,0,P|389:328|339:328,1,93.5,8|0,2:1|2:0,0:0:0:0:
188,369,79117,2,0,L|165:260,1,93.5,2|0,2:0|1:0,0:0:0:0:
333,246,79390,2,0,L|310:137,1,93.5,8|0,2:1|2:0,0:0:0:0:
84,144,79663,6,0,P|155:165|235:80,1,187,2|8,1:2|2:1,0:0:0:0:
203,192,80072,1,0,2:0:0:0:
203,192,80208,2,0,L|186:307,1,93.5,0|0,2:0|3:3,0:0:0:0:
82,340,80481,2,0,P|76:287|101:248,1,93.5,8|0,2:1|2:0,0:0:0:0:
300,318,80754,6,0,P|336:289|319:150,1,187,0|8,1:0|2:1,0:0:0:0:
235,105,81163,1,0,2:0:0:0:
286,34,81299,2,0,L|386:23,1,93.5,0|0,2:0|1:0,0:0:0:0:
497,144,81572,2,0,L|397:133,1,93.5,8|0,2:1|2:0,0:0:0:0:
187,183,81845,6,0,P|148:138|194:27,1,187,0|8,1:2|2:1,0:0:0:0:
272,199,82254,1,0,2:0:0:0:
272,199,82390,2,0,L|246:303,1,93.5,0|0,2:0|1:0,0:0:0:0:
150,352,82663,2,0,L|135:250,1,93.5,8|0,2:1|3:0,0:0:0:0:
22,154,82936,6,0,P|29:203|64:186,1,93.5,0|0,1:0|3:0,0:0:0:0:
152,114,83208,2,0,P|154:59|133:15,1,93.5,8|0,2:1|3:0,0:0:0:0:
213,216,83481,2,0,P|254:216|249:175,1,93.5,0|0,3:0|1:0,0:0:0:0:
152,114,83754,1,8,2:1:0:0:
125,219,83890,1,0,3:0:0:0:
285,101,84027,5,4,1:2:0:0:
365,210,84299,1,0,2:0:0:0:
475,165,84572,1,8,2:1:0:0:
475,165,84845,5,0,2:0:0:0:
391,131,84981,2,0,P|380:84|387:42,1,85,0|0,2:0|1:0,0:0:0:0:
473,3,85254,1,0,2:0:0:0:
473,3,85390,2,0,L|455:90,1,85,0|0,2:0|2:1,0:0:0:0:
299,100,85663,5,8,2:1:0:0:
299,100,85799,2,0,L|198:84,2,85,0|0|0,2:0|2:0|2:1,0:0:0:0:
244,171,86208,2,0,P|190:174|157:154,1,85,4|0,1:2|2:0,0:0:0:0:
145,44,86481,2,0,P|190:14|228:14,1,85,0|0,1:0|2:0,0:0:0:0:
327,113,86754,6,0,L|374:204,2,85,8|8|8,2:0|3:0|3:0,0:0:0:0:
124,145,87163,1,4,1:2:0:0:
256,192,87231,12,0,88186,2:0:0:0:
