osu file format v14

[General]
AudioFilename: audio.mp3
AudioLeadIn: 0
PreviewTime: 48988
Countdown: 0
SampleSet: Soft
StackLeniency: 0.5
Mode: 0
LetterboxInBreaks: 0
WidescreenStoryboard: 0

[Editor]
DistanceSpacing: 2.1
BeatDivisor: 4
GridSize: 32
TimelineZoom: 2

[Metadata]
Title:story (TV Size)
TitleUnicode:story (TV Size)
Artist:Maeshima Mayu
ArtistUnicode:前島麻由
Creator:Usaha
Version:Himekawa's Extra
Source:異世界おじさん
Tags:isekai ojisan takekii takeki hanasaka yui nana abe azunyan- azu xexyz sakuma mayu ayana rugmunch himekawa angelina jailbait -rei mochia japanese anime pop rock anime
BeatmapID:3763271
BeatmapSetID:1804158

[Difficulty]
HPDrainRate:5
CircleSize:4
OverallDifficulty:9.2
ApproachRate:9.5
SliderMultiplier:2
SliderTickRate:1

[Events]
//Background and Video events
0,0,"Suzailgiererzegalnelvzegilreagranzelga_Elga.jpg",0,0
Video,512,"story.mp4"
//Break Periods
//Storyboard Layer 0 (Background)
//Storyboard Layer 1 (Fail)
//Storyboard Layer 2 (Pass)
//Storyboard Layer 3 (Foreground)
//Storyboard Layer 4 (Overlay)
//Storyboard Sound Samples

[TimingPoints]
27,272.727272727273,4,2,1,40,1,0
845,-142.857142857143,4,2,1,40,0,0
1117,-71.4285714285714,4,2,1,75,0,0
1390,-100,4,2,1,75,0,0
1936,-125,4,2,1,75,0,0
2208,-100,4,2,1,75,0,0
3299,-71.4285714285714,4,2,1,75,0,0
3572,-100,4,2,1,75,0,0
5481,-71.4285714285714,4,2,1,75,0,0
5754,-100,4,2,1,75,0,0
6299,-125,4,2,1,75,0,0
6572,-100,4,2,1,75,0,0
8754,-83.3333333333333,4,2,1,75,0,0
9845,-125,4,2,1,55,0,0
14208,-166.666666666667,4,2,1,50,0,0
20754,-142.857142857143,4,2,1,50,0,0
21299,-133.333333333333,4,2,1,60,0,0
21845,-125,4,2,1,70,0,0
22936,-111.111111111111,4,2,1,60,0,0
31117,-200,4,2,1,40,0,0
32754,-142.857142857143,4,2,1,40,0,0
33845,-149.253731343284,4,2,1,40,0,0
36027,-200,4,2,1,50,0,0
37117,-166.666666666667,4,2,1,55,0,0
38208,-142.857142857143,4,2,1,60,0,0
39845,-100,4,2,1,70,0,0
40117,-66.6666666666667,4,2,1,80,0,0
40390,-100,4,2,1,65,0,0
44754,-100,4,2,1,80,0,0
45163,-90.9090909090909,4,2,1,80,0,0
45572,-83.3333333333333,4,2,1,80,0,0
45981,-76.9230769230769,4,2,1,80,0,0
46390,-71.4285714285714,4,2,1,80,0,0
46936,-71.4285714285714,4,2,1,85,0,0
48572,-83.3333333333333,4,2,1,85,0,0
49117,-90.9090909090909,4,2,1,90,0,1
66572,-83.3333333333333,4,2,1,90,0,0
66981,-100,4,2,1,90,0,0
67663,-83.3333333333333,4,2,1,90,0,0
68072,-100,4,2,1,90,0,0
68754,-83.3333333333333,4,2,1,90,0,0
69163,-100,4,2,1,90,0,0
69845,-83.3333333333333,4,2,1,90,0,0
71345,-100,4,2,1,90,0,0
75027,-83.3333333333333,4,2,1,90,0,0
75299,-100,4,2,1,90,0,0
77208,-83.3333333333333,4,2,1,90,0,0
77481,-71.4285714285714,4,2,1,90,0,0
77754,-100,4,2,1,90,0,0
79390,-125,4,2,1,90,0,0
79663,-100,4,2,1,90,0,0
81572,-83.3333333333333,4,2,1,90,0,0
81845,-71.4285714285714,4,2,1,90,0,0
82117,-100,4,2,1,90,0,0
83481,-83.3333333333333,4,2,1,90,0,0
84027,-111.111111111111,4,2,1,70,0,0
87163,-133.333333333333,4,2,1,70,0,0
87844,-133.333333333333,4,2,1,70,0,0
88186,-133.333333333333,4,2,1,50,0,0

[Colours]
Combo1 : 254,196,171
Combo2 : 170,255,170
Combo3 : 254,219,171
Combo4 : 240,239,185

[HitObjects]
9,324,572,6,0,B|-6:303|-6:303|15:294,1,50,2|0,1:3|0:0,0:0:0:0:
136,319,708,2,0,B|151:339|151:339|129:348,1,50,2|0,2:3|2:0,2:0:0:0:
90,239,845,2,0,L|113:125,1,105,2|0,1:3|2:0,2:0:0:0:
130,25,1117,6,0,B|220:6|220:6|196:121,1,210,6|0,1:2|0:0,2:0:0:0:
123,20,1390,2,0,L|171:10,1,50,8|0,2:1|0:0,0:0:0:0:
340,95,1527,2,0,L|486:65,1,150,2|0,2:0|0:0,2:0:0:0:
497,51,1799,2,0,L|487:100,1,50,2|0,1:2|0:0,0:0:0:0:
512,263,1936,6,0,B|465:225|465:225|408:241,1,120,8|0,2:1|0:0,0:0:0:0:
392,333,2208,6,0,L|490:354,1,100,2|0,1:2|2:0,2:0:0:0:
132,281,2481,2,0,L|34:260,1,100,8|0,2:1|2:0,2:0:0:0:
164,384,2754,1,0,2:0:0:0:
200,197,2890,1,0,1:0:0:0:
16,354,3027,1,8,2:1:0:0:
52,167,3163,1,0,2:0:0:0:
55,157,3231,1,0,0:0:0:0:
58,147,3299,6,0,B|97:112|97:112|149:128|149:128|250:107,1,210,4|0,1:2|0:0,0:0:0:0:
259,113,3572,2,0,L|269:64,1,50,8|0,2:1|0:0,0:0:0:0:
428,36,3708,2,0,L|395:194,1,150,0|0,2:1|0:0,2:0:0:0:
397,182,3981,1,0,1:0:0:0:
340,0,4117,1,8,0:1:0:0:
291,204,4254,1,0,2:0:0:0:
495,139,4390,6,0,B|542:100|542:100|455:118,1,150,0|0,1:0|0:0,0:0:0:0:
401,186,4663,2,0,L|421:287,1,100,8|0,2:1|2:0,0:0:0:0:
420,283,4867,1,0,0:0:0:0:
420,283,4936,1,0,2:0:0:0:
389,374,5072,6,0,P|372:357|349:347,1,50,0|0,1:0|0:0,0:0:0:0:
333,257,5208,2,0,P|308:263|289:278,1,50,8|0,2:1|0:0,0:0:0:0:
202,247,5345,2,0,P|195:270|198:295,1,50,0|0,2:0|0:0,0:0:0:0:
89,384,5481,6,0,B|72:304|72:304|95:269|95:269|79:184,1,210,4|0,1:2|0:0,0:0:0:0:
77,172,5754,2,0,L|87:123,1,50,8|0,2:1|0:0,0:0:0:0:
7,12,5890,2,0,L|153:42,1,150,0|0,2:0|0:0,2:0:0:0:
228,3,6163,2,0,L|238:52,1,50,0|0,1:0|0:0,0:0:0:0:
363,136,6299,6,0,B|306:120|306:120|259:158,1,120,8|0,2:1|0:0,2:0:0:0:
275,238,6572,6,0,L|297:345,1,100,0|0,1:0|2:0,2:0:0:0:
442,118,6845,2,0,L|420:10,1,100,8|0,2:1|2:0,2:0:0:0:
259,159,7117,1,0,2:0:0:0:
459,198,7254,1,0,1:0:0:0:
275,238,7390,1,8,2:1:0:0:
475,277,7527,1,0,2:0:0:0:
291,317,7663,6,0,L|242:327,1,50,0|0,1:0|0:0,0:0:0:0:
50,281,7799,2,0,L|1:291,1,50,0|0,2:0|0:0,0:0:0:0:
130,384,7936,2,0,L|171:182,1,200,8|0,2:1|2:0,0:0:0:0:
0,25,8345,2,0,L|10:74,1,50,0|0,1:0|0:0,0:0:0:0:
177,195,8481,2,0,L|197:94,1,100,8|0,2:1|2:0,0:0:0:0:
196,96,8686,1,0,0:0:0:0:
196,96,8754,6,0,P|213:79|249:67,1,60,8|0,3:2|0:0,0:0:0:0:
296,4,8890,2,0,P|319:10|347:35,1,60,0|0,3:0|0:0,0:0:0:0:
425,44,9027,2,0,P|431:67|423:104,1,60,0|0,3:0|0:0,0:0:0:0:
264,160,9163,5,0,3:0:0:0:
264,160,9231,1,0,3:0:0:0:
264,160,9299,2,0,P|257:183|265:220,1,60,8|0,3:2|0:0,0:0:0:0:
233,292,9436,2,0,P|250:309|286:321,1,60,0|0,3:0|0:0,0:0:0:0:
332,384,9572,2,0,P|355:377|383:352,1,60,0|0,3:0|0:0,0:0:0:0:
370,183,9708,5,0,3:0:0:0:
370,183,9777,1,0,3:0:0:0:
370,183,9845,2,0,L|354:261,1,80,6|0,1:2|0:0,2:0:0:0:
497,234,10117,2,0,L|516:135,1,80,2|0,2:0|2:0,0:0:0:0:
383,38,10390,2,0,B|295:56|295:56|285:104,1,120,8|0,2:1|0:0,0:0:0:0:
288,85,10663,5,2,2:0:0:0:
446,102,10799,2,0,P|468:68|470:29,1,80,2|0,2:0|1:0,0:0:0:0:
383,38,11072,1,2,2:0:0:0:
278,169,11208,2,0,L|262:247,1,80,2|0,2:0|2:0,2:0:0:0:
236,384,11481,1,8,2:1:0:0:
366,338,11617,1,0,0:0:0:0:
262,248,11754,2,0,B|204:260|204:260|200:267|200:267|148:278,1,120,2|0,2:0|0:0,0:0:0:0:
137,280,12027,6,0,P|115:314|113:353,1,80,2|0,1:2|2:0,2:0:0:0:
0,248,12299,2,0,P|21:214|24:175,1,80,2|0,2:0|2:0,2:0:0:0:
106,7,12572,2,0,B|150:-3|185:25|169:35|204:64|249:54,1,160,8|0,2:1|2:0,0:0:0:0:
134,169,12981,6,0,L|118:90,1,80,2|2,2:0|1:2,0:0:0:0:
270,133,13254,1,0,2:0:0:0:
270,133,13390,2,0,L|285:211,1,80,2|0,1:2|2:0,2:0:0:0:
162,384,13663,6,0,L|151:329,1,40,2|0,1:2|0:0,0:0:0:0:
229,312,13799,2,0,L|247:259,1,40,2|0,1:2|0:0,0:0:0:0:
323,283,13936,2,0,L|365:246,1,40,2|0,1:2|0:0,0:0:0:0:
418,304,14072,2,0,L|472:293,1,40,2|0,1:2|0:0,0:0:0:0:
500,156,14208,6,0,L|383:180,1,120,6|0,3:2|0:0,0:0:0:0:
382,180,14617,1,0,3:0:0:0:
449,28,14754,2,0,B|465:52|465:52|460:82,1,59.9999999999999,8|0,2:0|2:1,2:1:0:0:
316,141,15027,1,0,2:0:0:0:
299,61,15163,2,0,L|287:3,1,59.9999999999999,2|0,3:2|0:0,2:0:0:0:
219,76,15436,2,0,L|207:17,1,59.9999999999999,2|0,3:2|0:0,0:0:0:0:
55,0,15708,5,2,2:0:0:0:
55,0,15777,1,0,0:0:0:0:
55,0,15845,2,0,L|60:29,1,29.9999999999999,8|0,2:0|2:0,2:0:0:0:
139,91,15981,2,0,L|134:62,1,29.9999999999999,0|0,3:0|2:0,2:0:0:0:
3,87,16117,2,0,L|18:178,1,89.9999999999998,2|0,3:2|0:0,2:0:0:0:
21,187,16390,6,0,B|99:200|99:200|106:221|122:232,1,120,6|0,3:2|2:0,2:0:0:0:
122,232,16799,1,0,3:0:0:0:
39,333,16936,2,0,L|49:274,1,59.9999999999999,10|0,2:0|0:0,2:0:0:0:
174,171,17208,1,0,2:0:0:0:
235,227,17345,2,0,P|235:256|224:284,1,59.9999999999999,2|0,3:2|0:0,2:0:0:0:
284,384,17617,2,0,P|283:354|295:327,1,59.9999999999999,2|0,3:2|0:0,0:0:0:0:
294,327,17890,1,0,2:0:0:0:
367,264,18027,5,10,2:0:0:0:
375,267,18117,37,0,0:0:0:0:
383,270,18208,5,0,0:0:0:0:
391,273,18299,37,2,3:2:0:0:
432,361,18436,1,2,2:0:0:0:
464,211,18572,6,0,B|494:225|494:225|512:311,1,120,4|0,3:2|2:0,2:0:0:0:
511,310,18981,1,0,3:0:0:0:
391,273,19117,2,0,L|379:215,1,59.9999999999999,10|0,2:0|0:0,2:0:0:0:
437,46,19390,1,0,2:0:0:0:
478,115,19527,2,0,B|454:131|454:131|424:126,1,59.9999999999999,2|0,3:2|0:0,2:1:0:0:
305,42,19799,2,0,B|329:26|329:26|359:31,1,59.9999999999999,2|0,3:2|0:0,0:0:0:0:
282,153,20072,2,0,B|258:169|258:169|228:164,1,59.9999999999999,0|8,2:0|2:0,0:0:0:0:
132,93,20345,1,0,2:0:0:0:
130,78,20413,1,0,0:0:0:0:
128,63,20481,1,0,2:0:0:0:
190,0,20617,1,0,2:0:0:0:
141,182,20754,6,0,L|-4:211,1,140,2|0,3:2|2:0,2:0:0:0:
3,209,21163,1,0,2:0:0:0:
233,261,21299,6,0,L|86:291,1,150,2|0,3:2|2:0,2:0:0:0:
86,290,21708,1,0,2:0:0:0:
331,334,21845,6,0,L|253:350,1,53.3333333333333,2|0,3:2|2:0,2:0:0:0:
402,280,22027,5,0,0:0:0:0:
402,280,22117,2,0,L|336:236,1,53.3333333333333,2|0,3:2|2:0,0:0:0:0:
490,291,22299,5,0,0:0:0:0:
490,291,22390,2,0,L|466:172,1,120,6|0,3:2|2:0,0:0:0:0:
469,165,22663,2,0,P|436:145|397:149,1,80,0|0,2:0|2:0,0:0:0:0:
288,0,22936,6,0,P|243:48|178:45,1,135,2|0,1:2|0:0,2:0:0:0:
177,44,23208,1,8,2:1:0:0:
292,208,23345,2,0,L|309:119,1,90.0000000000001,2|0,2:0|0:0,2:0:0:0:
192,243,23617,1,0,1:0:0:0:
107,88,23754,2,0,P|96:45|109:3,1,90.0000000000001,8|0,2:1|2:0,2:0:0:0:
0,190,24027,6,0,B|1:169|1:169|38:156|80:188|83:226,1,135,2|0,1:2|0:0,2:0:0:0:
83,226,24299,1,8,2:1:0:0:
37,361,24436,2,0,P|12:325|14:281,1,90.0000000000001,2|0,2:0|2:0,2:0:0:0:
192,243,24708,1,0,1:0:0:0:
267,296,24845,2,0,L|249:384,1,90.0000000000001,8|0,2:1|2:0,2:0:0:0:
417,236,25117,6,0,L|444:104,1,135,2|0,1:2|0:0,2:0:0:0:
444,104,25390,1,8,2:1:0:0:
256,0,25527,2,0,L|273:88,1,90.0000000000001,2|0,2:0|2:0,2:0:0:0:
461,14,25799,1,0,1:0:0:0:
332,168,25936,2,0,L|243:185,1,90.0000000000001,8|0,2:1|2:0,2:0:0:0:
26,20,26208,6,0,B|50:-2|50:-2|150:18,1,135,0|0,1:0|0:0,2:0:0:0:
164,12,26481,2,0,L|181:100,1,90.0000000000001,8|0,2:1|2:0,2:0:0:0:
133,271,26754,1,0,2:0:0:0:
1,148,26890,1,0,1:0:0:0:
78,89,27027,2,0,L|95:177,1,90.0000000000001,8|0,2:1|2:0,2:0:0:0:
0,365,27299,6,0,B|-15:339|-15:339|87:361,1,135,0|0,1:0|2:0,2:0:0:0:
87,361,27572,1,8,2:1:0:0:
224,251,27708,1,2,2:0:0:0:
96,178,27845,1,2,2:0:0:0:
46,255,27981,1,2,1:2:0:0:
210,361,28117,2,0,B|260:372|260:372|283:358|283:358|339:370,1,135,8|0,2:1|0:0,0:0:0:0:
343,381,28390,6,0,P|378:354|388:311,1,90.0000000000001,0|0,1:0|2:0,2:0:0:0:
298,160,28663,2,0,P|303:204|336:235,1,90.0000000000001,8|0,2:1|2:0,2:0:0:0:
512,232,28936,2,0,P|471:214|429:227,1,90.0000000000001,0|0,2:0|1:0,2:0:0:0:
388,312,29208,1,8,2:1:0:0:
475,133,29345,1,2,2:0:0:0:
471,111,29413,1,0,0:0:0:0:
467,89,29481,6,0,B|367:70|367:70|348:34,1,135,0|0,1:0|0:0,2:0:0:0:
341,48,29754,2,0,B|325:18|325:18|226:0,1,135,8|0,2:1|0:0,0:0:0:0:
226,0,30027,1,0,2:0:0:0:
25,93,30163,1,0,1:0:0:0:
193,246,30299,1,8,2:1:0:0:
156,118,30436,5,0,3:0:0:0:
156,118,30504,1,0,3:0:0:0:
156,118,30572,2,0,L|171:38,1,45,0|0,1:2|0:0,0:0:0:0:
80,226,30708,2,0,L|95:146,1,45,0|0,1:2|0:0,0:0:0:0:
193,246,30845,2,0,L|208:166,1,45,0|0,1:2|0:0,0:0:0:0:
117,354,30981,2,0,L|125:309,1,45,0|0,1:2|0:0,2:0:0:0:
270,268,31117,6,0,L|314:276,3,25,2|0|0|0,2:0|0:0|0:0|0:0,0:0:0:0:
371,295,31390,2,0,L|415:303,3,25
407,308,31663,6,0,B|456:286|467:215|434:165|434:165|482:170|500:213,1,250,2|0,2:0|2:0,2:0:0:0:
502,216,32481,2,0,L|488:282,1,50,2|0,2:0|2:0,2:0:0:0:
375,84,32754,6,0,B|399:36|364:-15|291:-10|273:49|293:80|293:80|288:88|288:88|309:119|309:161|267:191|202:177|191:115|222:74|265:85,1,420,2|2,2:0|2:0,2:0:0:0:
0,186,33845,6,0,B|39:171|77:205|77:205|80:201|80:201|122:245|184:221|184:221|224:256|197:299|197:299|150:322|89:299,1,401.999999999999,2|2,2:0|2:0,2:0:0:0:
256,384,34936,5,2,2:0:0:0:
423,300,35208,1,2,2:0:0:0:
256,192,35481,1,2,2:0:0:0:
423,108,35754,1,2,2:0:0:0:
256,0,36027,6,0,L|153:20,1,100,2|0,2:0|0:0,2:0:0:0:
75,44,36436,1,0,0:0:0:0:
75,44,36504,1,0,0:0:0:0:
75,44,36572,2,0,L|62:105,1,50,0|0,0:0|2:0,0:0:0:0:
119,169,36845,2,0,L|109:217,1,50,2|0,2:0|2:0,2:0:0:0:
0,304,37117,6,0,P|58:297|104:333,1,120,0|0,2:0|0:0,2:0:0:0:
186,284,37527,1,0,0:0:0:0:
186,284,37595,1,0,0:0:0:0:
185,284,37663,2,0,L|248:296,1,59.9999999999999,0|0,0:0|2:0,0:0:0:0:
324,370,37936,2,0,P|321:340|334:313,1,59.9999999999999,0|0,2:0|2:0,2:0:0:0:
218,158,38208,6,0,L|244:295,1,140,2|0,2:0|2:0,2:0:0:0:
412,261,38617,1,0,0:0:0:0:
412,261,38686,1,0,0:0:0:0:
412,261,38754,1,0,2:0:0:0:
467,185,38890,1,0,0:0:0:0:
396,125,39027,6,0,L|327:138,1,69.9999999999999,2|0,2:0|0:0,0:0:0:0:
149,171,39299,2,0,L|218:158,1,69.9999999999999,2|0,2:0|2:0,2:0:0:0:
246,5,39572,2,0,L|263:100,1,69.9999999999999,2|0,2:0|2:0,2:0:0:0:
95,246,39845,6,0,B|44:193|44:193|70:121,1,150,2|0,3:2|2:0,2:0:0:0:
149,171,40117,2,0,B|139:226|139:226|121:254|121:254|140:287|140:287|122:316|122:316|111:378,1,225,2|0,3:2|2:0,2:0:0:0:
122,378,40390,6,0,L|245:354,1,100,4|0,1:0|2:0,2:0:0:0:
384,228,40663,1,2,1:2:0:0:
334,383,40799,2,0,P|310:341|318:292,1,100,2|0,0:0|1:0,0:2:0:0:
449,164,41072,1,2,2:0:0:0:
497,355,41208,1,2,1:2:0:0:
311,287,41345,1,2,2:0:0:0:
452,153,41481,6,0,L|471:54,1,100,2|0,1:2|2:0,2:0:0:0:
255,15,41754,2,0,L|236:114,1,100,2|0,1:2|2:0,2:0:0:0:
0,175,42027,2,0,B|65:161|65:161|70:152|70:152|143:137,1,150,0|0,1:0|0:0,2:0:0:0:
141,137,42299,1,2,1:2:0:0:
38,0,42436,1,2,2:0:0:0:
81,194,42572,6,0,B|104:307,1,100,2|0,1:2|2:0,2:0:0:0:
122,384,42845,1,2,1:2:0:0:
213,194,42981,2,0,B|236:307,1,100,2|0,2:0|1:0,2:0:0:0:
254,384,43254,1,2,2:0:0:0:
101,292,43390,1,0,1:0:0:0:
326,218,43527,1,0,3:0:0:0:
326,218,43595,1,0,3:0:0:0:
326,218,43663,6,0,B|382:229,1,50,2|0,1:2|0:0,2:0:0:0:
512,207,43799,2,0,B|463:198,1,50,2|0,2:0|0:0,0:0:0:0:
332,64,43936,2,0,P|353:4|406:41,1,150,2|0,1:2|0:0,2:0:0:0:
414,38,44208,2,0,B|394:135,1,100,0|0,1:0|2:0,2:0:0:0:
355,325,44481,2,0,B|375:228,1,100,0|0,1:0|0:0,0:0:0:0:
256,0,44754,6,0,B|103:32|103:32|83:73,1,200,4|0,1:2|2:0,2:0:0:0:
111,161,45163,2,0,B|276:125|276:125|299:79,1,220,4|0,1:2|2:0,2:0:0:0:
401,223,45572,6,0,B|219:262|219:262|194:310,1,240,4|0,1:2|2:0,2:0:0:0:
250,384,45981,2,0,B|446:341|446:341|473:289,1,260,4|0,1:2|2:0,2:0:0:0:
451,102,46390,6,0,B|423:117|423:117|401:223,1,140,4|0,1:2|2:0,2:0:0:0:
194,309,46663,2,0,B|221:294|221:294|244:188,1,140,4|0,1:2|3:0,2:0:0:0:
205,125,46867,1,0,3:0:0:0:
205,125,46936,5,8,3:2:0:0:
26,211,47072,1,0,3:0:0:0:
194,309,47208,1,0,3:0:0:0:
284,119,47345,5,8,3:2:0:0:
156,384,47481,1,0,3:0:0:0:
86,104,47617,1,0,3:0:0:0:
334,262,47754,5,8,3:2:0:0:
0,125,47890,1,0,3:0:0:0:
309,0,48027,5,8,2:0:0:0:
512,384,48299,1,8,2:0:0:0:
512,384,48572,6,0,B|518:331|477:302|477:302|518:251|482:185|482:185|489:242|461:283|440:260|408:312|432:368,1,420,0|0,2:0|2:0,0:0:0:0:
427,380,49117,6,0,B|265:347,1,165,4|0,1:0|2:0,2:0:0:0:
255,353,49390,2,0,P|226:308|234:249,1,110,8|0,2:1|2:0,2:0:0:0:
374,104,49663,2,0,P|403:149|395:208,1,110,2|0,2:0|1:0,0:0:0:0:
189,170,49936,1,8,2:1:0:0:
337,2,50072,6,0,B|450:25,1,110,2|0,1:2|2:0,2:0:0:0:
180,160,50345,2,0,B|66:136,1,110,2|8,2:0|2:1,2:0:0:0:
273,353,50617,2,0,B|333:365|333:365|361:347|361:347|429:361,1,165,2|0,2:0|0:0,2:0:0:0:
428,370,50890,2,0,B|347:386,1,55,0|0,1:0|0:0,0:0:0:0:
201,317,51027,2,0,B|222:276|204:236|204:236|230:271|274:272,1,165,8|0,2:1|0:0,2:0:0:0:
274,272,51299,5,2,1:2:0:0:
124,370,51436,1,0,2:0:0:0:
36,199,51572,2,0,B|60:85,1,110,8|0,2:1|2:0,0:0:0:0:
279,187,51845,2,0,B|440:153,1,165,2|0,2:0|0:0,2:0:0:0:
447,164,52117,2,0,B|458:110,1,55,8|0,2:1|0:0,0:0:0:0:
241,1,52254,6,0,B|264:109,1,110,2|0,1:2|2:0,2:0:0:0:
316,372,52527,2,0,B|294:265,1,110,2|8,2:0|2:1,2:0:0:0:
38,234,52799,2,0,B|200:202,1,165,2|0,2:0|0:0,2:0:0:0:
197,214,53072,2,0,B|186:268,1,55,0|0,1:0|0:0,0:0:0:0:
30,243,53208,2,0,P|1:197|12:138,1,110,8|0,2:1|2:0,2:0:0:0:
212,1,53481,5,2,1:2:0:0:
115,193,53617,1,0,0:0:0:0:
18,50,53754,1,8,2:1:0:0:
108,72,53890,2,0,B|214:94,1,110,2|0,2:0|2:1,0:0:0:0:
328,272,54163,2,0,B|434:294,1,110,2|8,1:2|2:1,2:0:0:0:
512,241,54436,1,0,1:0:0:0:
378,43,54572,5,0,2:0:0:0:
305,101,54708,1,0,3:0:0:0:
302,114,54777,1,0,3:0:0:0:
299,127,54845,1,8,2:1:0:0:
436,295,54981,1,0,2:0:0:0:
512,95,55117,1,0,0:0:0:0:
317,268,55254,2,0,B|328:321,1,55,0|0,1:0|0:0,0:0:0:0:
247,384,55390,2,0,B|218:251|218:251|180:235,1,165,8|0,2:1|0:0,2:0:0:0:
179,236,55663,6,0,B|71:213,1,110,2|0,1:2|0:0,2:0:0:0:
257,21,55936,1,8,2:1:0:0:
305,101,56072,2,0,B|412:123,1,110,2|0,2:0|2:0,2:0:0:0:
107,54,56345,2,0,B|0:32,1,110,2|8,1:2|2:1,0:0:0:0:
257,21,56617,6,0,P|213:87|280:187,1,165,0|0,1:0|0:0,2:0:0:0:
238,162,56890,1,0,2:0:0:0:
434,281,57027,1,8,2:1:0:0:
491,64,57163,2,0,B|467:28|409:24|376:58|376:58|357:103|305:101,1,220,2|0,2:0|1:0,2:0:0:0:
445,276,57572,2,0,B|467:169,1,110,8|0,2:1|2:0,0:0:0:0:
303,322,57845,6,0,B|196:344,1,110,2|0,1:2|2:0,0:0:0:0:
0,276,58117,2,0,B|107:254,1,110,8|0,2:1|2:0,0:0:0:0:
305,101,58390,2,0,B|116:139,1,165,0|0,2:1|0:0,2:0:0:0:
143,133,58663,1,8,2:1:0:0:
292,0,58799,6,0,P|321:45|315:99,1,110,2|0,1:2|2:0,2:0:0:0:
512,192,59072,2,0,P|482:146|489:92,1,110,2|8,2:0|2:1,2:0:0:0:
351,275,59345,2,0,B|291:259|251:305|251:305|211:351|152:335,1,220,0|0,2:0|1:0,2:0:0:0:
334,384,59754,2,0,P|364:338|357:284,1,110,8|0,2:1|2:0,2:0:0:0:
230,129,60027,5,0,1:0:0:0:
160,342,60163,1,0,3:0:0:0:
160,342,60231,1,0,3:0:0:0:
160,342,60299,1,8,2:1:0:0:
3,188,60436,1,0,2:0:0:0:
234,118,60572,2,0,B|367:89|367:89|405:108,1,165,0|0,2:1|0:0,0:0:0:0:
403,109,60845,2,0,B|456:96,1,55,8|0,2:1|0:0,0:0:0:0:
261,0,60981,6,0,B|238:107,1,110,2|0,1:2|2:0,2:0:0:0:
3,188,61254,2,0,B|110:164,1,110,0|8,2:0|2:1,2:0:0:0:
258,274,61527,2,0,B|366:251,1,110,0|0,2:0|0:0,2:0:0:0:
508,134,61799,1,0,1:0:0:0:
489,226,61936,2,0,B|465:333,1,110,8|0,2:1|2:1,2:0:0:0:
234,381,62208,6,0,B|258:274,1,110,6|0,1:2|3:0,0:0:0:0:
249,264,62413,1,0,3:0:0:0:
240,254,62481,1,8,2:1:0:0:
42,185,62617,2,0,B|12:229|12:229|22:285,1,110,2|0,2:0|2:0,2:1:0:0:
184,196,62890,1,0,1:0:0:0:
17,68,63027,1,8,2:1:0:0:
256,0,63163,6,0,B|416:36,1,165,2|0,1:2|0:0,2:0:0:0:
427,27,63436,2,0,B|451:134,1,110,2|8,2:0|2:1,0:0:0:0:
258,273,63708,2,0,B|282:380,1,110,2|0,2:0|2:0,2:0:0:0:
471,258,63981,1,0,1:0:0:0:
236,180,64117,2,0,P|133:184|110:235,1,165,8|0,2:1|0:0,2:0:0:0:
99,230,64390,6,0,B|75:337,1,110,2|0,1:2|0:0,2:0:0:0:
326,209,64663,2,0,B|373:-5,1,220,8|0,2:1|2:0,2:0:0:0:
157,81,65072,2,0,B|103:68,1,55,0|0,1:0|0:0,0:0:0:0:
41,1,65208,6,0,P|13:49|17:103,1,110,8|0,2:1|1:0,0:0:0:0:
313,107,65481,2,0,P|287:60|239:36,1,110,2|0,2:0|2:0,2:0:0:0:
86,291,65754,2,0,P|141:291|186:260,1,110,8|0,2:1|2:0,2:0:0:0:
157,81,66027,5,4,3:0:0:0:
16,211,66163,1,4,3:0:0:0:
185,261,66299,5,8,3:0:0:0:
120,182,66436,1,8,3:0:0:0:
10,334,66572,6,0,P|78:316|154:387,1,180,6|0,1:2|0:0,2:0:0:0:
153,384,66845,1,8,2:1:0:0:
366,207,66981,2,0,B|311:192|275:234|275:234|239:275|185:261,1,200,2|0,2:0|1:0,2:0:0:0:
309,383,67390,2,0,P|316:334|340:291,1,100,8|0,2:1|2:0,2:0:0:0:
120,182,67663,6,0,P|149:97|141:8,1,180,6|0,1:2|0:0,2:0:0:0:
141,8,67936,1,8,2:1:0:0:
323,114,68072,2,0,B|402:98|402:98|440:121|440:121|512:107,1,200,2|0,2:0|1:0,2:0:0:0:
297,11,68481,2,0,B|287:61|287:61|315:101,1,100,8|0,2:1|2:0,2:1:0:0:
512,266,68754,6,0,B|540:227|540:227|411:253,1,180,4|0,1:2|0:0,2:0:0:0:
411,253,69027,1,8,2:1:0:0:
256,384,69163,2,0,B|224:363|224:363|198:241|198:241|166:221,1,200,2|0,2:0|1:0,2:0:0:0:
0,142,69572,2,0,B|-13:164|-13:164|1:236,1,100,8|0,2:1|2:0,2:0:0:0:
158,47,69845,6,0,L|393:0,1,240,6|8,1:2|2:1,0:0:0:0:
512,192,70254,2,0,B|538:152|506:118|506:118|450:120|415:186|452:236,1,240,2|0,2:0|1:0,2:0:0:0:
225,304,70663,2,0,B|261:337|257:385|257:385|271:339|315:322,1,180,8|0,2:1|0:0,2:0:0:0:
316,322,70936,5,6,1:2:0:0:
234,123,71072,1,0,2:0:0:0:
165,377,71208,1,8,2:1:0:0:
291,227,71345,2,0,P|224:160|133:187,1,200,0|0,2:0|1:0,2:0:0:0:
0,0,71754,2,0,B|107:21,1,100,8|0,2:1|2:0,0:0:0:0:
24,123,72027,5,0,1:0:0:0:
200,49,72163,1,0,3:0:0:0:
225,54,72231,1,0,3:0:0:0:
250,59,72299,1,8,3:1:0:0:
332,14,72436,1,0,2:0:0:0:
435,135,72572,5,0,3:0:0:0:
415,113,72640,1,0,3:0:0:0:
388,100,72708,1,0,3:0:0:0:
358,98,72777,1,0,3:0:0:0:
330,107,72845,2,0,B|320:155,1,50,8|0,2:1|0:0,0:0:0:0:
406,275,72981,2,0,B|416:227,1,50,0|0,2:0|0:0,0:0:0:0:
505,198,73117,5,0,1:0:0:0:
401,291,73254,1,0,3:0:0:0:
415,113,73390,5,8,3:1:0:0:
321,303,73527,1,0,3:0:0:0:
247,75,73663,5,0,3:0:0:0:
246,328,73799,1,0,1:0:0:0:
67,100,73936,5,8,2:1:0:0:
181,374,74072,1,0,3:0:0:0:
173,144,74208,6,0,P|77:130|11:200,1,200,4|0,1:0|2:0,2:0:0:0:
305,170,74617,2,0,P|364:94|337:1,1,200,4|0,1:0|2:0,2:0:0:0:
216,272,75027,2,0,P|245:354|326:386,1,180,4|0,1:0|2:0,2:0:0:0:
403,347,75299,6,0,B|424:240,1,100,6|0,1:2|0:0,2:0:0:0:
322,279,75572,1,8,2:1:0:0:
512,317,75708,1,0,3:0:0:0:
406,84,75845,2,0,B|346:66|296:103|336:115|286:152|226:134,1,200,2|8,2:0|2:1,2:0:0:0:
162,55,76254,1,0,2:0:0:0:
25,200,76390,6,0,P|49:243|56:292,1,100,2|0,1:2|0:0,2:0:0:0:
257,226,76663,2,0,P|232:182|225:133,1,100,8|0,2:1|2:0,0:0:0:0:
67,294,76936,6,0,B|178:315,1,100,0|0,2:0|1:0,2:0:0:0:
359,384,77208,2,0,B|382:266,1,120,8|0,2:1|2:0,0:0:0:0:
512,81,77481,6,0,B|483:103|483:103|313:70,1,210,2|0,1:2|0:0,2:0:0:0:
303,69,77754,2,0,B|204:49,1,100,8|0,2:1|2:0,2:0:0:0:
16,11,78027,1,0,2:0:0:0:
79,214,78163,1,0,3:0:0:0:
79,214,78231,1,0,3:0:0:0:
79,214,78299,1,8,0:1:0:0:
205,50,78436,1,0,2:0:0:0:
270,241,78572,6,0,B|248:352,1,100,2|0,1:2|2:0,2:0:0:0:
367,312,78845,1,8,2:1:0:0:
242,137,78981,1,0,2:0:0:0:
157,332,79117,6,0,B|196:359|196:359|247:350,1,100,2|0,2:0|1:0,0:0:0:0:
79,214,79390,2,0,B|47:192|47:192|7:199,1,80,8|0,2:1|2:0,0:0:0:0:
205,50,79663,6,0,B|284:66|284:66|322:42|322:42|394:57,1,200,2|8,1:2|2:1,2:0:0:0:
458,126,80072,1,0,2:0:0:0:
247,255,80208,2,0,P|173:193|79:214,1,200,0|8,2:0|2:1,2:0:0:0:
27,292,80617,1,0,2:0:0:0:
247,350,80754,6,0,P|268:305|264:256,1,100,0|0,1:0|0:0,2:0:0:0:
159,56,81027,2,0,P|186:96|231:118,1,100,8|0,2:1|2:0,0:0:0:0:
458,126,81299,6,0,P|408:129|367:157,1,100,0|0,2:0|1:0,0:0:0:0:
434,384,81572,2,0,P|420:326|442:272,1,120,8|0,2:1|2:0,0:0:0:0:
279,9,81845,6,0,B|304:42|289:82|289:82|158:56,1,210,0|0,1:2|0:0,2:0:0:0:
146,54,82117,2,0,P|100:72|73:113,1,100,8|0,2:1|2:0,0:0:0:0:
92,338,82390,1,0,2:0:0:0:
257,198,82527,1,0,1:0:0:0:
8,233,82663,1,8,2:1:0:0:
301,281,82799,1,0,3:0:0:0:
314,284,82867,1,0,3:0:0:0:
327,287,82936,5,0,1:0:0:0:
380,364,83072,1,0,3:0:0:0:
357,143,83208,5,8,2:1:0:0:
466,331,83345,1,0,3:0:0:0:
491,77,83481,6,0,P|502:104|502:134,1,60,0|0,3:0|0:0,0:0:0:0:
361,149,83617,2,0,P|356:178|342:204,1,60,0|0,1:0|0:0,0:0:0:0:
212,146,83754,2,0,P|193:169|168:184,1,60,8|0,2:1|0:0,0:0:0:0:
84,68,83890,2,0,P|56:79|26:79,1,60,0|0,3:0|0:0,0:0:0:0:
226,28,84027,6,0,P|170:96|168:185,1,180,4|0,1:2|2:0,2:0:0:0:
0,384,84572,6,0,B|88:365,1,90.0000000000001,8|0,2:1|0:0,0:0:0:0:
237,247,84845,1,0,2:0:0:0:
237,247,84981,2,0,B|218:335,1,90.0000000000001,0|0,2:0|1:0,2:0:0:0:
329,355,85254,1,0,2:0:0:0:
329,355,85390,2,0,B|347:266,1,90.0000000000001,0|0,2:0|2:1,2:0:0:0:
512,112,85663,5,8,2:1:0:0:
451,294,85799,1,0,2:0:0:0:
309,167,85936,2,0,B|327:78,1,90.0000000000001,0|0,2:0|2:1,0:0:0:0:
154,13,86208,6,0,B|215:5|215:5|199:79,1,135,4|0,1:2|0:0,2:0:0:0:
90,131,86481,2,0,B|28:138|28:138|43:66,1,135,0|0,1:0|0:0,2:0:0:0:
43,66,86754,1,8,2:0:0:0:
183,183,86890,1,8,3:0:0:0:
0,220,87027,1,8,3:0:0:0:
193,370,87163,6,0,B|255:385|314:329|328:269|242:248|252:181|286:108|376:125,1,375.000000000001,4|0,1:2|0:0,0:0:0:0:
