osu file format v14

[General]
AudioFilename: audio.mp3
AudioLeadIn: 0
PreviewTime: 48988
Countdown: 0
SampleSet: Soft
StackLeniency: 0.5
Mode: 0
LetterboxInBreaks: 0
WidescreenStoryboard: 1

[Editor]
Bookmarks: 31663,49117
DistanceSpacing: 1.5
BeatDivisor: 4
GridSize: 8
TimelineZoom: 2.7

[Metadata]
Title:story (TV Size)
TitleUnicode:story (TV Size)
Artist:Maeshima Mayu
ArtistUnicode:前島麻由
Creator:Usaha
Version:Azunyan's Extra
Source:異世界おじさん
Tags:isekai ojisan takekii takeki hanasaka yui nana abe azunyan- azu xexyz sakuma mayu ayana rugmunch himekawa angelina jailbait -rei mochia japanese anime pop rock anime
BeatmapID:3763270
BeatmapSetID:1804158

[Difficulty]
HPDrainRate:5
CircleSize:4
OverallDifficulty:9
ApproachRate:9.4
SliderMultiplier:1.7
SliderTickRate:1

[Events]
//Background and Video events
0,0,"bg.jpg",0,0
Video,512,"story.mp4"
//Break Periods
//Storyboard Layer 0 (Background)
//Storyboard Layer 1 (Fail)
//Storyboard Layer 2 (Pass)
//Storyboard Layer 3 (Foreground)
//Storyboard Layer 4 (Overlay)
//Storyboard Sound Samples

[TimingPoints]
27,272.727272727273,4,2,1,40,1,0
1117,-100,4,2,1,75,0,0
9845,-133.333333333333,4,2,1,55,0,0
14208,-111.111111111111,4,2,1,50,0,0
20754,-100,4,2,1,50,0,0
21299,-100,4,2,1,60,0,0
21845,-100,4,2,1,70,0,0
22390,-166.666666666667,4,2,1,70,0,0
22754,-125,4,2,1,70,0,0
22845,-111.111111111111,4,2,1,70,0,0
22936,-90.9090909090909,4,2,1,60,0,0
31117,-90.9090909090909,4,2,1,40,0,0
36027,-166.666666666667,4,2,1,50,0,0
37117,-142.857142857143,4,2,1,55,0,0
38208,-142.857142857143,4,2,1,60,0,0
38754,-125,4,2,1,60,0,0
39845,-187.500000000001,4,2,1,70,0,0
40117,-187.500000000001,4,2,1,80,0,0
40390,-76.1904732840399,4,2,1,65,0,0
40799,-90.9090909090909,4,2,1,65,0,0
44754,-118.055557250976,4,2,1,80,0,0
45163,-50.3703715006509,4,2,1,80,0,0
45572,-45.3333333333332,4,2,1,80,0,0
45981,-76.5629638671873,4,2,1,80,0,0
46390,-67.1604970296222,4,2,1,80,0,0
46936,-67.1604970296222,4,2,1,85,0,0
48572,-466.666648864746,4,2,1,85,0,0
49117,-62.5000019073491,4,2,1,90,0,0
49390,-83.3333333333333,4,2,1,90,0,0
74617,-100,4,2,1,90,0,0
75027,-125,4,2,1,90,0,0
75299,-83.3333333333333,4,2,1,90,0,0
84027,-133.333333333333,4,2,1,70,0,0
86208,-100,4,2,1,70,0,0
87163,-166.666666666668,4,2,1,70,0,0
87844,-166.666666666668,4,2,1,70,0,0
88186,-166.666666666668,4,2,1,50,0,0

[Colours]
Combo1 : 128,128,255
Combo2 : 134,249,163
Combo3 : 234,204,149
Combo4 : 255,128,128

[HitObjects]
237,78,1117,5,6,1:2:0:0:
127,55,1254,1,0,2:0:0:0:
237,78,1390,1,8,2:1:0:0:
45,199,1527,2,0,L|11:2,1,170,2|2,2:0|1:2,2:0:0:0:
65,184,1936,2,0,L|79:267,1,85,8|0,2:1|2:0,0:0:0:0:
298,133,2208,6,0,P|233:103|201:100,1,85,2|0,1:2|2:0,2:0:0:0:
225,360,2481,2,0,P|283:318|302:292,1,85,8|0,2:1|2:0,2:0:0:0:
298,133,2754,1,0,2:0:0:0:
291,308,2890,1,0,1:0:0:0:
298,133,3027,1,8,2:1:0:0:
512,355,3299,5,4,1:2:0:0:
402,332,3436,1,0,2:0:0:0:
512,355,3572,1,8,2:1:0:0:
292,309,3708,2,0,L|326:112,1,170,0|0,2:1|1:0,2:0:0:0:
442,0,4117,1,8,0:0:0:0:
442,0,4254,1,0,2:0:0:0:
484,186,4390,6,0,P|418:130|312:127,1,170,0|8,1:0|2:1,0:0:0:0:
187,262,4799,2,0,P|217:226|231:171,1,85,0|0,2:0|2:0,2:0:0:0:
68,0,5072,1,0,1:0:0:0:
118,173,5208,1,8,2:1:0:0:
68,0,5345,1,0,2:0:0:0:
205,195,5481,5,4,1:2:0:0:
155,22,5617,1,0,2:0:0:0:
31,151,5754,1,8,2:1:0:0:
242,44,5890,2,0,B|370:16|370:16|416:35,1,170,0|0,2:0|1:0,2:0:0:0:
288,177,6299,2,0,L|174:201,1,85,8|0,2:1|2:0,2:0:0:0:
463,384,6572,5,0,1:0:0:0:
496,204,6708,1,0,2:0:0:0:
367,360,6845,1,8,2:1:0:0:
400,180,6981,1,0,2:0:0:0:
271,336,7117,2,0,L|278:294,1,42.5,0|0,2:0|0:0,0:0:0:0:
304,156,7254,1,0,1:0:0:0:
275,339,7390,2,0,B|242:352|242:352|186:343,1,85,8|0,2:1|2:0,0:0:0:0:
0,204,7663,5,0,1:0:0:0:
159,163,7799,1,0,2:0:0:0:
199,323,7936,1,8,2:1:0:0:
39,363,8072,1,0,2:0:0:0:
56,341,8345,1,0,1:0:0:0:
219,231,8481,1,8,2:1:0:0:
43,145,8617,1,0,2:0:0:0:
205,35,8754,5,8,3:2:0:0:
127,256,8890,1,0,3:0:0:0:
205,35,9027,1,0,3:0:0:0:
383,231,9163,5,0,3:0:0:0:
159,163,9299,1,8,3:2:0:0:
383,231,9436,1,0,3:0:0:0:
180,377,9572,1,0,3:0:0:0:
266,101,9708,1,0,3:0:0:0:
462,313,9845,6,0,L|386:303,1,63.7500000000002,6|0,1:2|0:0,2:0:0:0:
348,217,10117,2,0,B|375:197|375:197|478:210,1,127.5,2|8,2:0|2:1,0:0:0:0:
468,208,10663,5,2,2:0:0:0:
512,145,10799,2,0,L|492:67,1,63.7500000000002,2|0,2:0|1:0,0:0:0:0:
361,124,11072,1,2,2:0:0:0:
405,61,11208,2,0,L|385:-17,1,63.7500000000002,2|0,2:0|2:0,2:0:0:0:
375,144,11481,1,8,2:1:0:0:
226,172,11617,1,0,0:0:0:0:
305,180,11754,1,2,2:0:0:0:
164,124,11890,1,0,2:0:0:0:
138,50,12027,6,0,L|218:28,1,63.7500000000002,2|0,1:2|2:0,2:0:0:0:
152,141,12299,2,0,L|0:182,1,127.5,2|8,2:0|2:1,2:0:0:0:
29,174,12845,1,0,2:0:0:0:
83,304,12981,2,0,L|103:226,1,63.7500000000002,2|2,2:0|1:2,0:0:0:0:
131,163,13254,1,0,2:0:0:0:
185,293,13390,2,0,L|205:215,1,63.7500000000002,2|0,1:2|2:0,2:0:0:0:
265,15,13663,1,2,1:2:0:0:
308,219,13799,1,2,1:2:0:0:
251,31,13936,1,2,1:2:0:0:
295,235,14072,1,2,1:2:0:0:
497,105,14208,6,0,B|459:71|403:81|403:81|386:109|353:118,1,153,6|0,3:2|0:0,0:0:0:0:
251,31,14617,1,0,3:0:0:0:
251,31,14754,2,0,L|167:12,1,76.5000000000001,8|0,2:0|2:1,2:1:0:0:
176,14,15027,1,0,2:0:0:0:
19,99,15163,2,0,P|55:79|109:68,1,76.5000000000001,2|0,3:2|0:0,2:0:0:0:
235,167,15436,2,0,P|199:145|163:104,1,76.5000000000001,2|0,3:2|0:0,0:0:0:0:
174,120,15708,1,2,2:0:0:0:
73,266,15845,1,8,2:0:0:0:
92,168,15981,1,0,3:0:0:0:
73,266,16117,1,2,3:2:0:0:
92,168,16254,1,0,2:0:0:0:
58,374,16390,6,0,P|143:328|221:343,1,153,6|0,3:2|2:0,2:0:0:0:
196,332,16799,1,0,3:0:0:0:
298,227,16936,2,0,L|284:303,1,76.5000000000001,10|0,2:0|0:0,2:0:0:0:
390,333,17208,1,0,2:0:0:0:
390,333,17345,2,0,L|404:257,1,76.5000000000001,2|0,3:2|0:0,2:0:0:0:
512,289,17617,2,0,L|498:365,1,76.5000000000001,2|0,3:2|0:0,0:0:0:0:
498,364,17890,1,0,2:0:0:0:
484,166,18027,5,10,2:0:0:0:
452,144,18117,5,0,0:0:0:0:
416,133,18208,5,0,0:0:0:0:
378,136,18299,6,0,L|269:166,1,76.5000000000001,2|2,3:2|2:0,0:0:0:0:
134,260,18572,6,0,P|64:203|94:126,1,153,4|0,3:2|2:0,2:0:0:0:
82,56,18981,1,0,3:0:0:0:
82,56,19117,2,0,L|104:156,1,76.5000000000001,10|0,2:0|0:0,2:0:0:0:
187,28,19390,1,0,2:0:0:0:
187,28,19527,6,0,L|209:128,1,76.5000000000001,2|0,3:2|0:0,2:1:0:0:
292,0,19799,2,0,L|314:100,1,76.5000000000001,2|0,3:2|0:0,0:0:0:0:
277,184,20072,1,0,2:0:0:0:
277,184,20208,2,0,P|230:225|199:240,1,76.5000000000001,8|0,2:0|2:0,2:0:0:0:
387,155,20481,2,0,P|446:175|454:179,1,38.25,0|0,2:0|2:0,2:0:0:0:
456,242,20617,2,0,P|468:303|468:312,1,38.25,0|0,2:0|2:0,2:0:0:0:
302,384,20754,6,0,B|333:332|397:324|397:324|417:351|461:362,1,170,2|0,3:2|2:0,2:0:0:0:
439,355,21163,1,0,2:0:0:0:
277,183,21299,2,0,L|313:365,1,170,2|0,3:2|2:0,2:0:0:0:
277,183,21708,1,0,2:0:0:0:
109,332,21845,5,2,3:2:0:0:
104,344,21936,2,0,L|29:357,1,56.6666666666667,0|0,3:0|3:0,0:0:0:0:
198,228,22117,1,2,3:2:0:0:
203,216,22208,2,0,L|278:203,1,56.6666666666667,0|0,3:0|3:0,0:0:0:0:
64,130,22390,6,0,L|53:104,5,16.9999994812012,6|0|0|0|0|0,3:2|0:0|0:0|0:0|0:0|0:0,0:0:0:0:
112,53,22663,2,0,L|105:23,5,16.9999994812012,2|0|0|0|0|0,2:0|0:0|0:0|0:0|0:0|0:0,0:0:0:0:
234,94,22936,6,0,B|303:82|303:82|317:64|317:64|330:46|330:46|400:35,1,187,2|8,1:2|2:1,2:0:0:0:
512,156,23345,2,0,L|399:173,1,93.5,2|0,2:0|0:0,2:0:0:0:
302,192,23617,1,0,1:0:0:0:
512,156,23754,2,0,L|419:169,1,93.5,8|0,2:1|2:0,2:0:0:0:
231,349,24027,6,0,P|323:277|315:210,1,187,2|8,1:2|2:1,2:0:0:0:
106,96,24436,2,0,B|146:155|212:150|212:150|234:103|291:91,1,187,2|0,2:0|1:0,2:0:0:0:
252,105,24845,1,8,2:1:0:0:
458,25,24981,1,0,2:0:0:0:
458,25,25049,1,0,0:0:0:0:
458,25,25117,6,0,L|351:1,1,93.5,2|0,1:2|0:0,2:0:0:0:
493,178,25390,1,8,2:1:0:0:
493,178,25527,2,0,L|386:154,1,93.5,2|0,2:0|2:0,2:0:0:0:
401,157,25799,1,0,1:0:0:0:
228,90,25936,6,0,P|193:46|186:-5,1,93.5,8|0,2:1|2:0,2:0:0:0:
195,225,26208,2,0,P|174:277|133:308,1,93.5,0|0,1:0|2:0,2:0:0:0:
329,186,26481,2,0,P|384:177|432:197,1,93.5,8|0,2:1|2:0,2:0:0:0:
172,146,26754,1,0,2:0:0:0:
273,244,26890,1,0,1:0:0:0:
305,105,27027,1,8,2:1:0:0:
36,184,27163,1,0,2:0:0:0:
140,282,27299,5,0,1:0:0:0:
147,301,27572,1,8,2:1:0:0:
172,146,27708,1,2,2:0:0:0:
327,171,27845,1,2,2:0:0:0:
302,326,27981,1,2,1:2:0:0:
233,237,28117,1,8,2:1:0:0:
233,237,28254,1,0,2:0:0:0:
61,365,28390,6,0,B|43:336|43:336|58:263,1,93.5,0|0,1:0|2:0,2:0:0:0:
189,127,28663,2,0,B|200:68|200:68|182:39,1,93.5,8|0,2:1|2:0,2:0:0:0:
315,306,28936,2,0,P|364:322|415:319,1,93.5,0|0,2:0|1:0,2:0:0:0:
370,97,29208,6,0,B|259:82|304:137|169:125,1,187,8|0,2:1|1:0,2:0:0:0:
387,208,29617,1,0,0:0:0:0:
387,208,29686,1,0,0:0:0:0:
387,208,29754,2,0,P|471:129|485:87,1,140.25,8|0,2:1|0:0,0:0:0:0:
434,9,30027,2,0,B|374:-5|374:-5|310:22,1,93.5,0|0,2:0|1:0,0:0:0:0:
297,206,30299,2,0,B|357:220|357:220|421:193,1,93.5,8|0,2:1|3:0,0:0:0:0:
148,65,30572,5,0,1:2:0:0:
377,120,30708,1,0,1:2:0:0:
143,46,30845,5,0,1:2:0:0:
372,101,30981,1,0,1:2:0:0:
138,27,31117,5,2,2:0:0:0:
78,149,31254,5,0,0:0:0:0:
79,156,31322,1,0,0:0:0:0:
81,164,31390,1,0,0:0:0:0:
83,171,31458,1,0,0:0:0:0:
85,179,31527,1,0,0:0:0:0:
86,186,31595,1,0,0:0:0:0:
88,194,31663,1,2,2:0:0:0:
256,192,31731,12,2,35754,2:0:0:0:
149,219,36027,6,0,L|166:342,1,102,2|0,2:0|0:0,2:0:0:0:
163,321,36436,1,0,0:0:0:0:
79,332,36572,2,0,L|66:230,1,102,0|2,0:0|2:0,0:0:0:0:
66,230,36981,1,0,2:0:0:0:
91,102,37117,6,0,B|135:89|135:89|164:97,1,59.4999999999999,0|0,2:0|0:0,2:0:0:0:
232,143,37390,2,0,B|245:146|245:146|289:133,1,59.4999999999999
375,4,37663,2,0,P|354:31|347:58,1,59.4999999999999,0|0,0:0|2:0,0:0:0:0:
386,143,37936,2,0,P|405:165|416:193,1,59.4999999999999,0|0,2:0|2:0,2:0:0:0:
322,360,38208,5,2,2:0:0:0:
438,292,38345,1,0,0:0:0:0:
346,267,38481,1,0,2:0:0:0:
414,384,38617,1,0,0:0:0:0:
254,242,38754,2,0,L|164:265,1,68,0|0,2:0|0:0,2:0:0:0:
56,381,39027,2,0,P|85:348|98:314,1,68,2|0,2:0|0:0,0:0:0:0:
65,214,39299,5,2,2:0:0:0:
94,326,39436,1,0,2:0:0:0:
147,131,39572,5,2,2:0:0:0:
65,214,39708,1,0,2:0:0:0:
258,158,39845,6,0,L|324:174,1,67.9999999999996,2|0,3:2|2:0,2:0:0:0:
343,90,40117,6,0,L|277:74,1,67.9999999999996,2|0,3:2|2:0,2:0:0:0:
147,131,40390,6,0,L|373:99,1,223.125008511544,4|2,1:0|1:2,2:0:0:0:
468,215,40799,2,0,P|362:124|389:66,1,187,2|2,2:0|2:0,1:2:0:0:
459,32,41208,1,2,1:2:0:0:
459,32,41345,1,2,2:0:0:0:
487,231,41481,6,0,L|462:351,1,93.5,2|0,1:2|2:0,2:0:0:0:
274,244,41754,2,0,L|293:152,1,93.5,2|0,1:2|2:0,2:0:0:0:
251,382,42027,1,0,1:0:0:0:
251,382,42163,1,0,2:0:0:0:
97,178,42299,1,2,1:2:0:0:
195,165,42436,1,2,2:0:0:0:
46,354,42572,6,0,P|-8:280|0:189,1,187,2|2,1:2|1:2,2:0:0:0:
178,41,42981,2,0,B|135:95|86:85|86:85|55:45|-27:53,1,187,2|2,2:0|2:0,2:0:0:0:
188,61,43390,1,0,1:0:0:0:
287,95,43527,1,0,3:0:0:0:
478,0,43663,6,0,P|440:60|448:108,1,93.5,2|2,1:2|2:0,2:0:0:0:
448,283,43936,2,0,P|415:220|369:203,1,93.5,2|0,1:2|2:0,2:0:0:0:
150,209,44208,2,0,L|242:222,1,93.5,0|0,1:0|2:0,2:0:0:0:
310,384,44481,2,0,L|217:371,1,93.5,0|0,1:0|0:0,0:0:0:0:
149,208,44754,6,0,P|166:140|221:95,1,143.999997931986,4|0,1:2|2:0,2:0:0:0:
152,177,45163,6,0,B|152:147|126:29|-11:44|-11:44|-15:103|42:138,1,337.499992426705,4|0,1:2|2:0,2:0:0:0:
152,147,45572,6,0,B|152:114|179:-16|332:-1|332:-1|336:65|273:104,1,375.000000000001,4|0,1:2|2:0,2:0:0:0:
81,207,45981,6,0,B|38:262|67:334|67:334|88:290|131:265,1,222.039471061879,4|0,1:2|2:0,2:0:0:0:
244,171,46390,6,0,B|319:199|317:305|317:305|286:259|236:248,1,253.124987930061,4|4,1:2|1:2,2:0:0:0:
81,207,46799,1,0,3:0:0:0:
81,207,46867,1,0,3:0:0:0:
81,207,46936,5,8,3:2:0:0:
214,346,47072,1,0,3:0:0:0:
268,162,47208,1,0,3:0:0:0:
396,384,47345,5,8,3:2:0:0:
268,162,47481,1,0,3:0:0:0:
498,265,47617,1,0,3:0:0:0:
251,318,47754,1,8,3:2:0:0:
422,131,47890,1,0,3:0:0:0:
368,254,48027,1,8,2:0:0:0:
368,254,48299,1,8,2:0:0:0:
384,269,48572,6,0,B|396:252|396:252|390:206,1,63.7500024318696,0|0,2:0|2:0,0:0:0:0:
314,141,49117,6,0,B|236:154|236:154|223:173|223:173|210:191|210:191|84:214,1,203.999993774413,4|0,1:0|2:0,2:0:0:0:
81,152,49390,2,0,P|48:113|37:52,1,102,8|0,2:1|2:0,2:0:0:0:
53,299,49663,2,0,P|35:347|-11:387,1,102,2|0,2:0|1:0,0:0:0:0:
81,152,49936,1,8,2:1:0:0:
306,341,50072,2,0,L|179:320,1,102,2|0,1:2|2:0,2:0:0:0:
315,130,50345,2,0,L|214:113,1,102,2|8,2:0|2:1,2:0:0:0:
480,239,50617,2,0,P|504:142|473:46,1,204,2|0,2:0|1:0,2:0:0:0:
337,20,51027,1,8,2:1:0:0:
311,24,51095,1,0,0:0:0:0:
286,28,51163,1,0,2:0:0:0:
261,32,51231,1,0,0:0:0:0:
236,37,51299,6,0,B|218:66|218:66|233:141,1,102,2|0,1:2|2:0,0:0:0:0:
364,256,51572,2,0,B|393:274|393:274|468:259,1,102,8|0,2:1|2:0,0:0:0:0:
213,120,51845,6,0,B|93:106|134:164|13:158,1,204,2|8,2:0|2:1,2:0:0:0:
135,324,52254,2,0,P|153:345|171:288,1,102,2|0,1:2|2:0,2:0:0:0:
268,98,52527,2,0,P|228:77|212:119,1,102,2|8,2:0|2:1,2:0:0:0:
492,251,52799,2,0,L|269:219,1,204,2|0,2:0|1:0,2:0:0:0:
34,309,53208,2,0,L|135:324,1,102,8|0,2:1|2:0,2:0:0:0:
141,43,53413,1,0,0:0:0:0:
120,36,53481,6,0,B|97:112|97:112|108:132|108:132|119:152|119:152|98:228,1,204,2|8,1:2|2:1,2:0:0:0:
205,101,53890,1,2,2:0:0:0:
16,181,54027,1,0,2:1:0:0:
208,87,54163,1,2,1:2:0:0:
19,167,54299,1,8,2:1:0:0:
308,260,54436,2,0,L|206:270,1,102,0|0,1:0|2:0,0:0:0:0:
324,0,54708,2,0,L|222:10,1,102,0|8,3:0|2:1,0:0:0:0:
512,97,54981,2,0,B|535:154|535:154|498:291,1,204,0|0,2:0|1:0,2:0:0:0:
361,384,55390,1,8,2:1:0:0:
361,384,55527,1,0,2:0:0:0:
293,222,55663,6,0,P|375:185|402:187,1,102,2|0,1:2|0:0,2:0:0:0:
192,358,55936,1,8,2:1:0:0:
392,168,56072,2,0,P|342:176|300:204,1,102,2|0,2:0|2:0,2:0:0:0:
172,384,56345,2,0,P|189:336|185:286,1,102,2|8,1:2|2:1,0:0:0:0:
125,24,56617,1,0,1:0:0:0:
52,195,56754,1,0,2:0:0:0:
2,73,56890,1,0,2:0:0:0:
173,145,57027,1,8,2:1:0:0:
309,3,57163,1,2,2:0:0:0:
309,3,57231,1,0,0:0:0:0:
309,3,57299,6,0,L|277:213,1,204,0|8,0:0|2:1,0:0:0:0:
278,204,57708,1,0,2:0:0:0:
484,24,57845,6,0,B|405:11|405:11|387:25|387:25|368:39|368:39|290:28,2,204,2|8|0,1:2|2:1|2:1,0:0:0:0:
283,55,58527,1,0,1:0:0:0:
283,55,58663,1,8,2:1:0:0:
412,134,58799,2,0,L|512:151,1,102,2|0,1:2|2:0,2:0:0:0:
278,204,59072,2,0,L|178:187,1,102,2|8,2:0|2:1,2:0:0:0:
0,0,59345,2,0,P|47:69|31:204,1,204,0|0,2:0|1:0,2:0:0:0:
11,350,59754,2,0,P|72:287|102:275,1,102,8|0,2:1|2:0,2:0:0:0:
421,330,60027,5,0,1:0:0:0:
207,280,60163,1,0,0:0:0:0:
414,349,60299,1,8,2:1:0:0:
200,299,60436,1,0,2:0:0:0:
375,142,60572,2,0,L|393:277,1,102,0|0,2:1|1:0,0:0:0:0:
388,243,60845,1,8,2:1:0:0:
257,37,60981,5,2,1:2:0:0:
207,280,61117,1,0,0:0:0:0:
163,56,61254,1,0,2:0:0:0:
300,262,61390,1,8,2:1:0:0:
351,18,61527,2,0,B|484:44|484:44|510:108,1,203.999993774414,0|0,2:0|1:0,2:0:0:0:
440,330,61936,2,0,L|417:231,1,102,8|0,2:1|2:1,2:0:0:0:
269,66,62208,6,0,B|191:81|191:81|166:119|166:119|89:136,1,204,6|8,1:2|2:1,0:0:0:0:
8,13,62617,2,0,L|122:49,1,102,2|0,2:0|2:0,2:1:0:0:
249,157,62890,2,0,L|363:193,1,102,0|8,1:0|2:1,2:0:0:0:
115,31,63163,2,0,L|18:1,1,102,2|0,1:2|0:0,2:0:0:0:
259,145,63436,2,0,L|356:175,1,102,2|8,2:0|2:1,0:0:0:0:
95,165,63708,2,0,B|69:224|69:224|104:358,1,204,2|0,2:0|1:0,2:0:0:0:
208,284,64117,1,8,2:1:0:0:
208,284,64254,1,0,2:0:0:0:
424,356,64390,6,0,L|207:310,2,204,2|8|0,1:2|2:1|2:0,2:0:0:0:
472,225,65072,1,0,1:0:0:0:
335,249,65208,1,8,2:1:0:0:
424,356,65345,1,0,1:0:0:0:
385,121,65481,6,0,L|403:3,1,102,2|0,2:0|2:0,2:0:0:0:
198,273,65754,2,0,L|182:373,1,102,8|0,2:1|2:0,2:0:0:0:
46,86,66027,1,4,3:0:0:0:
68,327,66163,1,4,3:0:0:0:
61,81,66299,1,8,3:0:0:0:
83,322,66436,1,8,3:0:0:0:
228,100,66572,6,0,B|174:53|109:51|109:51|62:92|2:91,1,204,6|8,1:2|2:1,2:0:0:0:
309,251,66981,2,0,B|376:227|410:172|410:172|398:111|429:59,1,204,2|0,2:0|1:0,2:0:0:0:
137,245,67390,2,0,B|130:280|145:308|145:308|175:318|189:345,1,102,8|0,2:1|2:0,2:0:0:0:
462,279,67663,6,0,L|419:59,1,204,6|8,1:2|2:1,2:0:0:0:
293,356,68072,2,0,L|250:136,1,204,2|0,2:0|1:0,2:0:0:0:
485,289,68481,2,0,L|462:175,1,102,8|0,2:1|2:0,2:1:0:0:
239,24,68754,6,0,P|365:87|458:62,1,204,4|8,1:2|2:1,2:0:0:0:
252,6,69163,2,0,P|134:83|109:176,1,204,2|0,2:0|1:0,2:0:0:0:
174,255,69572,2,0,L|192:355,1,102,8|0,2:1|2:0,2:0:0:0:
464,189,69845,6,0,B|388:165|388:165|348:187|348:187|272:166,1,204,6|8,1:2|2:1,0:0:0:0:
499,321,70254,2,0,B|423:297|423:297|383:319|383:319|307:298,1,204,2|0,2:0|1:0,2:0:0:0:
74,277,70663,2,0,L|194:250,1,102,8|0,2:1|2:0,2:0:0:0:
218,87,70936,2,0,B|163:56|163:56|-4:87,1,204,6|8,1:2|2:1,0:0:0:0:
204,109,71345,2,0,L|324:82,1,102,0|0,2:0|0:0,2:0:0:0:
486,223,71617,1,0,1:0:0:0:
486,223,71754,2,0,L|386:200,1,102,8|0,2:1|2:0,0:0:0:0:
315,67,72027,5,0,1:0:0:0:
486,223,72163,1,0,3:0:0:0:
257,198,72299,1,8,2:1:0:0:
456,84,72436,1,0,2:0:0:0:
459,87,72708,5,0,1:0:0:0:
362,294,72845,1,8,2:1:0:0:
315,67,72981,1,0,2:0:0:0:
76,208,73117,6,0,B|134:259|199:237|199:237|231:200|259:197,1,204,0|8,1:0|2:1,0:0:0:0:
327,44,73527,1,0,3:0:0:0:
191,9,73663,1,0,3:0:0:0:
330,47,73799,1,0,1:0:0:0:
44,133,73936,2,0,L|147:104,1,102,8|0,2:1|3:0,0:0:0:0:
460,116,74208,6,0,P|329:32|265:89,1,204,4|0,1:0|2:0,2:0:0:0:
126,256,74617,2,0,P|174:190|255:197,1,170,4|0,1:0|2:0,2:0:0:0:
450,298,75027,2,0,P|429:278|358:300,1,68,4|0,1:0|0:0,2:0:0:0:
242,176,75299,6,0,B|218:252|218:252|240:292|240:292|219:368,2,204,6|8|2,1:2|2:1|2:0,2:0:0:0:
323,66,75981,1,0,1:0:0:0:
323,66,76117,2,0,B|388:47|388:47|432:65,1,102,8|0,2:1|2:0,0:0:0:0:
242,176,76390,6,0,B|93:219|93:219|-6:178,2,204,2|8|0,1:2|2:1|2:0,2:0:0:0:
306,32,77072,1,0,1:0:0:0:
306,32,77208,2,0,L|200:66,1,102,8|0,2:1|2:0,0:0:0:0:
419,244,77481,6,0,L|450:29,2,204,2|8|0,1:2|2:1|2:0,2:0:0:0:
288,377,78163,1,0,0:0:0:0:
288,377,78299,2,0,P|352:349|412:356,1,102,8|0,2:1|2:0,0:0:0:0:
189,312,78572,6,0,P|111:357|-18:369,2,204,2|8|2,1:2|2:1|2:0,2:0:0:0:
85,157,79254,1,0,1:0:0:0:
85,157,79390,2,0,P|67:212|69:261,1,102,8|0,2:1|2:0,0:0:0:0:
208,63,79663,6,0,P|169:19|125:-2,1,102,2|0,1:2|0:0,2:0:0:0:
227,216,79936,2,0,P|283:204|325:177,1,102,8|0,2:1|2:0,0:0:0:0:
488,0,80208,1,0,2:0:0:0:
366,27,80345,1,0,3:0:0:0:
491,3,80481,2,0,L|470:121,1,102,8|0,2:1|2:0,0:0:0:0:
306,201,80754,6,0,L|337:-14,2,204,0|8|0,1:0|2:1|2:0,2:0:0:0:
394,316,81436,1,0,1:0:0:0:
394,316,81572,2,0,P|462:342|496:349,1,102,8|0,2:1|2:0,0:0:0:0:
306,201,81845,6,0,B|250:185|250:185|67:246,2,204,0|8|0,1:2|2:1|2:0,2:0:0:0:
234,318,82527,1,0,1:0:0:0:
234,318,82663,2,0,L|116:359,1,102,8|0,2:1|3:0,2:0:0:0:
0,159,82936,5,0,1:0:0:0:
147,321,83072,1,0,3:0:0:0:
92,131,83208,5,8,2:1:0:0:
55,349,83345,1,0,3:0:0:0:
95,134,83481,2,0,L|206:97,1,102,0|0,3:0|1:0,0:0:0:0:
396,215,83754,1,8,2:1:0:0:
293,176,83890,1,0,3:0:0:0:
512,41,84027,6,0,B|522:61|522:61|509:114,1,63.7500000000002,4|0,1:2|0:0,2:0:0:0:
396,215,84299,2,0,B|378:186|378:186|402:84,1,127.5,0|8,2:0|2:1,0:0:0:0:
178,0,84845,5,0,2:0:0:0:
115,44,84981,2,0,L|37:24,1,63.7500000000002,0|0,2:0|1:0,2:0:0:0:
220,105,85254,1,0,2:0:0:0:
157,149,85390,2,0,L|79:129,1,63.7500000000002,0|0,2:0|2:1,2:0:0:0:
34,285,85663,2,0,L|84:268,1,31.8750000000001,8|0,2:1|0:0,0:0:0:0:
131,308,85799,2,0,L|181:291,1,31.8750000000001,0|0,2:0|0:0,2:0:0:0:
228,331,85936,2,0,L|297:307,1,63.7500000000002,0|0,2:0|2:1,0:0:0:0:
430,150,86208,6,0,L|317:124,1,85,4|0,1:2|2:0,2:0:0:0:
288,310,86481,2,0,L|370:329,1,85,0|0,1:0|2:0,2:0:0:0:
185,40,86754,5,8,2:0:0:0:
371,151,86890,1,8,3:0:0:0:
334,3,87027,1,8,3:0:0:0:
223,189,87163,6,0,B|196:190|173:216|173:216|175:179|132:168|132:168|116:186|92:183|92:183|48:171|28:209|28:209|69:130|34:63,1,382.499999999997,4|0,1:2|2:0,0:0:0:0:
