osu file format v14

[General]
AudioFilename: audio.mp3
AudioLeadIn: 0
PreviewTime: 49117
Countdown: 0
SampleSet: Normal
StackLeniency: 0.7
Mode: 1
LetterboxInBreaks: 0
WidescreenStoryboard: 0

[Editor]
DistanceSpacing: 1.1
BeatDivisor: 2
GridSize: 16
TimelineZoom: 4.799998

[Metadata]
Title:story (TV Size)
TitleUnicode:story (TV Size)
Artist:Maeshima Mayu
ArtistUnicode:前島麻由
Creator:Froskya
Version:New Game
Source:異世界おじさん
Tags:op opening Uncle from Another World isekai ojisan japanese anime j pop jpop j-pop j-rock jrock rock female vocals vocalist blackbn blackbq freezinganimenz iamveryfat revialink
BeatmapID:4188001
BeatmapSetID:2012603

[Difficulty]
HPDrainRate:6.5
CircleSize:2
OverallDifficulty:6
ApproachRate:10
SliderMultiplier:1.4
SliderTickRate:1

[Events]
//Background and Video events
0,0,"less than three.jpg",0,10
//Break Periods
//Storyboard Layer 0 (Background)
//Storyboard Layer 1 (Fail)
//Storyboard Layer 2 (Pass)
//Storyboard Layer 3 (Foreground)
//Storyboard Layer 4 (Overlay)
//Storyboard Sound Samples

[TimingPoints]
27,272.727272727273,4,1,0,40,1,8
27,-125,4,1,0,40,0,0
1117,272.727272727273,4,1,0,75,1,0
1117,-90.9090909090909,4,1,0,75,0,0
9912,-111.111111111111,4,1,0,55,0,0
14276,-125,4,1,0,50,0,0
20753,-125,4,1,0,50,0,0
21026,-121.21044,4,1,0,51,0,0
21162,-119.40707,4,1,0,52,0,0
21298,-117.65658,4,1,0,52,0,0
21435,-115.94434,4,1,0,53,0,0
21571,-114.2932,4,1,0,54,0,0
21707,-112.68842,4,1,0,54,0,0
21844,-111.11677,4,1,0,55,0,0
21935,-110.09683,4,1,0,55,0,0
22026,-109.09545,4,1,0,56,0,0
22117,-108.11212,4,1,0,56,0,0
22207,-107.15688,4,1,0,57,0,0
22298,-106.20804,4,1,0,57,0,0
22389,-105.27585,4,1,0,57,0,0
22457,-104.58988,4,1,0,58,0,0
22526,-103.9029,4,1,0,58,0,0
22594,-103.23466,4,1,0,58,0,0
22662,-102.57495,4,1,0,59,0,0
22730,-101.923615,4,1,0,59,0,0
22798,-101.2805,4,1,0,59,0,0
22867,-100.63618,4,1,0,60,0,0
22935,-100.00916,4,1,0,60,0,0
31117,-100,4,1,0,60,0,0
31185,-101.263466,4,1,0,58,0,0
31253,-102.55928,4,1,0,55,0,0
31321,-103.88868,4,1,0,53,0,0
31389,-105.25299,4,1,0,50,0,0
31457,-106.653625,4,1,0,48,0,0
31526,-108.113464,4,1,0,45,0,0
31594,-109.591805,4,1,0,42,0,0
31662,-111.111115,4,1,0,40,0,0
32480,-133.333333333333,4,1,0,40,0,0
36026,-133.33333,4,1,0,40,0,0
36298,-130.61957,4,1,0,42,0,0
36571,-128.0047,4,1,0,45,0,0
36844,-125.49245,4,1,0,47,0,0
37117,-123.07692,4,1,0,50,0,0
37389,-120.76099,4,1,0,52,0,0
37662,-118.522545,4,1,0,55,0,0
37935,-116.36557,4,1,0,57,0,0
38207,-114.2932,4,1,0,60,0,0
38344,-113.2771,4,1,0,61,0,0
38480,-112.28612,4,1,0,62,0,0
38617,-111.30524,4,1,0,64,0,0
38753,-110.34832,4,1,0,65,0,0
39026,-108.47626,4,1,0,67,0,0
39162,-107.56716,4,1,0,69,0,0
39298,-106.67319,4,1,0,70,0,0
39435,-105.78753,4,1,0,71,0,0
39571,-104.92276,4,1,0,72,0,0
39707,-104.07202,4,1,0,74,0,0
39844,-103.22886,4,1,0,75,0,0
40117,-101.588776,4,1,0,77,0,0
40389,-100.00573,4,1,0,80,0,0
44685,-83.3333333333333,4,1,0,80,0,0
46662,-90.9090909090909,4,1,0,80,0,0
46935,-90.90909,4,1,0,85,0,0
47071,-92.304214,4,1,0,85,0,0
47207,-93.742836,4,1,0,85,0,0
47344,-95.2381,4,1,0,85,0,0
47480,-96.77038,4,1,0,85,0,0
47617,-98.3646,4,1,0,85,0,0
47753,-100,4,1,0,85,0,0
47889,-101.6907,4,1,0,85,0,0
48026,-103.45264,4,1,0,85,0,0
48162,-105.26316,4,1,0,85,0,0
48298,-107.138176,4,1,0,85,0,0
48571,-111.111115,4,1,0,85,0,0
49117,-83.3333333333333,4,1,0,90,0,1
65477,-83.33332,4,1,0,90,0,1
65614,-85.374565,4,1,0,90,0,1
65750,-87.50229,4,1,0,90,0,1
65818,-88.60641,4,1,0,90,0,1
65886,-89.73876,4,1,0,90,0,1
65954,-90.90043,4,1,0,90,0,1
66026,-92.11034,4,1,0,90,0,0
66159,-94.59192,4,1,0,70,0,0
66295,-97.210915,4,1,0,70,0,0
66435,-100,4,1,0,70,0,0
66571,-83.3333333333333,4,1,0,90,0,1
73117,-83.33333,4,1,0,90,0,1
73253,-86.01641,4,1,0,90,0,1
73321,-87.423805,4,1,0,90,0,1
73389,-88.87802,4,1,0,90,0,1
73526,-91.95984,4,1,0,90,0,1
73662,-95.2381,4,1,0,90,0,1
73730,-96.96646,4,1,0,90,0,1
73798,-98.75872,4,1,0,90,0,1
73935,-102.57858,4,1,0,90,0,1
74071,-106.67449,4,1,0,90,0,1
74207,-111.111115,4,1,0,90,0,0
75298,-90.9090909090909,4,1,0,90,0,0
84094,-111.111111111111,4,1,0,70,0,0
86753,-111.111115,4,1,0,70,0,0
86889,-103.46572,4,1,0,70,0,0
87026,-96.75893,4,1,0,70,0,0
87162,-90.90909,4,1,0,70,0,0

[HitObjects]
256,192,572,5,0,0:0:0:0:
256,192,640,5,0,0:0:0:0:
256,192,708,5,8,0:0:0:0:
256,192,777,1,0,0:0:0:0:
256,192,845,5,8,0:0:0:0:
256,192,913,5,8,0:0:0:0:
256,192,981,5,0,0:0:0:0:
256,192,1117,5,12,0:0:0:0:
256,192,1253,5,0,0:0:0:0:
256,192,1389,5,0,0:0:0:0:
256,192,1526,5,8,0:0:0:0:
256,192,1662,5,0,0:0:0:0:
256,192,1798,5,0,0:0:0:0:
256,192,1867,5,0,0:0:0:0:
256,192,1935,5,8,0:0:0:0:
256,192,2071,5,0,0:0:0:0:
256,192,2207,5,8,0:0:0:0:
256,192,2276,5,8,0:0:0:0:
256,192,2344,5,0,0:0:0:0:
256,192,2412,5,0,0:0:0:0:
256,192,2480,5,8,0:0:0:0:
256,192,2617,5,0,0:0:0:0:
256,192,2753,5,8,0:0:0:0:
256,192,2821,5,8,0:0:0:0:
256,192,2889,5,8,0:0:0:0:
256,192,3026,5,8,0:0:0:0:
256,192,3162,5,0,0:0:0:0:
256,192,3298,5,8,0:0:0:0:
256,192,3367,5,0,0:0:0:0:
256,192,3435,5,8,0:0:0:0:
256,192,3503,5,8,0:0:0:0:
256,192,3571,5,0,0:0:0:0:
256,192,3707,5,8,0:0:0:0:
256,192,3844,5,0,0:0:0:0:
256,192,3980,5,0,0:0:0:0:
256,192,4048,5,0,0:0:0:0:
256,192,4117,5,8,0:0:0:0:
256,192,4185,5,8,0:0:0:0:
256,192,4253,5,0,0:0:0:0:
256,192,4389,5,8,0:0:0:0:
256,192,4526,5,0,0:0:0:0:
256,192,4662,5,8,0:0:0:0:
256,192,4730,5,0,0:0:0:0:
256,192,4798,5,8,0:0:0:0:
256,192,4935,5,0,0:0:0:0:
256,192,5071,5,8,0:0:0:0:
256,192,5139,5,8,0:0:0:0:
256,192,5207,5,8,0:0:0:0:
256,192,5344,5,0,0:0:0:0:
256,192,5480,5,8,0:0:0:0:
256,192,5548,5,0,0:0:0:0:
256,192,5617,5,8,0:0:0:0:
256,192,5685,5,0,0:0:0:0:
256,192,5753,5,0,0:0:0:0:
256,192,5889,5,8,0:0:0:0:
256,192,6026,5,0,0:0:0:0:
256,192,6162,5,8,0:0:0:0:
256,192,6230,5,8,0:0:0:0:
256,192,6298,5,8,0:0:0:0:
256,192,6435,5,0,0:0:0:0:
256,192,6571,5,8,0:0:0:0:
256,192,6707,5,0,0:0:0:0:
256,192,6776,5,0,0:0:0:0:
256,192,6844,5,8,0:0:0:0:
256,192,6980,5,0,0:0:0:0:
256,192,7117,5,8,0:0:0:0:
256,192,7185,5,0,0:0:0:0:
256,192,7253,5,8,0:0:0:0:
256,192,7321,5,8,0:0:0:0:
256,192,7389,5,0,0:0:0:0:
256,192,7526,5,0,0:0:0:0:
256,192,7662,5,8,0:0:0:0:
256,192,7730,5,8,0:0:0:0:
256,192,7798,5,0,0:0:0:0:
256,192,7867,5,0,0:0:0:0:
256,192,7935,5,8,0:0:0:0:
256,192,8071,5,8,0:0:0:0:
256,192,8207,5,0,0:0:0:0:
256,192,8344,5,8,0:0:0:0:
256,192,8412,5,0,0:0:0:0:
256,192,8480,5,8,0:0:0:0:
256,192,8617,5,0,0:0:0:0:
256,192,8753,5,8,0:0:0:0:
256,192,8821,5,8,0:0:0:0:
256,192,8889,5,8,0:0:0:0:
256,192,9026,5,0,0:0:0:0:
256,192,9162,5,8,0:0:0:0:
256,192,9230,5,8,0:0:0:0:
256,192,9298,5,8,0:0:0:0:
256,192,9435,5,0,0:0:0:0:
256,192,9571,5,8,0:0:0:0:
256,192,9707,5,8,0:0:0:0:
256,192,9844,5,4,0:0:0:0:
256,192,10117,5,0,0:0:0:0:
256,192,10389,5,8,0:0:0:0:
256,192,10662,5,0,0:0:0:0:
256,192,10798,5,0,0:0:0:0:
256,192,10935,5,8,0:0:0:0:
256,192,11071,5,0,0:0:0:0:
256,192,11207,5,0,0:0:0:0:
256,192,11480,5,8,0:0:0:0:
256,192,11617,5,0,0:0:0:0:
256,192,11753,5,0,0:0:0:0:
256,192,11889,5,0,0:0:0:0:
256,192,12026,5,8,0:0:0:0:
256,192,12162,5,0,0:0:0:0:
256,192,12298,5,0,0:0:0:0:
256,192,12571,5,8,0:0:0:0:
256,192,12844,5,0,0:0:0:0:
256,192,12980,5,0,0:0:0:0:
256,192,13117,5,8,0:0:0:0:
256,192,13253,5,0,0:0:0:0:
256,192,13389,5,8,0:0:0:0:
256,192,13662,5,8,0:0:0:0:
256,192,13798,5,0,0:0:0:0:
256,192,13935,5,8,0:0:0:0:
256,192,14003,1,0,0:0:0:0:
256,192,14071,5,0,0:0:0:0:
256,192,14139,1,0,0:0:0:0:
256,192,14207,5,12,0:0:0:0:
256,192,14480,5,0,0:0:0:0:
256,192,14617,5,0,0:0:0:0:
256,192,14753,5,8,0:0:0:0:
256,192,15026,5,8,0:0:0:0:
256,192,15162,5,8,0:0:0:0:
256,192,15435,5,0,0:0:0:0:
256,192,15707,5,8,0:0:0:0:
256,192,15844,5,0,0:0:0:0:
256,192,15980,5,8,0:0:0:0:
256,192,16117,5,8,0:0:0:0:
256,192,16253,5,0,0:0:0:0:
256,192,16389,5,8,0:0:0:0:
256,192,16662,5,0,0:0:0:0:
256,192,16798,5,0,0:0:0:0:
256,192,16935,5,8,0:0:0:0:
256,192,17207,5,0,0:0:0:0:
256,192,17344,5,8,0:0:0:0:
256,192,17617,5,0,0:0:0:0:
256,192,17889,5,8,0:0:0:0:
256,192,18026,5,0,0:0:0:0:
256,192,18117,5,0,0:0:0:0:
256,208,18207,1,0,0:0:0:0:
256,192,18298,5,8,0:0:0:0:
256,192,18435,5,0,0:0:0:0:
256,192,18571,5,8,0:0:0:0:
256,192,18844,5,0,0:0:0:0:
256,192,18980,5,0,0:0:0:0:
256,192,19117,5,8,0:0:0:0:
256,192,19389,5,0,0:0:0:0:
256,192,19526,5,8,0:0:0:0:
256,192,19798,5,0,0:0:0:0:
256,192,20071,5,8,0:0:0:0:
256,192,20207,5,0,0:0:0:0:
256,192,20344,5,8,0:0:0:0:
256,192,20480,5,8,0:0:0:0:
256,192,20617,5,0,0:0:0:0:
256,192,20753,5,8,0:0:0:0:
256,192,21026,5,0,0:0:0:0:
256,192,21162,5,0,0:0:0:0:
256,192,21298,5,8,0:0:0:0:
256,192,21435,5,0,0:0:0:0:
256,192,21571,5,8,0:0:0:0:
256,192,21707,5,0,0:0:0:0:
256,192,21844,5,8,0:0:0:0:
256,192,21935,5,0,0:0:0:0:
256,192,22026,5,0,0:0:0:0:
256,192,22117,5,8,0:0:0:0:
256,192,22207,5,0,0:0:0:0:
256,192,22298,5,0,0:0:0:0:
256,192,22389,5,8,0:0:0:0:
256,192,22457,5,8,0:0:0:0:
256,192,22526,5,0,0:0:0:0:
256,192,22594,5,0,0:0:0:0:
256,192,22662,5,8,0:0:0:0:
256,192,22730,5,0,0:0:0:0:
256,192,22798,5,8,0:0:0:0:
256,192,22867,5,8,0:0:0:0:
256,192,22935,5,4,0:0:0:0:
256,192,23207,5,8,0:0:0:0:
256,192,23344,5,0,0:0:0:0:
256,192,23617,5,0,0:0:0:0:
256,192,23753,5,8,0:0:0:0:
256,192,23889,5,0,0:0:0:0:
256,192,23957,5,0,0:0:0:0:
256,192,24026,5,8,0:0:0:0:
256,192,24298,5,8,0:0:0:0:
256,192,24435,5,0,0:0:0:0:
256,192,24707,5,0,0:0:0:0:
256,192,24844,5,8,0:0:0:0:
256,192,24912,5,8,0:0:0:0:
256,192,24980,5,0,0:0:0:0:
256,192,25117,5,8,0:0:0:0:
256,192,25389,5,8,0:0:0:0:
256,192,25526,5,0,0:0:0:0:
256,192,25798,5,0,0:0:0:0:
256,192,25935,5,8,0:0:0:0:
256,192,26071,5,0,0:0:0:0:
256,192,26139,5,0,0:0:0:0:
256,192,26207,5,8,0:0:0:0:
256,192,26344,5,0,0:0:0:0:
256,192,26480,5,8,0:0:0:0:
256,192,26548,5,8,0:0:0:0:
256,192,26617,5,0,0:0:0:0:
256,192,26753,5,8,0:0:0:0:
256,192,26889,5,8,0:0:0:0:
256,192,27026,5,0,0:0:0:0:
256,192,27094,5,0,0:0:0:0:
256,192,27162,5,0,0:0:0:0:
256,192,27298,5,8,0:0:0:0:
256,192,27571,5,8,0:0:0:0:
256,192,27639,5,0,0:0:0:0:
256,192,27707,5,8,0:0:0:0:
256,192,27844,5,8,0:0:0:0:
256,192,27980,5,0,0:0:0:0:
256,192,28117,5,8,0:0:0:0:
256,192,28185,5,8,0:0:0:0:
256,192,28253,5,0,0:0:0:0:
256,192,28389,5,8,0:0:0:0:
256,192,28526,5,0,0:0:0:0:
256,192,28662,5,8,0:0:0:0:
256,192,28730,5,0,0:0:0:0:
256,192,28798,5,0,0:0:0:0:
256,192,28935,5,8,0:0:0:0:
256,192,29071,5,0,0:0:0:0:
256,192,29207,5,8,0:0:0:0:
256,192,29276,5,8,0:0:0:0:
256,192,29344,5,0,0:0:0:0:
256,192,29412,5,0,0:0:0:0:
256,192,29480,5,8,0:0:0:0:
256,192,29617,5,0,0:0:0:0:
256,192,29753,5,8,0:0:0:0:
256,192,29821,5,8,0:0:0:0:
256,192,29889,5,8,0:0:0:0:
256,192,30026,5,0,0:0:0:0:
256,192,30162,5,0,0:0:0:0:
256,192,30298,5,8,0:0:0:0:
256,192,30367,5,8,0:0:0:0:
256,192,30435,5,0,0:0:0:0:
256,192,30571,5,8,0:0:0:0:
256,192,30707,5,0,0:0:0:0:
256,192,30844,5,8,0:0:0:0:
256,192,30980,5,0,0:0:0:0:
256,192,31117,5,8,0:0:0:0:
256,192,31185,5,0,0:0:0:0:
256,192,31253,5,0,0:0:0:0:
256,192,31321,5,0,0:0:0:0:
256,192,31389,5,8,0:0:0:0:
256,192,31457,5,0,0:0:0:0:
256,192,31526,5,0,0:0:0:0:
256,192,31594,5,0,0:0:0:0:
256,192,31662,5,12,0:0:0:0:
256,192,32480,5,0,0:0:0:0:
256,192,32753,5,8,0:0:0:0:
256,192,33571,5,0,0:0:0:0:
256,192,33844,5,8,0:0:0:0:
256,192,34662,5,0,0:0:0:0:
256,192,34935,5,8,0:0:0:0:
256,192,35207,5,8,0:0:0:0:
256,192,35480,5,0,0:0:0:0:
256,192,35753,5,0,0:0:0:0:
256,192,36026,5,8,0:0:0:0:
256,192,36298,5,0,0:0:0:0:
256,192,36571,5,0,0:0:0:0:
256,192,36844,5,8,0:0:0:0:
256,192,37117,5,8,0:0:0:0:
256,192,37389,5,0,0:0:0:0:
256,192,37662,5,0,0:0:0:0:
256,192,37935,5,8,0:0:0:0:
256,192,38207,5,8,0:0:0:0:
256,192,38344,5,8,0:0:0:0:
256,192,38480,5,0,0:0:0:0:
256,192,38617,5,0,0:0:0:0:
256,192,38753,5,8,0:0:0:0:
256,192,39026,5,8,0:0:0:0:
256,192,39162,5,0,0:0:0:0:
256,192,39298,5,8,0:0:0:0:
256,192,39435,5,0,0:0:0:0:
256,192,39571,5,8,0:0:0:0:
256,192,39707,5,0,0:0:0:0:
256,192,39844,5,8,0:0:0:0:
256,192,40117,5,0,0:0:0:0:
256,192,40389,5,12,0:0:0:0:
256,192,40662,5,0,0:0:0:0:
256,192,40798,5,8,0:0:0:0:
256,192,40935,5,0,0:0:0:0:
256,192,41071,5,8,0:0:0:0:
256,192,41207,5,8,0:0:0:0:
256,192,41344,5,0,0:0:0:0:
256,192,41480,5,8,0:0:0:0:
256,192,41617,5,0,0:0:0:0:
256,192,41753,5,8,0:0:0:0:
256,192,41889,5,8,0:0:0:0:
256,192,42026,5,0,0:0:0:0:
256,192,42298,5,8,0:0:0:0:
256,192,42435,5,0,0:0:0:0:
256,192,42571,5,8,0:0:0:0:
256,192,42844,5,8,0:0:0:0:
256,192,42980,5,8,0:0:0:0:
256,192,43117,5,0,0:0:0:0:
256,192,43253,5,8,0:0:0:0:
256,192,43321,5,0,0:0:0:0:
256,192,43389,5,8,0:0:0:0:
256,192,43526,5,0,0:0:0:0:
256,192,43662,5,8,0:0:0:0:
256,192,43798,5,0,0:0:0:0:
256,192,43935,5,8,0:0:0:0:
256,192,44207,5,0,0:0:0:0:
256,192,44480,5,8,0:0:0:0:
256,192,44617,5,0,0:0:0:0:
256,192,44753,5,12,0:0:0:0:
256,192,45162,5,4,0:0:0:0:
256,192,45571,5,12,0:0:0:0:
256,192,45980,5,4,0:0:0:0:
256,192,46389,5,4,0:0:0:0:
256,192,46662,5,8,0:0:0:0:
256,192,46798,5,0,0:0:0:0:
256,192,46867,5,0,0:0:0:0:
256,192,46935,5,12,0:0:0:0:
256,192,47071,5,0,0:0:0:0:
256,192,47207,5,0,0:0:0:0:
256,192,47344,5,12,0:0:0:0:
256,192,47480,5,0,0:0:0:0:
256,192,47617,5,0,0:0:0:0:
256,192,47753,5,12,0:0:0:0:
256,192,47889,5,0,0:0:0:0:
256,192,48026,5,12,0:0:0:0:
256,192,48162,5,0,0:0:0:0:
256,192,48298,5,12,0:0:0:0:
256,192,48571,5,0,0:0:0:0:
256,192,49117,5,12,0:0:0:0:
256,192,49253,5,0,0:0:0:0:
256,192,49389,5,8,0:0:0:0:
256,192,49457,5,8,0:0:0:0:
256,192,49526,5,0,0:0:0:0:
256,192,49594,5,0,0:0:0:0:
256,192,49662,5,8,0:0:0:0:
256,192,49798,5,0,0:0:0:0:
256,192,49935,5,8,0:0:0:0:
256,192,50003,5,0,0:0:0:0:
256,192,50071,5,8,0:0:0:0:
256,192,50139,5,8,0:0:0:0:
256,192,50207,5,0,0:0:0:0:
256,192,50276,5,0,0:0:0:0:
256,192,50344,5,8,0:0:0:0:
256,192,50480,5,0,0:0:0:0:
256,192,50617,5,8,0:0:0:0:
256,192,50753,5,0,0:0:0:0:
256,192,50889,5,0,0:0:0:0:
256,192,50957,5,0,0:0:0:0:
256,192,51026,5,8,0:0:0:0:
256,192,51162,5,0,0:0:0:0:
256,192,51298,5,8,0:0:0:0:
256,192,51367,5,0,0:0:0:0:
256,192,51435,5,0,0:0:0:0:
256,192,51503,5,0,0:0:0:0:
256,192,51571,5,8,0:0:0:0:
256,192,51707,5,0,0:0:0:0:
256,192,51844,5,8,0:0:0:0:
256,192,51912,5,8,0:0:0:0:
256,192,51980,5,8,0:0:0:0:
256,192,52048,5,0,0:0:0:0:
256,192,52117,5,8,0:0:0:0:
256,192,52185,5,0,0:0:0:0:
256,192,52253,5,8,0:0:0:0:
256,192,52389,5,0,0:0:0:0:
256,192,52526,5,8,0:0:0:0:
256,192,52594,5,8,0:0:0:0:
256,192,52662,5,0,0:0:0:0:
256,192,52798,5,8,0:0:0:0:
256,192,52935,5,0,0:0:0:0:
256,192,53071,5,0,0:0:0:0:
256,192,53207,5,8,0:0:0:0:
256,192,53276,5,8,0:0:0:0:
256,192,53344,5,0,0:0:0:0:
256,192,53480,5,12,0:0:0:0:
256,192,53617,5,0,0:0:0:0:
256,192,53753,5,8,0:0:0:0:
256,192,53821,5,0,0:0:0:0:
256,192,53889,5,8,0:0:0:0:
256,192,53957,5,0,0:0:0:0:
256,192,54026,5,0,0:0:0:0:
256,192,54094,5,0,0:0:0:0:
256,192,54162,5,8,0:0:0:0:
256,192,54298,5,0,0:0:0:0:
256,192,54435,5,8,0:0:0:0:
256,192,54503,5,8,0:0:0:0:
256,192,54571,5,0,0:0:0:0:
256,192,54707,5,8,0:0:0:0:
256,192,54844,5,0,0:0:0:0:
256,192,54912,5,0,0:0:0:0:
256,192,54980,5,8,0:0:0:0:
256,192,55117,5,0,0:0:0:0:
256,192,55253,5,0,0:0:0:0:
256,192,55389,5,8,0:0:0:0:
256,192,55457,5,8,0:0:0:0:
256,192,55526,5,0,0:0:0:0:
256,192,55594,5,0,0:0:0:0:
256,192,55662,5,12,0:0:0:0:
256,192,55798,5,0,0:0:0:0:
256,192,55935,5,8,0:0:0:0:
256,192,56003,5,0,0:0:0:0:
256,192,56071,5,8,0:0:0:0:
256,192,56139,5,8,0:0:0:0:
256,192,56207,5,0,0:0:0:0:
256,192,56276,5,0,0:0:0:0:
256,192,56344,5,8,0:0:0:0:
256,192,56480,5,0,0:0:0:0:
256,192,56617,5,8,0:0:0:0:
256,192,56685,5,0,0:0:0:0:
256,192,56753,5,0,0:0:0:0:
256,192,56821,5,0,0:0:0:0:
256,192,56889,5,8,0:0:0:0:
256,192,57026,5,0,0:0:0:0:
256,192,57162,5,8,0:0:0:0:
256,192,57230,5,8,0:0:0:0:
256,192,57298,5,0,0:0:0:0:
256,192,57367,5,0,0:0:0:0:
256,192,57435,5,8,0:0:0:0:
256,192,57503,5,0,0:0:0:0:
256,192,57571,5,8,0:0:0:0:
256,192,57707,5,0,0:0:0:0:
256,192,57844,5,12,0:0:0:0:
256,192,57980,5,0,0:0:0:0:
256,192,58048,5,0,0:0:0:0:
256,192,58117,5,8,0:0:0:0:
240,192,58185,5,8,0:0:0:0:
256,192,58253,5,0,0:0:0:0:
256,192,58389,5,8,0:0:0:0:
256,192,58526,5,0,0:0:0:0:
256,192,58662,5,8,0:0:0:0:
256,192,58730,5,0,0:0:0:0:
256,192,58798,5,8,0:0:0:0:
256,192,58867,5,8,0:0:0:0:
256,192,58935,5,0,0:0:0:0:
256,192,59003,5,0,0:0:0:0:
256,192,59071,5,8,0:0:0:0:
256,192,59207,5,0,0:0:0:0:
256,192,59344,5,8,0:0:0:0:
256,192,59412,5,8,0:0:0:0:
256,192,59480,5,0,0:0:0:0:
256,192,59617,5,0,0:0:0:0:
256,192,59753,5,8,0:0:0:0:
256,192,59821,5,0,0:0:0:0:
256,192,59889,5,0,0:0:0:0:
256,192,59957,5,0,0:0:0:0:
256,192,60026,5,8,0:0:0:0:
256,192,60162,5,0,0:0:0:0:
256,192,60298,5,8,0:0:0:0:
256,192,60367,5,0,0:0:0:0:
256,192,60435,5,0,0:0:0:0:
256,192,60571,5,8,0:0:0:0:
256,192,60639,5,8,0:0:0:0:
256,192,60707,5,0,0:0:0:0:
256,192,60776,5,0,0:0:0:0:
256,192,60844,5,8,0:0:0:0:
256,192,60912,5,0,0:0:0:0:
256,192,60980,5,8,0:0:0:0:
256,192,61117,5,0,0:0:0:0:
256,192,61253,5,8,0:0:0:0:
256,192,61321,5,8,0:0:0:0:
256,192,61389,5,0,0:0:0:0:
256,192,61457,5,0,0:0:0:0:
256,192,61526,5,8,0:0:0:0:
256,192,61662,5,0,0:0:0:0:
256,192,61798,5,0,0:0:0:0:
256,192,61867,5,0,0:0:0:0:
256,192,61935,5,8,0:0:0:0:
256,192,62071,5,0,0:0:0:0:
256,192,62207,5,12,0:0:0:0:
256,192,62344,5,0,0:0:0:0:
256,192,62480,5,8,0:0:0:0:
256,192,62548,5,0,0:0:0:0:
256,192,62617,5,8,0:0:0:0:
256,192,62685,5,8,0:0:0:0:
256,192,62753,5,0,0:0:0:0:
256,192,62821,5,0,0:0:0:0:
256,192,62889,5,8,0:0:0:0:
256,192,63026,5,0,0:0:0:0:
256,192,63162,5,8,0:0:0:0:
256,192,63230,5,8,0:0:0:0:
256,192,63298,5,0,0:0:0:0:
256,192,63367,5,0,0:0:0:0:
256,192,63435,5,8,0:0:0:0:
256,192,63571,5,0,0:0:0:0:
256,192,63707,5,8,0:0:0:0:
256,192,63776,5,8,0:0:0:0:
256,192,63844,5,0,0:0:0:0:
256,192,63980,5,0,0:0:0:0:
256,192,64117,5,8,0:0:0:0:
256,192,64253,5,0,0:0:0:0:
256,192,64321,5,0,0:0:0:0:
256,192,64389,5,12,0:0:0:0:
256,192,64526,5,0,0:0:0:0:
256,192,64662,5,8,0:0:0:0:
256,192,64798,5,8,0:0:0:0:
256,192,64867,5,0,0:0:0:0:
256,192,64935,5,8,0:0:0:0:
256,192,65071,5,0,0:0:0:0:
256,192,65207,5,8,0:0:0:0:
256,192,65276,5,8,0:0:0:0:
256,192,65344,5,0,0:0:0:0:
256,192,65480,5,8,0:0:0:0:
256,192,65617,5,0,0:0:0:0:
256,192,65753,5,8,0:0:0:0:
256,192,65821,5,8,0:0:0:0:
256,192,65889,5,0,0:0:0:0:
256,192,65957,5,0,0:0:0:0:
256,192,66026,5,8,0:0:0:0:
256,192,66162,5,8,0:0:0:0:
256,192,66298,5,0,0:0:0:0:
256,192,66435,5,0,0:0:0:0:
256,192,66571,5,12,0:0:0:0:
256,192,66707,5,0,0:0:0:0:
256,192,66776,5,0,0:0:0:0:
256,192,66844,5,0,0:0:0:0:
256,192,66980,5,8,0:0:0:0:
256,192,67117,5,0,0:0:0:0:
256,192,67253,5,0,0:0:0:0:
256,192,67321,5,0,0:0:0:0:
256,192,67389,5,8,0:0:0:0:
256,192,67526,5,0,0:0:0:0:
256,192,67662,5,8,0:0:0:0:
256,192,67730,5,8,0:0:0:0:
256,192,67798,5,8,0:0:0:0:
256,192,67935,5,0,0:0:0:0:
256,192,68071,5,8,0:0:0:0:
256,192,68207,5,0,0:0:0:0:
256,192,68344,5,0,0:0:0:0:
256,192,68412,5,0,0:0:0:0:
256,192,68480,5,8,0:0:0:0:
256,192,68617,5,0,0:0:0:0:
256,192,68753,5,8,0:0:0:0:
256,192,68889,1,0,0:0:0:0:
256,192,68957,1,0,0:0:0:0:
256,192,69026,5,0,0:0:0:0:
256,192,69162,5,8,0:0:0:0:
256,192,69298,5,0,0:0:0:0:
256,192,69435,5,0,0:0:0:0:
256,192,69571,5,8,0:0:0:0:
256,192,69639,5,8,0:0:0:0:
256,192,69707,5,0,0:0:0:0:
256,192,69844,5,8,0:0:0:0:
256,192,69980,5,0,0:0:0:0:
256,192,70117,5,8,0:0:0:0:
256,192,70185,5,0,0:0:0:0:
256,192,70253,5,8,0:0:0:0:
256,192,70321,5,8,0:0:0:0:
256,192,70389,5,0,0:0:0:0:
256,192,70526,5,0,0:0:0:0:
256,192,70662,5,8,0:0:0:0:
256,192,70730,5,0,0:0:0:0:
256,192,70798,5,0,0:0:0:0:
256,192,70935,5,8,0:0:0:0:
256,192,71071,5,0,0:0:0:0:
256,192,71139,5,0,0:0:0:0:
256,192,71207,5,8,0:0:0:0:
256,192,71344,5,0,0:0:0:0:
256,192,71480,5,0,0:0:0:0:
256,192,71617,5,8,0:0:0:0:
256,192,71685,5,0,0:0:0:0:
256,192,71753,5,8,0:0:0:0:
256,192,71889,5,0,0:0:0:0:
256,192,72026,5,8,0:0:0:0:
256,192,72094,5,8,0:0:0:0:
256,192,72162,5,0,0:0:0:0:
256,192,72298,5,8,0:0:0:0:
256,192,72435,5,8,0:0:0:0:
256,192,72571,5,0,0:0:0:0:
256,192,72707,5,0,0:0:0:0:
256,192,72844,5,8,0:0:0:0:
256,192,72912,5,0,0:0:0:0:
256,192,72980,5,8,0:0:0:0:
256,192,73117,5,8,0:0:0:0:
256,192,73253,5,0,0:0:0:0:
256,192,73321,5,0,0:0:0:0:
256,192,73389,5,0,0:0:0:0:
256,192,73526,5,8,0:0:0:0:
256,192,73662,5,0,0:0:0:0:
256,192,73730,5,0,0:0:0:0:
256,192,73798,5,0,0:0:0:0:
256,192,73935,5,8,0:0:0:0:
256,192,74071,5,8,0:0:0:0:
256,192,74207,5,4,0:0:0:0:
256,192,74617,5,4,0:0:0:0:
256,192,75026,5,4,0:0:0:0:
256,192,75298,5,12,0:0:0:0:
256,192,75571,5,0,0:0:0:0:
256,192,75707,5,8,0:0:0:0:
256,192,75776,5,8,0:0:0:0:
256,192,75844,5,8,0:0:0:0:
256,192,75980,5,0,0:0:0:0:
256,192,76117,5,8,0:0:0:0:
256,192,76253,5,0,0:0:0:0:
256,192,76321,5,0,0:0:0:0:
256,192,76389,5,8,0:0:0:0:
256,192,76526,5,8,0:0:0:0:
256,192,76662,5,0,0:0:0:0:
256,192,76730,5,0,0:0:0:0:
256,192,76798,5,0,0:0:0:0:
256,192,76935,5,8,0:0:0:0:
256,192,77071,5,0,0:0:0:0:
256,192,77207,5,8,0:0:0:0:
256,192,77276,5,8,0:0:0:0:
256,192,77344,5,0,0:0:0:0:
256,192,77412,5,0,0:0:0:0:
256,192,77480,5,8,0:0:0:0:
256,192,77617,5,0,0:0:0:0:
256,192,77753,5,0,0:0:0:0:
256,192,77889,5,8,0:0:0:0:
256,192,77957,5,0,0:0:0:0:
256,192,78026,5,8,0:0:0:0:
256,192,78162,5,0,0:0:0:0:
256,192,78298,5,8,0:0:0:0:
256,192,78435,5,0,0:0:0:0:
256,192,78503,5,0,0:0:0:0:
256,192,78571,5,8,0:0:0:0:
256,192,78707,5,8,0:0:0:0:
256,192,78844,5,0,0:0:0:0:
256,192,78912,5,0,0:0:0:0:
256,192,78980,5,0,0:0:0:0:
256,192,79117,5,8,0:0:0:0:
256,192,79253,5,0,0:0:0:0:
256,192,79389,5,8,0:0:0:0:
256,192,79457,5,0,0:0:0:0:
256,192,79526,5,0,0:0:0:0:
256,192,79594,5,0,0:0:0:0:
256,192,79662,5,8,0:0:0:0:
256,192,79798,5,0,0:0:0:0:
256,192,79935,5,0,0:0:0:0:
256,192,80071,5,8,0:0:0:0:
256,192,80139,5,0,0:0:0:0:
256,192,80207,5,8,0:0:0:0:
256,192,80344,5,0,0:0:0:0:
256,192,80480,5,8,0:0:0:0:
256,192,80548,5,8,0:0:0:0:
256,192,80617,5,0,0:0:0:0:
256,192,80753,5,8,0:0:0:0:
256,192,80889,5,0,0:0:0:0:
256,192,80957,5,0,0:0:0:0:
256,192,81026,5,0,0:0:0:0:
256,192,81162,5,0,0:0:0:0:
256,192,81298,5,8,0:0:0:0:
256,192,81435,5,0,0:0:0:0:
256,192,81571,5,8,0:0:0:0:
256,192,81639,5,0,0:0:0:0:
256,192,81707,5,8,0:0:0:0:
256,192,81776,5,0,0:0:0:0:
256,192,81844,5,8,0:0:0:0:
256,192,81980,5,0,0:0:0:0:
256,192,82117,5,0,0:0:0:0:
256,192,82253,5,8,0:0:0:0:
256,192,82321,5,8,0:0:0:0:
256,192,82389,5,8,0:0:0:0:
256,192,82526,5,0,0:0:0:0:
256,192,82662,5,8,0:0:0:0:
256,192,82730,5,8,0:0:0:0:
256,192,82798,5,0,0:0:0:0:
256,192,82935,5,8,0:0:0:0:
256,192,83071,5,8,0:0:0:0:
256,192,83207,5,0,0:0:0:0:
256,192,83276,5,0,0:0:0:0:
256,192,83344,5,0,0:0:0:0:
256,192,83480,5,8,0:0:0:0:
256,192,83617,5,0,0:0:0:0:
256,192,83753,5,8,0:0:0:0:
256,192,83889,5,8,0:0:0:0:
256,192,83957,5,8,0:0:0:0:
256,192,84026,5,4,0:0:0:0:
256,192,84298,5,0,0:0:0:0:
256,192,84571,5,8,0:0:0:0:
256,192,84844,5,8,0:0:0:0:
256,192,84980,5,8,0:0:0:0:
256,192,85117,5,0,0:0:0:0:
256,192,85253,5,8,0:0:0:0:
256,192,85389,5,8,0:0:0:0:
256,192,85662,5,0,0:0:0:0:
256,192,85798,5,8,0:0:0:0:
256,192,85935,5,8,0:0:0:0:
256,192,86207,5,0,0:0:0:0:
256,192,86480,5,0,0:0:0:0:
256,192,86753,5,8,0:0:0:0:
256,192,86889,5,4,0:0:0:0:
256,192,87026,5,4,0:0:0:0:
256,192,87162,5,12,0:0:0:0:
