osu file format v14

[General]
AudioFilename: audio.mp3
AudioLeadIn: 0
PreviewTime: 54852
Countdown: 0
SampleSet: Soft
StackLeniency: 0.3
Mode: 0
LetterboxInBreaks: 0
WidescreenStoryboard: 1

[Editor]
Bookmarks: 5114,85354
DistanceSpacing: 1.2
BeatDivisor: 4
GridSize: 16
TimelineZoom: 1.7

[Metadata]
Title:Long shot (TV Size)
TitleUnicode:Long shot (TV Size)
Artist:Maeshima Mayu
ArtistUnicode:前島麻由
Creator:fieryrage
Version:Hooni's Insane
Source:Re:ゼロから始める異世界生活
Tags:re:zero kara hajimeru isekai seikatsu rezero starting life in another world different from zero season two anime opening op japanese english rock pop myth and & roid wanpachi cycopton hooni flask eiri- ayyri blastthekidd
BeatmapID:2787352
BeatmapSetID:1345977

[Difficulty]
HPDrainRate:5
CircleSize:3.5
OverallDifficulty:8
ApproachRate:9
SliderMultiplier:2
SliderTickRate:1

[Events]
//Background and Video events
0,0,"if you really think about it echidna is basically the rem of season 2.jpg",0,0
Video,-365,"this might as well be the emilia op.mp4"
//Break Periods
//Storyboard Layer 0 (Background)
//Storyboard Layer 1 (Fail)
//Storyboard Layer 2 (Pass)
//Storyboard Layer 3 (Foreground)
//Storyboard Layer 4 (Overlay)
//Storyboard Sound Samples

[TimingPoints]
2131,444.444444444444,4,2,2,5,1,0
2131,-100,4,2,5,60,0,0
2242,-100,4,2,1,50,0,0
3908,-83.3333333333333,4,2,1,55,0,0
5242,-83.3333333333333,4,2,1,60,0,0
5686,444.444444444444,4,2,5,65,1,1
5686,-66.6666666666667,4,2,5,65,0,1
5741,-100,4,2,1,65,0,1
6130,-58.8235294117647,4,2,1,65,0,1
6574,-66.6666666666667,4,2,1,65,0,1
7019,-58.8235294117647,4,2,1,65,0,1
7463,-66.6666666666667,4,2,1,65,0,1
7908,-66.6666666666667,4,2,5,65,0,1
8352,-66.6666666666667,4,2,1,65,0,1
8797,-58.8235294117647,4,2,1,65,0,1
9241,-66.6666666666667,4,2,5,65,0,1
9352,-66.6666666666667,4,2,1,65,0,1
9685,-58.8235294117647,4,2,1,65,0,1
10130,-66.6666666666667,4,2,1,65,0,1
11908,-66.6666666666667,4,2,5,65,0,1
12797,-100,4,2,1,55,0,0
16352,-100,4,2,1,55,0,0
18685,-100,4,2,5,55,0,0
19019,-100,4,2,5,55,0,0
19908,-100,4,2,1,60,0,0
21241,-100,4,2,5,60,0,0
21463,-100,4,2,1,60,0,0
24797,-100,4,2,5,60,0,0
25019,-100,4,2,1,60,0,0
25797,-100,4,2,5,60,0,0
26574,-100,4,2,1,65,0,0
27019,-66.6666666666667,4,2,1,65,0,0
27463,-66.6666666666667,4,2,1,60,0,0
27908,-100,4,2,1,65,0,0
28574,-66.6666666666667,4,2,1,65,0,0
28908,-66.6666666666667,4,2,1,55,0,0
29241,-66.6666666666667,4,2,1,60,0,0
29685,-100,4,2,1,65,0,0
30352,-66.6666666666667,4,2,1,65,0,0
30797,-66.6666666666667,4,2,1,60,0,0
31463,-100,4,2,1,60,0,0
33241,-76.9230769230769,4,2,1,60,0,0
33463,-76.9230769230769,4,2,1,50,0,0
33685,-76.9230769230769,4,2,1,60,0,0
33797,-76.9230769230769,4,2,1,55,0,0
34130,-66.6666666666667,4,2,1,60,0,0
35019,-66.6666666666667,4,2,1,60,0,0
35908,-76.9230769230769,4,2,1,60,0,0
36797,-100,4,2,1,60,0,0
37685,-76.9230769230769,4,2,1,55,0,0
39463,-66.6666666666667,4,2,1,60,0,0
39574,-66.6666666666667,4,2,1,50,0,0
39797,-66.6666666666667,4,2,1,60,0,0
39908,-66.6666666666667,4,2,1,55,0,0
40019,-66.6666666666667,4,2,1,50,0,0
40130,-66.6666666666667,4,2,1,60,0,0
40241,-66.6666666666667,4,2,1,50,0,0
40352,-66.6666666666667,4,2,1,55,0,0
40463,-66.6666666666667,4,2,1,60,0,0
40574,-66.6666666666667,4,2,1,45,0,0
40797,-66.6666666666667,4,2,1,60,0,0
40908,-66.6666666666667,4,2,1,50,0,0
41019,-66.6666666666667,4,2,1,60,0,0
41130,-66.6666666666667,4,2,1,50,0,0
41241,-66.6666666666667,4,2,1,60,0,0
41463,-200,4,2,1,60,0,0
41685,-200,4,2,1,50,0,0
43019,-200,4,2,1,60,0,0
43463,-200,4,2,1,50,0,0
44797,-200,4,2,1,60,0,0
45241,-200,4,2,1,50,0,0
46574,-83.3333333333333,4,2,1,50,0,0
46685,-83.3333333333333,4,2,5,40,0,0
46797,-83.3333333333333,4,2,5,45,0,0
46908,-83.3333333333333,4,2,5,50,0,0
47019,-83.3333333333333,4,2,1,50,0,0
47130,-83.3333333333333,4,2,1,55,0,0
47241,-83.3333333333333,4,2,5,45,0,0
47463,-83.3333333333333,4,2,1,50,0,0
47574,-83.3333333333333,4,2,5,55,0,0
47797,-83.3333333333333,4,2,5,40,0,0
47908,-83.3333333333333,4,2,1,50,0,0
48019,-83.3333333333333,4,2,5,45,0,0
48352,-125,4,2,1,60,0,0
48463,-125,4,2,1,55,0,0
51908,-125,4,2,1,60,0,0
52797,-125,4,2,1,60,0,0
53685,-125,4,2,1,40,0,0
54797,-125,4,2,1,45,0,0
55019,-250,4,2,1,55,0,0
55463,-58.8235294117647,4,2,1,70,0,1
59019,-66.6666666666667,4,2,1,70,0,1
59574,-66.6666666666667,4,2,5,70,0,1
59908,-83.3333333333333,4,2,5,70,0,1
60352,-83.3333333333333,4,2,1,70,0,1
60574,-66.6666666666667,4,2,1,70,0,1
62574,-58.8235294117647,4,2,1,70,0,1
62685,-58.8235294117647,4,2,5,70,0,1
63463,-66.6666666666667,4,2,5,70,0,1
63908,-66.6666666666667,4,2,1,70,0,1
64130,-83.3333333333333,4,2,1,70,0,1
66130,-66.6666666666667,4,2,5,70,0,1
67019,-83.3333333333333,4,2,5,70,0,1
68685,-83.3333333333333,4,2,5,60,0,1
68797,-83.3333333333333,4,2,1,70,0,1
69241,-66.6666666666667,4,2,1,70,0,0
69352,-66.6666666666667,4,2,1,60,0,0
69463,-66.6666666666667,4,2,1,70,0,0
69574,-66.6666666666667,4,2,1,50,0,0
69685,-58.8235294117647,4,2,1,70,0,1
73241,-66.6666666666667,4,2,1,70,0,1
74130,-58.8235294117647,4,2,1,70,0,1
74797,-71.4285714285714,4,2,1,70,0,1
75685,-66.6666666666667,4,2,1,70,0,1
76797,-58.8235294117647,4,2,1,70,0,1
76908,-58.8235294117647,4,2,5,70,0,1
77685,-66.6666666666667,4,2,5,70,0,1
78130,-66.6666666666667,4,2,1,70,0,1
78352,-83.3333333333333,4,2,1,70,0,1
80352,-66.6666666666667,4,2,1,70,0,1
80463,-66.6666666666667,4,2,5,70,0,1
82352,-66.6666666666667,4,2,1,70,0,1
82574,-83.3333333333333,4,2,1,70,0,1
83019,-100,4,2,1,55,0,0
83463,-100,4,2,1,60,0,0
83685,-100,4,2,1,55,0,0
83797,-100,4,2,1,50,0,0
83908,-181.818181818182,4,2,5,60,0,0
85241,-181.818181818182,4,2,5,40,0,0
85685,-83.3333333333333,4,2,5,65,0,0

[Colours]
Combo1 : 22,124,30
Combo2 : 127,127,127
Combo3 : 185,185,185
Combo4 : 140,207,137

[HitObjects]
256,192,575,12,6,2131,1:3:0:0:
45,81,3019,5,2,0:0:0:0:
142,55,3242,1,2,0:0:0:0:
309,165,3464,1,2,0:0:0:0:
212,139,3686,1,2,0:0:0:0:
394,36,3908,6,0,L|406:105,1,59.9999981689454,2|0,0:0|0:0,0:0:0:0:
479,163,4130,1,2,0:0:0:0:
479,163,4242,2,0,L|466:232,1,59.9999981689454,2|0,0:0|0:0,0:0:0:0:
345,306,4464,5,0,0:0:0:0:
345,306,4575,2,0,P|295:274|238:287,1,119.999996337891,2|0,0:0|0:0,0:0:0:0:
157,347,4908,2,0,P|99:359|50:328,1,119.999996337891,2|0,0:0|1:2,0:0:0:0:
17,139,5242,5,10,0:0:0:0:
111,122,5353,1,8,0:0:0:0:
188,179,5464,1,8,0:0:0:0:
282,162,5575,1,8,0:0:0:0:
345,69,5686,6,0,B|357:40|393:30|393:30|439:61|445:128|383:160,1,225.000008583069,6|0,1:2|0:0,0:0:0:0:
326,274,6130,2,0,B|363:280|363:280|367:277|367:277|408:284,1,85.0000016212464,10|0,1:2|0:0,0:0:0:0:
258,362,6352,2,0,B|216:369|216:369|212:365|212:365|175:372,1,85.0000016212464,2|0,0:0|0:0,0:0:0:0:
50,290,6574,6,0,B|58:239|58:239|37:197|37:197|46:146,1,150.000005722046,0|2,1:2|0:0,0:0:0:0:
170,128,6908,1,0,0:0:0:0:
170,128,7019,2,0,B|207:145|207:145|249:138,1,85.0000016212464,10|0,1:2|0:0,0:0:0:0:
264,21,7241,2,0,B|226:3|226:3|184:10,1,85.0000016212464,2|0,0:0|0:0,0:0:0:0:
471,172,7463,6,0,B|429:65|429:65|362:153,1,225.000008583069,2|0,1:2|0:0,0:0:0:0:
325,260,7908,5,10,1:2:0:0:
281,252,8019,1,2,0:0:0:0:
239,245,8130,1,2,0:0:0:0:
197,237,8241,1,2,0:0:0:0:
102,215,8352,6,0,B|52:166|77:103|130:87|130:87|161:107|164:139,1,225.000008583069,2|0,1:2|0:0,0:0:0:0:
158,327,8797,2,0,L|74:342,1,85.0000016212464,10|0,1:2|0:0,0:0:0:0:
209,225,9019,2,0,L|292:239,1,85.0000016212464,2|0,0:0|0:0,0:0:0:0:
364,347,9241,6,0,B|418:310|418:310|434:216|434:216|393:167,1,225.000008583069,2|0,1:2|0:0,0:0:0:0:
327,48,9685,2,0,B|364:42|364:42|368:45|368:45|409:38,1,85.0000016212464,10|0,1:2|0:0,0:0:0:0:
258,150,9908,2,0,B|217:143|217:143|213:146|213:146|176:140,1,85.0000016212464,2|0,0:0|0:0,0:0:0:0:
73,10,10130,6,0,B|62:71|62:71|31:111|31:111|46:158|46:158|35:220,1,225.000008583069,0|0,1:2|0:0,0:0:0:0:
179,315,10574,1,10,1:2:0:0:
215,281,10685,1,2,0:0:0:0:
263,272,10797,1,2,0:0:0:0:
309,291,10908,1,2,0:0:0:0:
412,313,11019,5,10,0:0:0:0:
412,313,11130,2,0,L|398:239,1,75.0000028610231,0|10,0:0|0:3,0:0:0:0:
457,89,11352,2,0,P|472:122|469:159,1,75.0000028610231,10|0,0:0|0:0,0:0:0:0:
310,184,11574,2,0,P|294:150|297:113,1,75.0000028610231,10|8,0:3|0:0,0:0:0:0:
285,8,11797,1,8,0:0:0:0:
194,74,11908,6,0,B|133:84|133:84|116:107|116:107|57:118,1,150.000005722046,6|0,1:2|0:0,0:0:0:0:
199,100,12241,2,0,B|138:110|138:110|121:133|121:133|62:144,1,150.000005722046,6|0,1:2|0:0,0:0:0:0:
159,239,12574,1,6,1:2:0:0:
373,52,12797,6,0,L|390:150,1,100,6|0,1:2|0:0,0:0:0:0:
490,275,13241,2,0,L|507:176,1,100,10|0,1:3|0:0,0:0:0:0:
390,351,13685,1,2,1:2:0:0:
264,252,13908,1,0,0:0:0:0:
239,256,14019,1,2,0:0:0:0:
214,262,14130,2,0,L|137:275,1,50,8|0,1:3|0:0,0:0:0:0:
14,147,14352,1,2,0:0:0:0:
39,142,14463,1,0,0:0:0:0:
64,136,14574,6,0,L|193:112,1,100,0|2,1:2|0:0,0:0:0:0:
390,79,15019,1,10,1:3:0:0:
297,239,15241,1,2,0:0:0:0:
258,13,15463,1,2,1:2:0:0:
64,136,15685,5,2,0:0:0:0:
21,198,15797,1,0,0:0:0:0:
44,269,15908,2,0,B|98:278|98:278|127:262|127:262|188:273,1,150,10|0,1:3|0:0,0:0:0:0:
282,331,16352,6,0,P|275:282|297:238,1,100,2|0,1:2|0:0,0:0:0:0:
456,263,16797,2,0,P|462:311|440:355,1,100,10|0,1:3|0:0,0:0:0:0:
393,131,17241,1,2,1:2:0:0:
271,44,17463,1,0,0:0:0:0:
246,48,17574,1,0,0:0:0:0:
221,54,17685,2,0,L|95:76,1,100,10|2,1:3|0:0,0:0:0:0:
76,273,18130,6,0,B|116:248|116:248|168:255,1,100,0|2,1:2|0:0,0:0:0:0:
342,332,18574,2,0,B|301:356|301:356|249:349,1,100,10|0,1:3|0:0,0:0:0:0:
481,209,19019,6,0,L|464:308,1,100,2|2,1:2|0:0,0:0:0:0:
272,223,19463,2,0,B|261:162|261:162|277:133|277:133|268:79,1,150,10|0,1:3|0:0,0:0:0:0:
194,18,19908,6,0,P|145:10|101:32,1,100,2|0,1:2|0:0,0:0:0:0:
21,160,20352,1,10,1:3:0:0:
169,136,20574,1,0,0:0:0:0:
48,309,20797,1,2,1:2:0:0:
196,285,21019,1,0,0:0:0:0:
220,279,21130,1,2,0:0:0:0:
245,274,21241,2,0,B|285:266|285:266|295:270|295:270|343:261,1,100,10|2,1:3|0:0,0:0:0:0:
512,106,21685,6,0,L|413:87,1,100,0|2,1:2|0:0,0:0:0:0:
205,57,22130,1,10,1:3:0:0:
283,219,22352,1,2,0:0:0:0:
310,1,22574,1,2,1:2:0:0:
445,176,22797,5,2,0:0:0:0:
441,201,22908,1,0,0:0:0:0:
437,226,23019,2,0,B|417:331|417:331|395:294,1,150,10|0,1:3|0:0,0:0:0:0:
328,221,23463,6,0,P|283:199|235:206,1,100,2|0,1:2|0:0,0:0:0:0:
212,354,23908,2,0,P|257:376|306:368,1,100,10|0,1:3|0:0,0:0:0:0:
106,267,24352,1,2,1:2:0:0:
235,205,24574,1,0,0:0:0:0:
229,181,24685,1,2,0:0:0:0:
224,156,24797,2,0,B|217:115|217:115|210:107|210:107|202:59,1,100,10|2,1:3|0:0,0:0:0:0:
435,0,25241,6,0,L|418:98,1,100,0|2,1:2|0:0,0:0:0:0:
349,244,25685,2,0,P|397:237|441:259,1,100,10|0,1:3|0:0,0:0:0:0:
238,344,26130,6,0,B|177:333|177:333|148:349|148:349|94:340,1,150,2|0,1:2|0:0,0:0:0:0:
0,327,26574,1,10,1:3:0:0:
131,234,26797,1,2,0:0:0:0:
0,52,27019,6,0,B|49:-4|115:49|91:66|146:123|193:82,1,225.000008583069,6|0,1:2|0:0,0:0:0:0:
251,23,27463,1,2,0:0:0:0:
480,40,27908,6,0,B|491:90|491:90|467:132,1,100,6|0,1:2|0:0,0:0:0:0:
349,116,28241,2,0,B|337:65|337:65|361:23,1,100,6|0,1:2|0:0,0:0:0:0:
397,223,28574,6,0,B|433:276|421:331|358:351|358:351|330:325|329:296,1,225.000008583069,6|2,1:2|0:0,0:0:0:0:
263,247,29019,5,2,0:0:0:0:
55,276,29241,1,2,0:0:0:0:
169,333,29463,1,2,0:0:0:0:
121,88,29685,6,0,L|138:186,1,100,6|0,1:2|0:0,0:0:0:0:
257,120,30019,2,0,L|274:21,1,100,6|0,1:2|0:0,0:0:0:0:
13,47,30352,6,0,B|24:109|24:109|9:156|9:156|40:196|40:196|51:257,1,225.000008583069,6|0,1:2|0:0,0:0:0:0:
70,346,30797,5,2,0:0:0:0:
276,305,31019,1,10,0:3:0:0:
160,253,31241,1,2,0:0:0:0:
408,282,31463,6,0,P|436:190|376:115,1,200,6|8,1:2|0:3,0:0:0:0:
254,46,32130,1,2,0:0:0:0:
239,48,32241,1,2,0:0:0:0:
224,51,32352,2,0,L|116:69,1,100,4|2,1:2|0:0,0:0:0:0:
1,87,32797,1,10,0:3:0:0:
145,177,33019,1,2,0:0:0:0:
39,355,33241,6,0,L|102:343,1,64.9999970245363,6|0,1:2|0:0,0:0:0:0:
190,275,33463,2,0,L|253:286,1,64.9999970245363,8|8,0:3|0:3,0:0:0:0:
340,356,33685,1,10,0:3:0:0:
382,348,33797,1,8,0:3:0:0:
424,341,33908,1,8,1:3:0:0:
468,333,34019,1,8,1:3:0:0:
508,243,34130,6,0,B|496:177|496:177|512:150|512:150|497:72|497:72|472:112,1,225.000008583069,6|0,1:2|0:0,0:0:0:0:
400,16,34574,2,0,B|362:70|362:70|269:86|269:86|220:45,1,225.000008583069,10|0,1:2|0:0,0:0:0:0:
101,71,35019,6,0,B|87:45|51:33|51:33|2:78|15:137|70:165,1,225.000008583069,2|2,1:2|0:0,0:0:0:0:
104,182,35463,1,8,1:2:0:0:
49,321,35685,1,2,0:0:0:0:
230,343,35908,6,0,B|281:332|281:332|301:343|301:343|370:332,1,129.999994049073,0|2,1:2|0:0,0:0:0:0:
510,312,36352,1,10,1:2:0:0:
328,231,36574,1,2,0:0:0:0:
492,36,36797,6,0,P|443:26|400:48,1,100,2|0,1:2|0:0,0:0:0:0:
416,160,37130,2,0,P|464:169|507:147,1,100,2|0,0:0|0:0,0:0:0:0:
316,114,37463,1,2,0:0:0:0:
50,66,39463,6,0,P|81:47|118:50,2,75.0000028610231,10|8|8,0:0|0:3|0:3,0:0:0:0:
139,175,39797,2,0,P|107:193|70:190,2,75.0000028610231,10|8|8,0:0|0:3|0:3,0:0:0:0:
240,86,40130,6,0,L|322:71,2,75.0000028610231,10|8|8,0:0|0:3|0:3,0:0:0:0:
391,161,40463,2,0,L|473:175,2,75.0000028610231,10|8|8,0:0|0:3|0:3,0:0:0:0:
474,296,40797,5,10,0:0:0:0:
430,288,40908,1,8,0:3:0:0:
388,281,41019,1,8,1:3:0:0:
346,273,41130,1,8,1:3:0:0:
253,261,41241,5,6,1:2:0:0:
140,84,41463,2,0,B|142:34|94:4|49:20|24:76|34:133|79:166,1,250,6|6,1:2|0:3,0:0:0:0:
99,181,43019,5,6,1:2:0:0:
274,65,43241,2,0,B|309:24|370:35|392:99|376:104|398:142|446:151|478:125,1,250,6|6,1:2|0:3,0:0:0:0:
494,107,44797,5,6,1:2:0:0:
313,213,45019,2,0,B|255:248|247:315|305:360|305:360|344:343|357:313,1,250,6|6,1:2|0:3,0:0:0:0:
410,55,46574,6,0,L|350:65,3,59.9999981689454,2|0|2|2,0:0|0:0|0:0|0:0,0:0:0:0:
459,188,47019,2,0,L|479:131,3,59.9999981689454,2|0|2|2,0:0|0:0|0:0|0:0,0:0:0:0:
321,163,47463,2,0,L|359:208,3,59.9999981689454,2|2|2|2,0:0|0:0|0:0|0:0,0:0:0:0:
212,57,47908,5,6,0:3:0:0:
173,35,48019,1,2,0:0:0:0:
128,33,48130,1,2,0:0:0:0:
87,51,48241,1,0,0:0:0:0:
59,85,48352,6,0,L|72:163,1,80,0|2,1:2|0:0,0:0:0:0:
139,244,48797,2,0,L|125:322,1,80,2|2,1:2|0:0,0:0:0:0:
244,307,49241,5,2,1:2:0:0:
342,326,49463,1,2,0:0:0:0:
413,256,49685,1,2,1:2:0:0:
511,275,49908,1,2,0:0:0:0:
478,151,50130,6,0,L|400:138,1,80,2|0,1:2|0:0,0:0:0:0:
328,62,50574,2,0,L|250:75,1,80,0|2,1:2|0:0,0:0:0:0:
123,128,51019,6,0,P|129:89|111:53,1,80,0|0,1:2|0:0,0:0:0:0:
54,220,51463,2,0,P|40:276|71:326,1,120,2|0,1:2|0:0,0:0:0:0:
104,349,51908,5,0,1:2:0:0:
166,257,52130,1,2,1:2:0:0:
276,245,52352,1,2,1:2:0:0:
355,321,52574,1,2,1:2:0:0:
326,147,52797,5,2,1:2:0:0:
491,208,53019,1,2,1:2:0:0:
355,321,53241,1,2,1:2:0:0:
433,111,53463,1,0,1:2:0:0:
138,108,55019,6,0,L|124:183,1,60,2|0,0:0|0:0,0:0:0:0:
47,57,55463,6,0,B|82:16|143:27|165:91|149:96|171:134|219:143|256:117,1,255.000004863739,6|0,1:2|0:0,0:0:0:0:
353,58,55908,2,0,L|371:163,1,85.0000016212464,10|0,1:2|0:0,0:0:0:0:
493,120,56130,2,0,L|478:36,1,85.0000016212464,2|0,0:0|0:0,0:0:0:0:
455,290,56352,6,0,B|397:300|397:300|347:277|347:277|291:287,1,170.000003242493,2|0,1:2|0:0,0:0:0:0:
183,352,56685,1,2,0:0:0:0:
183,352,56797,2,0,P|188:310|169:273,1,85.0000016212464,8|0,1:2|0:0,0:0:0:0:
36,297,57019,2,0,P|30:338|49:375,1,85.0000016212464,2|0,0:0|0:0,0:0:0:0:
91,168,57241,6,0,B|134:136|144:79|119:23|74:7|26:37|29:96,1,255.000004863739,0|0,1:2|0:0,0:0:0:0:
169,272,57685,2,0,L|253:258,1,85.0000016212464,10|0,1:2|0:0,0:0:0:0:
331,349,57908,2,0,L|414:363,1,85.0000016212464,2|0,0:0|0:0,0:0:0:0:
512,257,58130,6,0,P|466:188|489:108,1,170.000003242493,2|0,1:2|0:0,0:0:0:0:
411,26,58463,1,2,0:0:0:0:
411,26,58574,2,0,L|327:40,1,85.0000016212464,8|0,1:2|0:0,0:0:0:0:
248,119,58797,2,0,L|164:104,1,85.0000016212464,2|0,0:0|0:0,0:0:0:0:
20,212,59019,6,0,B|-5:177|-5:177|6:112|6:112|39:88,1,150.000005722046,0|2,1:2|0:0,0:0:0:0:
120,314,59463,2,0,B|102:353|102:353|40:375|40:375|3:359,1,150.000005722046,10|0,1:2|0:0,0:0:0:0:
164,104,59908,6,0,B|221:114|221:114|270:87|270:87|335:99,1,179.999994506836,2|0,1:2|0:0,0:0:0:0:
430,112,60352,2,0,L|445:24,1,59.9999981689454,10|0,1:2|0:0,0:0:0:0:
464,254,60574,6,0,B|415:198|349:251|373:268|318:325|271:284,1,225.000008583069,2|0,0:0|0:0,0:0:0:0:
128,213,61019,6,0,P|161:197|198:201,1,75.0000028610231,2|0,0:0|0:0,0:0:0:0:
138,370,61241,2,0,P|107:348|92:314,1,75.0000028610231,10|0,1:2|0:0,0:0:0:0:
270,283,61463,2,0,P|266:319|244:349,1,75.0000028610231,2|0,0:0|0:0,0:0:0:0:
41,130,61685,6,0,P|142:83|252:95,1,225.000008583069,2|0,1:2|0:0,0:0:0:0:
341,154,62130,1,10,1:2:0:0:
383,146,62241,1,0,0:0:0:0:
425,139,62352,1,0,0:0:0:0:
469,131,62463,1,0,0:0:0:0:
507,235,62574,6,0,B|461:242|461:242|428:268|428:268|388:255|388:255|348:263,1,170.000003242493,2|0,1:2|0:0,0:0:0:0:
309,45,63019,2,0,B|354:37|354:37|387:11|387:11|427:24|427:24|467:16,1,170.000003242493,10|0,1:2|0:0,0:0:0:0:
117,153,63463,6,0,B|55:121|61:54|107:23|107:23|143:33|155:62,1,225.000008583069,2|0,1:2|0:0,0:0:0:0:
165,251,63908,2,0,L|65:268,1,75.0000028610231,10|0,1:2|0:0,0:0:0:0:
258,137,64130,6,0,P|305:102|362:113,1,119.999996337891,2|0,0:0|1:2,0:0:0:0:
354,353,64574,2,0,L|333:234,1,119.999996337891,2|8,0:0|1:2,0:0:0:0:
505,84,65019,2,0,L|484:202,1,119.999996337891,2|0,0:0|1:2,0:0:0:0:
354,353,65463,6,0,L|344:293,1,59.9999981689454,2|0,0:0|0:0,0:0:0:0:
255,189,65685,2,0,L|245:248,1,59.9999981689454,10|0,1:2|0:0,0:0:0:0:
156,353,65908,2,0,L|146:293,1,59.9999981689454,2|0,0:0|0:0,0:0:0:0:
54,127,66130,6,0,B|78:94|78:94|143:83|143:83|178:108,1,150.000005722046,2|0,1:2|0:0,0:0:0:0:
202,256,66574,2,0,B|178:289|178:289|113:300|113:300|78:275,1,150.000005722046,10|0,1:2|0:0,0:0:0:0:
331,162,67019,6,0,L|461:138,1,119.999996337891,2|0,1:2|0:0,0:0:0:0:
398,51,67352,1,2,0:0:0:0:
398,51,67463,2,0,L|318:65,1,59.9999981689454,8|0,1:2|0:0,0:0:0:0:
167,159,67685,6,0,B|145:30|145:30|118:72,1,179.999994506836,2|0,0:0|0:0,0:0:0:0:
24,228,68130,6,0,L|83:238,1,59.9999981689454,2|0,0:0|0:0,0:0:0:0:
154,320,68352,2,0,L|213:309,1,59.9999981689454,10|0,1:2|0:0,0:0:0:0:
284,228,68574,2,0,L|343:238,1,59.9999981689454,2|8,0:0|0:0,0:0:0:0:
450,258,68797,5,8,0:0:0:0:
500,183,68908,1,8,0:0:0:0:
483,94,69019,1,8,0:0:0:0:
408,44,69130,1,8,0:0:0:0:
306,63,69241,6,0,L|217:78,1,75.0000028610231,10|8,0:3|0:3,0:0:0:0:
135,19,69463,2,0,L|62:33,1,75.0000028610231,10|8,1:3|1:3,0:0:0:0:
124,276,69685,6,0,B|66:241|58:174|116:129|116:129|155:146|169:181,1,255.000004863739,6|0,1:2|0:0,0:0:0:0:
180,371,70130,2,0,L|96:385,1,85.0000016212464,10|0,1:2|0:0,0:0:0:0:
265,271,70352,2,0,L|349:285,1,85.0000016212464,2|0,0:0|0:0,0:0:0:0:
500,136,70574,6,0,B|442:126|442:126|392:149|392:149|336:139,1,170.000003242493,2|0,1:2|0:0,0:0:0:0:
229,79,70908,1,2,0:0:0:0:
229,79,71019,2,0,P|234:120|215:157,1,85.0000016212464,8|0,1:2|0:0,0:0:0:0:
73,130,71241,2,0,P|67:88|86:51,1,85.0000016212464,2|0,0:0|0:0,0:0:0:0:
122,277,71463,6,0,B|178:212|253:273|226:293|289:358|341:312,1,255.000004863739,0|0,1:2|0:0,0:0:0:0:
455,237,71908,2,0,L|469:321,1,85.0000016212464,10|0,1:2|0:0,0:0:0:0:
366,165,72130,2,0,L|377:75,1,85.0000016212464,2|0,0:0|0:0,0:0:0:0:
257,0,72352,6,0,B|216:0|193:49|193:49|161:10|118:21,1,170.000003242493,2|0,1:2|0:0,0:0:0:0:
40,98,72685,1,2,0:0:0:0:
40,98,72797,2,0,L|54:182,1,85.0000016212464,8|0,1:2|0:0,0:0:0:0:
142,249,73019,2,0,L|128:333,1,85.0000016212464,2|0,0:0|0:0,0:0:0:0:
265,216,73241,6,0,B|318:226|318:226|340:250|340:250|401:261,1,150.000005722046,2|0,1:2|0:0,0:0:0:0:
512,100,73685,2,0,B|450:89|450:89|429:64|429:64|375:54,1,150.000005722046,10|0,1:2|0:0,0:0:0:0:
157,94,74130,6,0,B|159:44|111:14|66:30|41:86|51:143|103:185,1,255.000004863739,2|0,1:2|0:0,0:0:0:0:
160,291,74574,2,0,P|122:310|81:305,1,85.0000016212464,10|0,1:2|0:0,0:0:0:0:
273,186,74797,6,0,B|311:140|379:152|403:223|385:229|410:271|463:281|503:252,1,279.999991455078,2|0,0:0|0:0,0:0:0:0:
114,328,75685,6,0,L|40:315,1,75.0000028610231,2|0,0:0|0:0,0:0:0:0:
161,171,75908,2,0,L|187:241,1,75.0000028610231,2|0,1:2|0:0,0:0:0:0:
1,209,76130,2,0,L|48:151,1,75.0000028610231,2|0,0:0|0:0,0:0:0:0:
130,49,76352,6,0,P|167:42|201:55,1,75.0000028610231,10|0,1:2|0:0,0:0:0:0:
297,141,76574,2,0,P|333:147|367:132,1,75.0000028610231,2|0,0:0|0:0,0:0:0:0:
512,257,76797,6,0,B|472:265|472:265|432:252|432:252|399:278|399:278|354:285,1,170.000003242493,2|0,1:2|0:0,0:0:0:0:
173,244,77241,2,0,B|209:270|209:270|221:342|221:342|191:383,1,170.000003242493,10|0,1:2|0:0,0:0:0:0:
46,139,77685,6,0,B|102:127|102:127|143:98|143:98|197:111|197:111|257:99,1,225.000008583069,2|0,1:2|0:0,0:0:0:0:
328,21,78130,2,0,L|431:39,1,75.0000028610231,10|0,1:2|0:0,0:0:0:0:
483,137,78352,6,0,L|462:256,1,119.999996337891,2|0,0:0|1:2,0:0:0:0:
265,310,78797,2,0,P|311:344|368:334,1,119.999996337891,2|8,0:0|1:2,0:0:0:0:
168,226,79241,2,0,P|110:215|64:250,1,119.999996337891,2|0,0:0|1:2,0:0:0:0:
265,310,79685,6,0,L|275:250,1,59.9999981689454,2|0,0:0|0:0,0:0:0:0:
359,148,79908,2,0,L|369:208,1,59.9999981689454,10|0,1:2|0:0,0:0:0:0:
453,309,80130,2,0,L|463:249,1,59.9999981689454,2|0,0:0|0:0,0:0:0:0:
488,34,80352,6,0,B|435:43|435:43|396:23|396:23|344:32,1,150.000005722046,2|0,1:2|0:0,0:0:0:0:
206,124,80797,2,0,B|231:89|231:89|220:24|220:24|187:0,1,150.000005722046,10|0,1:2|0:0,0:0:0:0:
25,31,81241,2,0,B|0:66|0:66|11:131|11:131|44:155,1,150.000005722046,2|0,1:2|0:0,0:0:0:0:
162,277,81685,6,0,B|195:261|195:261|234:265,1,75.0000028610231,10|0,1:2|0:0,0:0:0:0:
312,336,81908,2,0,B|350:339|350:339|383:323,1,75.0000028610231,2|0,0:0|0:0,0:0:0:0:
455,210,82130,6,0,B|517:178|511:111|465:80|465:80|429:90|417:119,1,225.000008583069,2|0,1:2|0:0,0:0:0:0:
322,192,82574,2,0,P|264:202|218:167,1,119.999996337891,10|0,1:2|0:0,0:0:0:0:
68,67,83019,5,2,0:0:0:0:
47,180,83241,1,2,0:0:0:0:
23,308,83463,5,10,0:3:0:0:
67,316,83574,1,8,0:3:0:0:
109,323,83685,1,8,1:3:0:0:
151,331,83797,1,8,1:3:0:0:
247,347,83908,6,0,B|294:317|294:317|307:248|307:248|264:194|264:194|278:112|278:112|322:85,1,330.000010070801,6|2,1:2|0:0,0:0:0:0:
48,51,85685,6,0,L|68:169,1,119.999996337891,6|0,1:2|0:0,0:0:0:0:
28,53,86019,2,0,L|48:171,1,119.999996337891,6|0,1:2|0:0,0:0:0:0:
158,240,86352,6,0,L|137:358,1,119.999996337891,6|0,1:2|0:0,0:0:0:0:
178,242,86685,2,0,L|157:360,1,119.999996337891,6|0,1:2|0:0,0:0:0:0:
201,107,87019,5,6,1:2:0:0:
372,323,87241,1,6,1:2:0:0:
