osu file format v14

[General]
AudioFilename: audio.mp3
AudioLeadIn: 0
PreviewTime: 54852
Countdown: 0
SampleSet: Soft
StackLeniency: 0.3
Mode: 0
LetterboxInBreaks: 0
WidescreenStoryboard: 1

[Editor]
Bookmarks: 87336
DistanceSpacing: 1.5
BeatDivisor: 4
GridSize: 16
TimelineZoom: 1.7

[Metadata]
Title:Long shot (TV Size)
TitleUnicode:Long shot (TV Size)
Artist:Maeshima Mayu
ArtistUnicode:前島麻由
Creator:fieryrage
Version:Flask's Hard
Source:Re:ゼロから始める異世界生活
Tags:re:zero kara hajimeru isekai seikatsu rezero starting life in another world different from zero season two anime opening op japanese english rock pop myth and & roid wanpachi cycopton hooni flask eiri- ayyri blastthekidd
BeatmapID:2787351
BeatmapSetID:1345977

[Difficulty]
HPDrainRate:4
CircleSize:3.5
OverallDifficulty:6
ApproachRate:8
SliderMultiplier:1.8
SliderTickRate:1

[Events]
//Background and Video events
0,0,"if you really think about it echidna is basically the rem of season 2.jpg",0,0
Video,-365,"this might as well be the emilia op.mp4"
//Break Periods
//Storyboard Layer 0 (Background)
//Storyboard Layer 1 (Fail)
//Storyboard Layer 2 (Pass)
//Storyboard Layer 3 (Foreground)
//Storyboard Layer 4 (Overlay)
//Storyboard Sound Samples

[TimingPoints]
2131,444.444444444444,4,2,5,60,1,0
2131,-100,4,2,5,60,0,0
2242,-100,4,2,1,50,0,0
3908,-100,4,2,1,55,0,0
5242,-100,4,2,1,60,0,0
5686,444.444444444444,4,2,5,65,1,1
5686,-100,4,2,5,65,0,1
5741,-100,4,2,1,65,0,1
6130,-100,4,2,1,65,0,1
6574,-100,4,2,1,65,0,1
7019,-100,4,2,1,65,0,1
7463,-100,4,2,1,65,0,1
7908,-100,4,2,5,65,0,1
8352,-100,4,2,1,65,0,1
8797,-100,4,2,1,65,0,1
9241,-100,4,2,5,65,0,1
9352,-100,4,2,1,65,0,1
9685,-100,4,2,1,65,0,1
10130,-100,4,2,1,65,0,1
11908,-100,4,2,5,65,0,1
12797,-125,4,2,1,55,0,0
18685,-125,4,2,5,55,0,0
19908,-125,4,2,1,60,0,0
21241,-125,4,2,5,60,0,0
21463,-125,4,2,1,60,0,0
24797,-125,4,2,5,60,0,0
25019,-125,4,2,1,60,0,0
25797,-125,4,2,5,60,0,0
26130,-100,4,2,5,60,0,0
26574,-100,4,2,1,65,0,0
27019,-100,4,2,1,65,0,0
27463,-100,4,2,1,60,0,0
27908,-100,4,2,1,65,0,0
28574,-100,4,2,1,65,0,0
28908,-100,4,2,1,55,0,0
29241,-100,4,2,1,60,0,0
29685,-100,4,2,1,65,0,0
30352,-100,4,2,1,65,0,0
30797,-100,4,2,1,60,0,0
31463,-100,4,2,1,60,0,0
33241,-100,4,2,1,60,0,0
33463,-100,4,2,1,50,0,0
33685,-100,4,2,1,60,0,0
33797,-100,4,2,1,55,0,0
34130,-100,4,2,1,60,0,0
35019,-100,4,2,1,60,0,0
35908,-100,4,2,1,60,0,0
37685,-100,4,2,1,55,0,0
39463,-100,4,2,1,60,0,0
39574,-100,4,2,1,50,0,0
39797,-100,4,2,1,60,0,0
39908,-100,4,2,1,55,0,0
40019,-100,4,2,1,50,0,0
40130,-100,4,2,1,60,0,0
40241,-100,4,2,1,50,0,0
40352,-100,4,2,1,55,0,0
40463,-100,4,2,1,60,0,0
40574,-100,4,2,1,45,0,0
40797,-100,4,2,1,60,0,0
40908,-100,4,2,1,50,0,0
41019,-100,4,2,1,60,0,0
41130,-100,4,2,1,50,0,0
41241,-100,4,2,1,60,0,0
41463,-100,4,2,1,60,0,0
41685,-100,4,2,1,50,0,0
43019,-100,4,2,1,60,0,0
43463,-100,4,2,1,50,0,0
44797,-100,4,2,1,60,0,0
45241,-100,4,2,1,50,0,0
46574,-100,4,2,1,50,0,0
46685,-100,4,2,5,40,0,0
46797,-100,4,2,5,45,0,0
46908,-100,4,2,5,50,0,0
47019,-100,4,2,1,50,0,0
47130,-100,4,2,1,55,0,0
47241,-100,4,2,5,45,0,0
47463,-100,4,2,1,50,0,0
47574,-100,4,2,5,55,0,0
47797,-100,4,2,5,40,0,0
47908,-100,4,2,1,50,0,0
48019,-100,4,2,5,45,0,0
48352,-125,4,2,1,60,0,0
48463,-125,4,2,1,55,0,0
51908,-125,4,2,1,60,0,0
52797,-125,4,2,1,60,0,0
53685,-125,4,2,1,40,0,0
54797,-125,4,2,1,45,0,0
55019,-83.3333333333333,4,2,1,55,0,0
55463,-100,4,2,1,70,0,1
59019,-100,4,2,1,70,0,1
59574,-100,4,2,5,70,0,1
59908,-100,4,2,5,70,0,1
60352,-100,4,2,1,70,0,1
60574,-100,4,2,1,70,0,1
62574,-100,4,2,1,70,0,1
62685,-100,4,2,5,70,0,1
63463,-100,4,2,5,70,0,1
63908,-100,4,2,1,70,0,1
64130,-100,4,2,1,70,0,1
66130,-100,4,2,5,70,0,1
67019,-100,4,2,5,70,0,1
68685,-100,4,2,5,60,0,1
68797,-100,4,2,1,70,0,1
69241,-100,4,2,1,70,0,0
69352,-100,4,2,1,60,0,0
69463,-100,4,2,1,70,0,0
69574,-100,4,2,1,50,0,0
69685,-100,4,2,1,70,0,1
73241,-100,4,2,1,70,0,1
74130,-100,4,2,1,70,0,1
74797,-100,4,2,1,70,0,1
75685,-100,4,2,1,70,0,1
76797,-100,4,2,1,70,0,1
76908,-100,4,2,5,70,0,1
77685,-100,4,2,5,70,0,1
78130,-100,4,2,1,70,0,1
78352,-100,4,2,1,70,0,1
80352,-100,4,2,1,70,0,1
80463,-100,4,2,5,70,0,1
82352,-100,4,2,1,70,0,1
82574,-100,4,2,1,70,0,1
83019,-125,4,2,1,55,0,0
83463,-125,4,2,1,60,0,0
83685,-125,4,2,1,55,0,0
83797,-125,4,2,1,50,0,0
83908,-100,4,2,5,60,0,0
85241,-100,4,2,5,40,0,0
85685,-100,4,2,5,65,0,0

[Colours]
Combo1 : 22,124,30
Combo2 : 127,127,127
Combo3 : 185,185,185
Combo4 : 140,207,137

[HitObjects]
109,61,2353,5,2,0:0:0:0:
109,61,2575,2,0,P|103:108|92:150,1,90,2|2,0:0|0:0,0:0:0:0:
22,273,3019,2,0,P|63:245|120:261,1,90,2|2,0:0|0:0,0:0:0:0:
124,323,3464,2,0,P|83:351|26:335,1,90,2|2,0:0|0:0,0:0:0:0:
202,265,3908,6,0,P|250:266|285:306,1,90,2|2,0:0|0:0,0:0:0:0:
305,324,4242,2,0,P|349:310|372:217,1,135,2|2,0:0|0:0,0:0:0:0:
457,220,4797,1,0,0:0:0:0:
457,220,4908,2,0,P|442:173|408:150,1,90,2|0,0:0|1:2,0:0:0:0:
369,156,5242,1,10,0:0:0:0:
333,156,5353,1,8,0:0:0:0:
301,139,5464,1,8,0:0:0:0:
278,112,5575,1,8,0:0:0:0:
266,79,5686,6,0,L|162:98,1,90,6|0,1:2|0:0,0:0:0:0:
174,203,6130,2,0,L|187:251,2,45,10|0|2,1:2|0:0|0:0,0:0:0:0:
91,133,6574,1,0,1:2:0:0:
76,100,6685,1,0,0:0:0:0:
87,65,6797,1,2,0:0:0:0:
189,30,7019,2,0,L|299:46,1,90,10|2,1:2|0:0,0:0:0:0:
433,114,7463,6,0,P|458:77|460:31,1,90,2|0,1:2|0:0,0:0:0:0:
332,139,7908,1,10,1:2:0:0:
321,173,8019,1,2,0:0:0:0:
310,207,8130,1,2,0:0:0:0:
299,241,8241,1,2,0:0:0:0:
288,275,8352,2,0,L|253:179,1,90,2|2,1:2|0:0,0:0:0:0:
375,332,8797,1,10,1:2:0:0:
236,371,9019,2,0,L|183:380,1,45,2|0,0:0|0:0,0:0:0:0:
117,350,9241,6,0,B|94:308|94:308|110:267,1,90,2|0,1:2|0:0,0:0:0:0:
78,165,9685,2,0,L|65:114,2,45,10|0|2,1:2|0:0|0:0,0:0:0:0:
183,188,10130,1,0,1:2:0:0:
216,201,10241,1,0,0:0:0:0:
249,188,10352,1,2,0:0:0:0:
324,110,10574,2,0,P|370:101|448:154,1,135,10|2,1:2|0:0,0:0:0:0:
442,144,11019,6,0,L|415:254,1,90,10|10,0:0|0:3,0:0:0:0:
410,261,11352,2,0,P|360:275|313:248,1,90,10|10,0:0|0:3,0:0:0:0:
300,243,11685,2,0,L|251:235,1,45,8|8,0:0|0:0,0:0:0:0:
228,231,11908,5,6,1:2:0:0:
129,322,12241,1,6,1:2:0:0:
24,237,12574,1,6,1:2:0:0:
36,156,12797,6,0,P|97:164|157:93,1,144,6|10,1:2|1:3,0:0:0:0:
166,89,13685,2,0,P|216:102|250:156,1,108,2|2,1:2|0:0,0:0:0:0:
247,145,14130,1,8,1:3:0:0:
191,228,14352,6,0,L|121:213,1,72,2|0,0:0|1:2,0:0:0:0:
49,285,14797,1,2,0:0:0:0:
132,374,15019,2,0,B|153:340|153:340|153:300,1,72,10|2,1:3|0:0,0:0:0:0:
45,174,15463,1,2,1:2:0:0:
113,100,15685,1,2,0:0:0:0:
203,145,15908,2,0,P|242:159|310:143,1,108,10|0,1:3|0:0,0:0:0:0:
305,145,16352,6,0,B|305:240|349:194|362:301,1,144,2|10,1:2|1:3,0:0:0:0:
368,284,17241,2,0,P|329:333|277:335,1,108,2|0,1:2|0:0,0:0:0:0:
286,337,17685,1,10,1:3:0:0:
200,258,17908,6,0,L|128:276,1,72,2|0,0:0|1:2,0:0:0:0:
197,117,18352,1,2,0:0:0:0:
117,159,18574,2,0,L|37:145,1,72,10|0,1:3|0:0,0:0:0:0:
41,45,19019,1,2,1:2:0:0:
117,159,19241,1,2,0:0:0:0:
11,247,19463,2,0,L|27:332,1,72,10|0,1:3|0:0,0:0:0:0:
167,364,19908,6,0,P|217:365|256:318,1,108,2|0,1:2|0:0,0:0:0:0:
254,324,20352,2,0,L|345:345,1,72,10|0,1:3|0:0,0:0:0:0:
421,370,20797,2,0,B|443:323|443:323|425:260,1,108,2|2,1:2|0:0,0:0:0:0:
427,269,21241,1,10,1:3:0:0:
361,142,21463,6,0,L|343:217,1,72,2|0,0:0|1:2,0:0:0:0:
468,164,21908,1,2,0:0:0:0:
492,66,22130,2,0,P|475:25|430:10,1,72,10|2,1:3|0:0,0:0:0:0:
357,95,22574,1,2,1:2:0:0:
468,164,22797,1,2,0:0:0:0:
298,210,23019,2,0,L|208:192,1,72,10|0,1:3|0:0,0:0:0:0:
157,274,23463,6,0,P|126:240|121:171,1,108,2|0,1:2|0:0,0:0:0:0:
118,180,23908,2,0,L|96:106,1,72,10|0,1:3|0:0,0:0:0:0:
184,28,24352,2,0,B|229:34|229:34|235:44|235:44|297:55,1,108,2|2,1:2|0:0,0:0:0:0:
285,52,24797,1,10,1:3:0:0:
418,145,25019,6,0,P|461:129|479:99,1,72,2|0,0:0|1:2,0:0:0:0:
386,40,25463,1,2,0:0:0:0:
324,149,25685,2,0,L|339:225,1,72,10|0,1:3|0:0,0:0:0:0:
483,367,26130,6,0,P|437:306|368:307,1,135,2|0,1:2|0:0,0:0:0:0:
382,301,26574,1,10,1:3:0:0:
275,368,26797,1,2,0:0:0:0:
153,334,27019,6,0,L|171:196,1,135,6|0,1:2|0:0,0:0:0:0:
176,169,27463,2,0,P|150:105|83:92,1,135,2|0,0:0|0:0,0:0:0:0:
59,93,27908,2,0,P|122:78|147:4,1,135,6|6,1:2|1:2,0:0:0:0:
299,97,28574,6,0,L|394:116,1,90,6|0,1:2|0:0,0:0:0:0:
387,114,28908,1,2,0:0:0:0:
387,114,29019,2,0,P|393:164|365:209,1,90,2|2,0:0|0:0,0:0:0:0:
283,272,29463,1,2,0:0:0:0:
402,318,29685,2,0,B|344:303|344:303|335:284|335:284|283:272,1,135,6|6,1:2|1:2,0:0:0:0:
274,101,30352,6,0,P|226:77|148:103,1,135,6|0,1:2|0:0,0:0:0:0:
136,120,30797,2,0,L|45:101,2,90,2|10|2,0:0|0:3|0:0,0:0:0:0:
246,235,31463,2,0,B|257:307|257:307|212:374,1,135,6|2,1:2|0:0,0:0:0:0:
130,277,32019,5,2,0:0:0:0:
130,277,32130,1,2,0:0:0:0:
130,277,32241,2,0,L|71:292,1,45,2|4,0:0|1:2,0:0:0:0:
15,325,32463,1,2,0:0:0:0:
15,325,32574,2,0,P|8:276|34:229,1,90,2|10,0:0|0:3,0:0:0:0:
117,153,33019,1,2,0:0:0:0:
44,57,33241,6,0,P|52:109|120:153,1,135,6|8,1:2|0:3,0:0:0:0:
148,153,33685,2,0,L|238:143,1,90,10|8,0:3|1:3,0:0:0:0:
369,183,34130,6,0,P|396:133|383:47,1,135,6|0,1:2|0:0,0:0:0:0:
370,31,34574,2,0,L|464:60,1,90,10|0,1:2|0:0,0:0:0:0:
505,198,35019,2,0,B|480:232|480:232|497:325,1,135,2|2,1:2|0:0,0:0:0:0:
496,323,35463,1,8,1:2:0:0:
356,367,35685,6,0,P|306:348|298:298,1,90,2|0,0:0|1:2,0:0:0:0:
294,316,36019,1,2,0:0:0:0:
294,316,36130,1,2,0:0:0:0:
206,243,36352,2,0,L|118:260,1,90,10|2,1:2|0:0,0:0:0:0:
282,162,36797,6,0,L|298:17,1,135,2|2,1:2|0:0,0:0:0:0:
296,27,37241,1,8,1:2:0:0:
189,16,37463,2,0,P|166:52|175:99,1,90,2|0,0:0|0:0,0:0:0:0:
106,181,37908,5,2,0:0:0:0:
106,181,38130,2,0,L|11:162,1,90,2|2,0:0|0:0,0:0:0:0:
17,163,38463,2,0,P|2:213|13:253,1,90,2|2,0:0|0:0,0:0:0:0:
88,324,38908,1,2,0:0:0:0:
88,324,39019,2,0,L|185:312,1,90,2|2,0:0|0:0,0:0:0:0:
284,304,39463,5,10,0:0:0:0:
409,127,39797,1,10,0:0:0:0:
411,343,40130,1,10,0:0:0:0:
282,169,40463,1,10,0:0:0:0:
488,233,40797,2,0,B|533:133|471:159|509:42,1,180,10|6,0:0|1:2,0:0:0:0:
397,69,41463,5,6,1:2:0:0:
397,69,41685,2,0,P|351:55|334:15,1,90,6|2,0:3|0:0,0:0:0:0:
282,189,42130,2,0,B|324:168|324:168|376:176,1,90,2|2,0:0|0:0,0:0:0:0:
155,88,42574,2,0,B|203:105|203:105|249:89,1,90,6|2,0:3|0:0,0:0:0:0:
110,172,43019,6,0,P|113:97|73:54,1,135,6|0,1:2|0:0,0:0:0:0:
75,55,43463,1,4,0:3:0:0:
14,183,43685,2,0,P|92:182|162:261,1,180,2|2,0:0|0:0,0:0:0:0:
69,362,44352,2,0,L|52:268,1,90,6|0,0:3|0:0,0:0:0:0:
271,264,44797,1,6,1:2:0:0:
196,337,45019,5,6,1:2:0:0:
196,337,45241,2,0,P|234:366|290:366,1,90,6|0,0:3|0:0,0:0:0:0:
343,222,45685,1,2,0:0:0:0:
374,327,45908,1,2,0:0:0:0:
237,243,46130,2,0,P|241:196|263:153,1,90,6|2,0:3|0:0,0:0:0:0:
336,53,46574,6,0,B|427:47|387:86|486:76,1,135,2|2,0:0|0:0,0:0:0:0:
497,81,47019,2,0,B|503:172|464:132|474:231,1,135,2|2,0:0|0:0,0:0:0:0:
469,242,47463,2,0,B|378:248|418:209|319:219,1,135,2|2,0:0|0:0,0:0:0:0:
308,214,47908,2,0,B|302:123|341:163|331:64,1,135,6|0,0:3|0:0,0:0:0:0:
336,53,48352,5,0,1:2:0:0:
233,102,48574,2,0,P|194:100|161:76,2,72,2|2|2,0:0|1:2|0:0,0:0:0:0:
123,224,49241,2,0,P|120:190|104:145,1,72,2|2,1:2|0:0,0:0:0:0:
204,295,49685,2,0,P|218:264|248:227,1,72,2|2,1:2|0:0,0:0:0:0:
130,357,50130,6,0,P|74:357|17:326,1,108,2|2,1:2|0:0,0:0:0:0:
54,174,50797,2,0,P|110:174|167:205,1,108,2|2,0:0|0:0,0:0:0:0:
265,315,51463,2,0,L|419:288,1,144,2|0,1:2|1:2,0:0:0:0:
471,203,52130,6,0,L|492:129,2,72,2|2|2,1:2|1:2|1:2,0:0:0:0:
404,65,52797,1,2,1:2:0:0:
370,167,53019,1,2,1:2:0:0:
267,134,53241,2,0,L|179:155,1,72,2|0,1:2|1:2,0:0:0:0:
118,224,53685,5,2,0:0:0:0:
147,64,54019,1,2,0:0:0:0:
307,42,54352,1,2,0:0:0:0:
361,109,54574,2,0,P|398:111|426:87,1,72,2|0,0:0|0:0,0:0:0:0:
497,213,55019,6,0,B|393:190|437:249|339:223,1,161.999995056153,2|0,0:0|0:0,0:0:0:0:
340,223,55463,6,0,P|314:259|315:313,1,90,6|2,1:2|0:0,0:0:0:0:
428,371,55908,2,0,P|454:335|453:281,1,90,10|2,1:2|0:0,0:0:0:0:
399,169,56352,2,0,L|414:27,1,135,2|2,1:2|0:0,0:0:0:0:
413,34,56797,1,8,1:2:0:0:
290,91,57019,2,0,P|238:99|203:64,1,90,2|0,0:0|1:2,0:0:0:0:
101,158,57463,1,2,0:0:0:0:
207,240,57685,2,0,L|265:227,2,45,10|0|2,1:2|0:0|0:0,0:0:0:0:
106,331,58130,2,0,P|50:332|3:267,1,135,2|2,1:2|0:0,0:0:0:0:
3,274,58574,1,8,1:2:0:0:
71,156,58797,6,0,L|88:60,1,90,2|0,0:0|1:2,0:0:0:0:
3,274,59241,1,2,0:0:0:0:
137,255,59463,2,0,B|189:255|189:255|227:289,1,90,10|0,1:2|0:0,0:0:0:0:
324,363,59908,2,0,P|349:313|291:198,1,180,2|10,1:2|1:2,0:0:0:0:
220,99,60574,6,0,P|263:88|293:45,1,90,2|0,0:0|1:2,0:0:0:0:
491,97,61019,1,2,0:0:0:0:
360,136,61241,1,10,1:2:0:0:
396,6,61463,1,2,0:0:0:0:
491,97,61685,2,0,P|513:139|505:186,1,90,2|0,1:2|0:0,0:0:0:0:
411,274,62130,2,0,L|314:253,1,90,10|0,1:2|0:0,0:0:0:0:
290,271,62463,1,0,0:0:0:0:
255,282,62574,6,0,P|217:253|210:201,1,90,2|0,1:2|0:0,0:0:0:0:
323,97,63019,2,0,P|316:144|275:176,1,90,10|0,1:2|0:0,0:0:0:0:
129,131,63463,2,0,P|173:112|221:132,1,90,2|0,1:2|0:0,0:0:0:0:
53,204,63908,1,10,1:2:0:0:
27,71,64130,6,0,L|55:218,1,135,2|0,0:0|0:0,0:0:0:0:
53,204,64574,2,0,B|97:226|97:226|111:265,1,90,2|8,0:0|1:2,0:0:0:0:
1,374,65019,2,0,B|-1:324|-1:324|24:293,1,90,2|0,0:0|1:2,0:0:0:0:
196,246,65463,1,2,0:0:0:0:
283,350,65685,2,0,L|381:335,1,90,10|2,1:2|0:0,0:0:0:0:
405,350,66019,1,0,0:0:0:0:
438,363,66130,6,0,P|476:329|479:284,1,90,2|0,1:2|0:0,0:0:0:0:
415,174,66574,2,0,P|377:208|374:253,1,90,10|0,1:2|0:0,0:0:0:0:
511,135,67019,2,0,P|442:139|398:91,1,135,2|2,1:2|0:0,0:0:0:0:
399,94,67463,1,8,1:2:0:0:
262,29,67685,6,0,L|250:126,1,90,2|0,0:0|1:2,0:0:0:0:
241,253,68130,1,2,0:0:0:0:
346,337,68352,2,0,P|373:293|373:247,1,90,10|2,1:2|0:0,0:0:0:0:
363,221,68685,1,8,0:0:0:0:
366,184,68797,1,8,0:0:0:0:
241,253,69019,2,0,L|194:246,2,45,8|8|10,0:0|0:0|0:3,0:0:0:0:
273,122,69463,1,10,1:3:0:0:
273,122,69574,1,8,1:3:0:0:
273,122,69685,6,0,P|251:82|247:23,1,90,6|2,1:2|0:0,0:0:0:0:
109,32,70130,2,0,P|131:72|135:131,1,90,10|2,1:2|0:0,0:0:0:0:
29,196,70574,2,0,L|48:337,1,135,2|2,1:2|0:0,0:0:0:0:
47,329,71019,1,8,1:2:0:0:
174,374,71241,6,0,P|229:352|253:236,1,180,2|2,0:0|0:0,0:0:0:0:
126,203,71908,1,10,1:2:0:0:
205,94,72130,1,2,0:0:0:0:
334,131,72352,2,0,B|419:137|375:176|476:176,1,135,2|2,1:2|0:0,0:0:0:0:
458,175,72797,1,8,1:2:0:0:
394,56,73019,1,2,0:0:0:0:
333,217,73241,6,0,P|319:260|327:306,1,90,2|0,1:2|0:0,0:0:0:0:
205,364,73685,2,0,L|115:348,1,90,10|0,1:2|0:0,0:0:0:0:
186,232,74130,2,0,B|217:193|217:193|198:100,1,135,2|0,1:2|0:0,0:0:0:0:
199,109,74574,1,10,1:2:0:0:
74,58,74797,6,0,P|34:86|28:124,1,90,2|0,0:0|1:2,0:0:0:0:
96,245,75241,2,0,L|211:228,1,90,0|8,0:0|1:2,0:0:0:0:
274,332,75685,1,2,0:0:0:0:
331,209,75908,1,2,1:2:0:0:
357,342,76130,1,2,0:0:0:0:
257,249,76352,1,10,1:2:0:0:
392,265,76574,1,2,0:0:0:0:
462,149,76797,6,0,P|468:91|422:9,1,135,2|0,1:2|0:0,0:0:0:0:
405,27,77241,2,0,L|305:9,1,90,10|0,1:2|0:0,0:0:0:0:
251,160,77685,2,0,B|297:161|297:161|334:130,1,90,2|0,1:2|0:0,0:0:0:0:
193,56,78130,1,10,1:2:0:0:
149,224,78352,6,0,L|120:136,1,90,2|0,0:0|1:2,0:0:0:0:
238,280,78797,2,0,L|334:266,1,90,2|8,0:0|1:2,0:0:0:0:
144,320,79241,2,0,B|108:362|108:362|30:345|30:345|14:282,1,180,2|2,0:0|0:0,0:0:0:0:
6,167,79908,1,10,1:2:0:0:
127,225,80130,1,2,0:0:0:0:
221,128,80352,6,0,P|238:82|202:-5,1,135,2|0,1:2|0:0,0:0:0:0:
211,3,80797,1,10,1:2:0:0:
94,71,81019,2,0,L|70:168,1,90,0|2,0:0|1:2,0:0:0:0:
63,188,81352,1,0,0:0:0:0:
116,311,81574,1,0,0:0:0:0:
116,311,81685,2,0,B|163:316|163:316|214:286,1,90,10|2,1:2|0:0,0:0:0:0:
208,159,82130,5,2,1:2:0:0:
327,97,82352,1,2,0:0:0:0:
411,200,82574,2,0,P|459:229|469:312,1,135,10|0,1:2|0:0,0:0:0:0:
487,331,83019,2,0,L|413:316,1,72,2|2,0:0|0:0,0:0:0:0:
324,358,83463,1,10,0:3:0:0:
293,339,83574,1,8,0:3:0:0:
257,336,83685,1,8,1:3:0:0:
223,349,83797,1,8,1:3:0:0:
201,368,83908,6,0,B|218:283|218:283|211:268|211:268|232:188|232:188|207:153|207:153|158:179|158:179|134:275|134:275|140:288|140:288|129:342,1,450,6|0,1:2|0:0,0:0:0:0:
44,355,85241,2,0,P|19:313|26:202,1,135,2|0,0:0|0:0,0:0:0:0:
28,199,85685,5,6,1:2:0:0:
162,46,86019,1,6,1:2:0:0:
143,248,86352,1,6,1:2:0:0:
39,73,86685,1,6,1:2:0:0:
226,153,87019,5,6,1:2:0:0:
226,153,87241,1,6,1:2:0:0:
