osu file format v14

[General]
AudioFilename: audio.mp3
AudioLeadIn: 0
PreviewTime: 54852
Countdown: 0
SampleSet: Soft
StackLeniency: 0.3
Mode: 0
LetterboxInBreaks: 0
WidescreenStoryboard: 0

[Editor]
Bookmarks: 2131,5686,9241,12797,16352,19908,23463,27019,30574,34130,37685,41241,44797,48352,51908,55463,69241,69685,83019,85685,87241
DistanceSpacing: 0.3
BeatDivisor: 4
GridSize: 32
TimelineZoom: 1

[Metadata]
Title:Long shot (TV Size)
TitleUnicode:Long shot (TV Size)
Artist:Maeshima Mayu
ArtistUnicode:前島麻由
Creator:fieryrage
Version:Ayyri's Another
Source:Re:ゼロから始める異世界生活
Tags:re:zero kara hajimeru isekai seikatsu rezero starting life in another world different from zero season two anime opening op japanese english rock pop myth and & roid wanpachi cycopton hooni flask eiri- ayyri blastthekidd
BeatmapID:2800281
BeatmapSetID:1345977

[Difficulty]
HPDrainRate:5
CircleSize:4
OverallDifficulty:8
ApproachRate:9
SliderMultiplier:2.3
SliderTickRate:1

[Events]
//Background and Video events
0,0,"if you really think about it echidna is basically the rem of season 2.jpg",0,0
Video,-365,"this might as well be the emilia op.mp4"
//Break Periods
//Storyboard Layer 0 (Background)
//Storyboard Layer 1 (Fail)
//Storyboard Layer 2 (Pass)
//Storyboard Layer 3 (Foreground)
//Storyboard Layer 4 (Overlay)
//Storyboard Sound Samples

[TimingPoints]
2131,444.444444444444,4,2,1,55,1,0
3019,-200,4,2,1,45,0,0
3908,-200,4,2,1,50,0,0
5242,-200,4,2,1,55,0,0
5686,444.444444444444,4,2,1,60,1,0
5686,-66.6666666666667,4,2,1,60,0,0
12797,-80,4,2,1,55,0,0
27019,-76.9230769230769,4,2,1,60,0,0
27463,-133.333333333333,4,2,1,55,0,0
27908,-76.9230769230769,4,2,1,60,0,0
28574,-76.9230769230769,4,2,1,60,0,0
29241,-133.333333333333,4,2,1,55,0,0
29685,-76.9230769230769,4,2,1,60,0,0
30352,-76.9230769230769,4,2,1,60,0,0
30797,-80,4,2,1,55,0,0
33463,-80,4,2,1,50,0,0
34130,-76.9230769230769,4,2,1,60,0,0
39463,-76.9230769230769,4,2,1,55,0,0
41241,-76.9230769230769,4,2,1,60,0,0
46574,-133.333333333333,4,2,1,50,0,0
48352,-100,4,2,1,55,0,0
48574,-100,4,2,1,50,0,0
51908,-100,4,2,1,55,0,0
52797,-100,4,2,1,60,0,0
53685,-400,4,2,1,35,0,0
55019,-400,4,2,1,50,0,0
55463,-66.6666666666667,4,2,1,65,0,1
69241,-66.6666666666667,4,2,1,65,0,0
69685,-66.6666666666667,4,2,1,65,0,1
83019,-66.6666666666667,4,2,1,50,0,0
83463,-66.6666666666667,4,2,1,60,0,0
83908,-200,4,2,1,60,0,0
85241,-200,4,2,1,40,0,0
85685,-66.6666666666667,4,2,1,60,0,0
86352,-50,4,2,1,65,0,0
87019,-50,4,2,1,70,0,0
87241,-50,4,2,1,75,0,0

[Colours]
Combo1 : 22,124,30
Combo2 : 127,127,127
Combo3 : 185,185,185
Combo4 : 140,207,137

[HitObjects]
96,320,2131,5,6,1:3:0:0:
96,320,3019,5,2,0:0:0:0:
96,320,3464,5,2,0:0:0:0:
96,320,3908,6,0,L|83:215,1,86.25,2|2,0:0|0:0,0:0:0:0:
110,157,4575,6,0,L|123:262,1,86.25,2|2,0:0|0:0,0:0:0:0:
144,164,5130,1,2,1:2:0:0:
144,164,5242,5,10,0:0:0:0:
139,121,5353,1,10,0:0:0:0:
133,79,5464,1,10,0:0:0:0:
127,36,5575,1,10,0:0:0:0:
122,0,5686,6,0,P|199:31|225:138,1,172.500006580353,6|2,1:2|0:0,0:0:0:0:
176,195,6019,1,2,0:0:0:0:
176,195,6130,2,0,P|73:183|-9:182,1,172.500006580353,10|2,1:2|0:0,0:0:0:0:
133,79,6574,1,2,1:2:0:0:
105,303,6797,1,2,0:0:0:0:
224,335,7019,2,0,P|275:321|324:316,1,86.2500032901765,10|0,1:2|0:0,0:0:0:0:
446,357,7241,2,0,P|429:306|358:312,1,86.2500032901765,2|0,0:0|0:0,0:0:0:0:
321,175,7463,6,0,P|377:263|435:213,1,172.500006580353,2|2,1:2|0:0,0:0:0:0:
405,163,7797,1,2,0:0:0:0:
405,163,7908,2,0,L|391:61,3,86.2500032901765,10|2|2|2,1:2|0:0|0:0|0:0,0:0:0:0:
311,13,8352,2,0,P|376:39|423:24,1,86.2500032901765,2|0,1:2|0:0,0:0:0:0:
305,157,8574,2,0,P|240:183|193:168,1,86.2500032901765,2|0,0:0|0:0,0:0:0:0:
104,118,8797,2,0,B|129:147|165:136|165:136|139:-4,1,172.500006580353,10|2,1:2|0:0,0:0:0:0:
36,12,9130,1,2,0:0:0:0:
36,12,9241,6,0,L|23:226,1,172.500006580353,2|2,1:2|0:0,0:0:0:0:
153,244,9574,1,2,0:0:0:0:
153,244,9685,2,0,P|122:149|39:191,1,172.500006580353,10|2,1:2|0:0,0:0:0:0:
128,352,10130,1,2,1:2:0:0:
9,306,10352,1,2,0:0:0:0:
254,290,10574,2,0,L|242:385,3,86.2500032901765,10|2|2|2,1:2|0:0|0:0|0:0,0:0:0:0:
270,336,11019,6,0,P|315:318|374:332,1,86.2500032901765,10|0,0:0|0:0,0:0:0:0:
460,376,11241,1,10,0:3:0:0:
460,376,11352,2,0,P|427:311|441:262,1,86.2500032901765,10|0,0:0|0:0,0:0:0:0:
348,218,11574,1,10,0:3:0:0:
348,218,11685,2,0,P|381:153|367:104,1,86.2500032901765,10|8,0:0|0:0,0:0:0:0:
499,51,11908,6,0,P|397:30|412:-25,1,172.500006580353,6|0,1:2|0:0,0:0:0:0:
319,71,12241,2,0,P|421:50|406:-5,1,172.500006580353,6|0,1:2|0:0,0:0:0:0:
499,91,12574,2,0,L|490:224,1,86.2500032901765,6|0,1:2|0:0,0:0:0:0:
415,276,12797,6,0,B|468:264|468:264|496:379,1,143.75,6|0,1:2|0:0,0:0:0:0:
338,376,13241,2,0,B|284:364|284:364|308:248,1,143.75,10|0,1:3|0:0,0:0:0:0:
364,146,13685,2,0,P|321:232|257:185,1,143.75,2|0,1:2|0:0,0:0:0:0:
258,245,14019,2,0,P|188:223|107:226,1,143.75,2|0,0:0|0:0,0:0:0:0:
69,283,14352,6,0,B|85:243|85:243|43:114,1,143.75,2|0,0:0|1:2,0:0:0:0:
18,49,14797,1,2,0:0:0:0:
18,49,15019,2,0,P|77:115|135:74,1,143.75,10|2,1:3|0:0,0:0:0:0:
181,35,15463,2,0,P|135:12|93:10,1,71.875,2|0,1:2|0:0,0:0:0:0:
123,141,15685,2,0,P|157:133|188:115,1,71.875,2|0,0:0|0:0,0:0:0:0:
35,74,15908,2,0,L|66:323,1,215.625,10|0,1:3|0:0,0:0:0:0:
74,364,16352,6,0,P|38:301|-7:355,1,143.75,2|0,1:2|0:0,0:0:0:0:
182,305,16797,2,0,L|175:376,2,71.875,10|2|2,1:3|0:0|0:0,0:0:0:0:
136,187,17241,2,0,P|219:170|244:88,1,143.75,2|2,1:2|0:0,0:0:0:0:
224,32,17574,1,2,0:0:0:0:
224,32,17685,2,0,P|257:66|301:65,1,71.875,10|0,1:3|0:0,0:0:0:0:
416,32,17908,6,0,L|398:229,1,143.75,2|0,0:0|1:2,0:0:0:0:
448,288,18352,1,2,0:0:0:0:
448,288,18574,2,0,B|484:267|484:267|302:287,1,215.625,10|0,1:3|0:0,0:0:0:0:
229,338,19019,2,0,P|294:363|292:300,1,143.75,2|2,1:2|0:0,0:0:0:0:
224,192,19463,2,0,B|188:171|188:171|370:191,1,215.625,10|0,1:3|0:0,0:0:0:0:
443,242,19908,6,0,P|378:267|380:204,1,143.75,2|0,1:2|0:0,0:0:0:0:
490,135,20352,2,0,P|440:57|282:92,1,215.625,10|0,1:3|0:0,0:0:0:0:
342,94,20797,2,0,P|299:180|235:133,1,143.75,2|0,1:2|0:0,0:0:0:0:
196,119,21130,2,0,P|126:97|45:100,1,143.75,2|0,0:0|0:0,0:0:0:0:
20,140,21463,2,0,P|27:181|58:181,1,71.875,2|0,0:0|0:0,0:0:0:0:
62,179,21685,5,2,1:2:0:0:
116,18,21908,1,2,0:0:0:0:
232,47,22130,2,0,P|302:25|383:28,1,143.75,10|2,1:3|0:0,0:0:0:0:
487,89,22574,2,0,B|465:77|465:77|393:93,1,71.875,2|0,1:2|0:0,0:0:0:0:
384,158,22797,2,0,B|406:170|406:170|478:154,1,71.875,2|0,0:0|0:0,0:0:0:0:
341,96,23019,2,0,L|365:350,1,215.625,10|0,1:3|0:0,0:0:0:0:
316,373,23463,6,0,B|364:340|364:340|409:397|497:376,1,143.75,2|0,1:2|0:0,0:0:0:0:
510,287,23908,2,0,L|438:296,2,71.875,10|2|2,1:3|0:0|0:0,0:0:0:0:
472,129,24352,2,0,P|412:211|351:155,1,143.75,2|2,1:2|0:0,0:0:0:0:
318,144,24685,1,2,0:0:0:0:
318,144,24797,2,0,L|331:39,1,71.875,10|0,1:3|0:0,0:0:0:0:
250,14,25019,6,0,L|232:168,1,143.75,2|0,0:0|1:2,0:0:0:0:
309,250,25463,1,2,0:0:0:0:
309,250,25685,2,0,B|361:236|361:236|377:199|377:199|527:161,1,215.625,10|0,1:3|0:0,0:0:0:0:
507,221,26130,2,0,L|489:324,3,71.875,2|2|2|2,1:2|0:0|0:0|0:0,0:0:0:0:
392,330,26574,2,0,L|418:181,1,143.75,10|2,1:3|0:0,0:0:0:0:
384,64,27019,6,0,L|494:50,1,74.7499965782167,6|0,1:2|0:0,0:0:0:0:
464,72,27463,6,0,L|323:90,1,86.2500032901765,2|0,0:0|0:0,0:0:0:0:
235,142,27908,6,0,L|125:128,1,74.7499965782167,6|0,1:2|0:0,0:0:0:0:
235,142,28241,2,0,L|125:128,1,74.7499965782167,6|0,1:2|0:0,0:0:0:0:
384,64,28574,6,0,L|494:50,1,74.7499965782167,6|0,1:2|0:0,0:0:0:0:
464,72,29241,6,0,L|323:90,1,86.2500032901765,2|2,0:0|0:0,0:0:0:0:
235,142,29685,6,0,L|125:128,1,74.7499965782167,6|0,1:2|0:0,0:0:0:0:
235,142,30019,2,0,L|125:128,1,74.7499965782167,6|0,1:2|0:0,0:0:0:0:
384,64,30352,6,0,L|494:50,2,74.7499965782167,6|2|2,1:2|0:0|0:0,0:0:0:0:
320,128,30685,1,2,0:0:0:0:
320,128,30797,2,0,L|334:231,1,71.875,2|0,0:0|0:0,0:0:0:0:
353,332,31019,1,10,0:3:0:0:
416,256,31241,1,2,0:0:0:0:
224,288,31463,6,0,P|217:225|125:260,1,143.75,6|0,1:2|0:0,0:0:0:0:
64,192,31797,2,0,P|71:129|163:164,1,143.75,2|2,0:0|0:0,0:0:0:0:
140,121,32130,1,2,0:0:0:0:
140,121,32241,1,2,0:0:0:0:
192,32,32463,1,2,0:0:0:0:
192,32,32574,1,2,0:0:0:0:
320,64,32797,6,0,L|311:175,1,71.875,10|0,0:3|0:0,0:0:0:0:
411,148,33019,2,0,L|420:37,1,71.875,2|0,0:0|0:0,0:0:0:0:
292,95,33241,1,6,1:2:0:0:
512,160,33463,1,10,0:3:0:0:
512,160,33574,1,10,0:3:0:0:
512,160,33685,2,0,L|484:269,1,71.875,10|8,0:3|0:3,0:0:0:0:
512,352,33908,1,10,1:3:0:0:
512,352,34019,1,10,1:3:0:0:
512,352,34130,6,0,P|446:287|289:291,1,224.24998973465,6|0,1:2|0:0,0:0:0:0:
311,322,34574,2,0,B|354:331|354:331|311:197,1,149.499993156433,10|0,1:2|0:0,0:0:0:0:
279,87,35019,2,0,P|322:177|374:137,1,149.499993156433,2|0,1:2|0:0,0:0:0:0:
393,146,35352,2,0,L|412:27,1,74.7499965782167,2|8,0:0|1:2,0:0:0:0:
175,16,35685,6,0,L|202:181,1,149.499993156433,2|0,0:0|1:2,0:0:0:0:
199,163,36019,1,2,0:0:0:0:
199,163,36130,1,2,0:0:0:0:
281,108,36352,2,0,L|262:-11,1,74.7499965782167,10|0,1:2|0:0,0:0:0:0:
147,17,36574,2,0,L|166:136,1,74.7499965782167,2|0,0:0|0:0,0:0:0:0:
106,237,36797,6,0,P|66:156|-11:193,1,149.499993156433,2|0,1:2|0:0,0:0:0:0:
21,173,37130,2,0,P|102:133|65:56,1,149.499993156433,2|0,0:0|0:0,0:0:0:0:
85,88,37463,1,2,0:0:0:0:
85,88,39463,6,0,L|73:-2,2,74.7499965782167,10|8|8,0:0|0:3|0:3,0:0:0:0:
182,128,39797,2,0,L|194:38,2,74.7499965782167,10|8|8,0:0|0:3|0:3,0:0:0:0:
70,198,40130,2,0,L|58:108,2,74.7499965782167,10|8|8,0:0|0:3|0:3,0:0:0:0:
222,241,40463,2,0,L|234:151,2,74.7499965782167,10|8|8,0:0|0:3|0:3,0:0:0:0:
32,352,40797,2,0,L|20:262,3,74.7499965782167,10|8|8|8,0:0|0:3|1:3|1:3,0:0:0:0:
53,308,41241,5,6,1:2:0:0:
320,256,41463,1,6,1:2:0:0:
53,308,43019,5,6,1:2:0:0:
320,256,43241,1,6,1:2:0:0:
53,308,44797,5,6,1:2:0:0:
320,256,45019,1,6,1:2:0:0:
53,308,46574,6,0,L|47:364,3,43.1250016450883,2|0|2|2,0:0|0:0|0:0|0:0,0:0:0:0:
128,256,47019,2,0,L|134:312,3,43.1250016450883,2|0|2|2,0:0|0:0|0:0|0:0,0:0:0:0:
32,192,47463,2,0,L|26:248,3,43.1250016450883,2|0|2|2,0:0|0:0|0:0|0:0,0:0:0:0:
160,128,47908,2,0,L|166:184,3,43.1250016450883,2|0|2|0,0:0|0:0|0:0|0:0,0:0:0:0:
15,80,48352,5,2,1:2:0:0:
15,80,48574,2,0,P|36:45|67:61,1,57.5,2|0,0:0|0:0,0:0:0:0:
50,79,48797,2,0,P|24:158|23:217,1,115,2|2,1:2|0:0,0:0:0:0:
130,224,49241,2,0,P|150:277|158:334,1,115,2|2,1:2|0:0,0:0:0:0:
64,384,49685,1,2,1:2:0:0:
64,384,49908,1,2,0:0:0:0:
256,352,50130,6,0,L|256:224,1,115,2|0,1:2|0:0,0:0:0:0:
256,192,50463,2,0,L|256:64,1,115,2|0,0:0|0:0,0:0:0:0:
256,32,50797,2,0,L|390:57,1,115,2|0,0:0|1:2,0:0:0:0:
454,11,51130,2,0,L|320:36,1,115,2|0,0:0|0:0,0:0:0:0:
480,96,51463,2,0,L|470:216,1,115,2|2,1:2|0:0,0:0:0:0:
470,210,51797,1,2,0:0:0:0:
470,210,51908,5,2,1:2:0:0:
288,160,52130,1,2,1:2:0:0:
224,224,52352,1,2,1:2:0:0:
320,256,52574,1,2,1:2:0:0:
192,128,52797,1,2,1:2:0:0:
352,96,53019,1,2,1:2:0:0:
160,288,53241,1,2,1:2:0:0:
384,320,53463,1,2,1:2:0:0:
288,352,53685,6,0,L|285:300,1,43.125,2|2,0:1|0:1,0:0:0:0:
250,241,54352,6,0,L|250:273,1,28.75,2|2,0:1|0:1,0:0:0:0:
250,270,55019,5,2,0:0:0:0:
299,99,55241,1,2,0:0:0:0:
117,174,55463,6,0,P|186:82|231:115,1,172.500006580353,6|2,1:2|0:0,0:0:0:0:
96,256,55908,2,0,L|112:370,1,86.2500032901765,10|0,1:2|0:0,0:0:0:0:
236,321,56130,2,0,L|220:207,1,86.2500032901765,2|0,0:0|0:0,0:0:0:0:
22,188,56352,2,0,P|84:124|89:21,1,172.500006580353,2|0,1:2|0:0,0:0:0:0:
136,55,56685,2,0,P|241:13|335:36,1,172.500006580353,2|0,0:0|0:0,0:0:0:0:
350,105,57019,2,0,P|279:110|316:49,1,172.500006580353,2|0,0:0|1:2,0:0:0:0:
448,96,57463,5,2,0:0:0:0:
384,256,57685,1,10,1:2:0:0:
352,32,57908,1,2,0:0:0:0:
448,192,58130,2,0,P|325:173|245:174,1,172.500006580353,2|0,1:2|0:0,0:0:0:0:
239,207,58463,2,0,P|116:226|36:225,1,172.500006580353,2|0,0:0|0:0,0:0:0:0:
4,159,58797,6,0,P|60:79|100:138,1,172.500006580353,2|0,0:0|1:2,0:0:0:0:
49,277,59241,1,2,0:0:0:0:
239,336,59463,2,0,P|333:260|310:209,1,172.500006580353,10|2,1:2|0:0,0:0:0:0:
256,96,59908,1,2,1:2:0:0:
256,96,60019,2,0,L|248:217,1,86.2500032901765,2|0,0:0|0:0,0:0:0:0:
123,170,60241,1,2,0:0:0:0:
123,170,60352,2,0,L|131:49,1,86.2500032901765,10|0,1:2|0:0,0:0:0:0:
96,0,60574,6,0,P|162:72|263:42,1,172.500006580353,2|2,0:0|1:2,0:0:0:0:
256,224,60908,1,2,0:0:0:0:
256,224,61019,2,0,P|190:296|89:266,2,172.500006580353,2|10|2,0:0|1:2|0:0,0:0:0:0:
81,203,61685,2,0,P|45:110|-15:32,1,172.500006580353,2|2,1:2|0:0,0:0:0:0:
190,100,62130,1,10,1:2:0:0:
190,100,62241,2,0,L|199:-3,2,86.2500032901765,2|2|2,0:0|0:0|0:0,0:0:0:0:
264,161,62574,6,0,B|317:149|317:149|352:300,1,172.500006580353,6|0,1:2|0:0,0:0:0:0:
228,356,63019,2,0,P|124:306|48:310,2,172.500006580353,10|2|2,1:2|0:0|1:2,0:0:0:0:
256,272,63685,1,2,0:0:0:0:
431,360,63908,2,0,P|466:349|453:298,1,86.2500032901765,10|0,1:2|0:0,0:0:0:0:
443,331,64130,6,0,P|424:255|466:139,1,172.500006580353,2|2,0:0|1:2,0:0:0:0:
475,41,64463,1,2,0:0:0:0:
475,41,64574,2,0,P|460:117|354:96,1,172.500006580353,2|8,0:0|1:2,0:0:0:0:
259,51,65019,2,0,P|383:21|466:30,1,172.500006580353,2|0,0:0|1:2,0:0:0:0:
352,160,65463,1,2,0:0:0:0:
352,160,65685,2,0,L|362:281,1,86.2500032901765,10|0,1:2|0:0,0:0:0:0:
378,357,65908,1,2,0:0:0:0:
378,357,66019,1,2,0:0:0:0:
378,357,66130,6,0,B|410:333|410:333|268:361,1,172.500006580353,6|2,1:2|0:0,0:0:0:0:
128,320,66463,1,2,0:0:0:0:
128,320,66574,2,0,B|151:365|151:365|156:266|172:141,1,258.75000987053,10|0,1:2|0:0,0:0:0:0:
174,108,67019,2,0,P|104:87|87:135,1,86.2500032901765,2|0,1:2|0:0,0:0:0:0:
144,202,67241,1,2,0:0:0:0:
144,202,67352,1,2,0:0:0:0:
144,202,67463,2,0,P|184:210|215:181,1,86.2500032901765,10|0,1:2|0:0,0:0:0:0:
189,61,67685,6,0,P|122:1|14:16,1,172.500006580353,2|0,0:0|1:2,0:0:0:0:
64,128,68130,1,2,0:0:0:0:
64,128,68241,1,2,0:0:0:0:
64,128,68352,2,0,P|31:179|23:232,1,86.2500032901765,10|0,1:2|0:0,0:0:0:0:
126,249,68574,1,2,0:0:0:0:
126,249,68685,1,8,0:0:0:0:
126,249,68797,2,0,P|159:300|167:353,3,86.2500032901765,10|10|10|10,0:0|0:0|0:0|0:0,0:0:0:0:
263,363,69241,6,0,P|296:336|320:300,1,86.2500032901765,10|8,0:3|0:3,0:0:0:0:
316,208,69463,2,0,P|282:181|258:145,1,86.2500032901765,10|8,1:3|1:3,0:0:0:0:
358,28,69685,6,0,P|433:24|450:158,1,172.500006580353,6|2,1:2|0:0,0:0:0:0:
407,200,70130,2,0,L|287:192,1,86.2500032901765,10|0,1:2|0:0,0:0:0:0:
253,93,70352,2,0,L|369:61,1,86.2500032901765,2|0,0:0|0:0,0:0:0:0:
221,172,70574,2,0,P|186:68|97:42,1,172.500006580353,2|0,1:2|0:0,0:0:0:0:
104,80,70908,2,0,L|127:296,1,172.500006580353,2|0,0:0|0:0,0:0:0:0:
138,343,71241,2,0,P|67:348|104:287,1,172.500006580353,2|0,0:0|1:2,0:0:0:0:
320,320,71685,5,2,0:0:0:0:
256,192,71908,1,10,1:2:0:0:
448,224,72130,1,2,0:0:0:0:
208,289,72352,2,0,P|212:209|240:65,1,172.500006580353,2|0,1:2|0:0,0:0:0:0:
266,76,72685,2,0,P|189:9|107:52,1,172.500006580353,2|0,0:0|0:0,0:0:0:0:
96,64,73019,1,2,0:0:0:0:
32,256,73241,6,0,P|143:249|162:165,1,172.500006580353,2|0,1:2|0:0,0:0:0:0:
318,61,73685,2,0,P|207:68|188:152,1,172.500006580353,10|2,1:2|0:0,0:0:0:0:
296,203,74019,1,2,0:0:0:0:
296,203,74130,2,0,P|337:81|384:28,1,172.500006580353,2|0,1:2|0:0,0:0:0:0:
480,192,74574,2,0,L|371:181,1,86.2500032901765,10|0,1:2|0:0,0:0:0:0:
256,272,74797,6,0,P|312:367|405:334,1,172.500006580353,2|0,0:0|1:2,0:0:0:0:
480,320,75241,1,2,0:0:0:0:
480,320,75352,1,2,0:0:0:0:
480,320,75463,2,0,L|464:199,1,86.2500032901765,10|0,1:2|0:0,0:0:0:0:
380,103,75685,1,2,0:0:0:0:
380,103,75797,1,2,0:0:0:0:
380,103,75908,2,0,L|396:-18,1,86.2500032901765,2|0,1:2|0:0,0:0:0:0:
297,4,76130,2,0,L|281:125,1,86.2500032901765,2|0,0:0|0:0,0:0:0:0:
350,259,76352,2,0,P|431:191|386:130,1,172.500006580353,10|2,1:2|0:0,0:0:0:0:
192,64,76797,6,0,B|139:52|139:52|106:206,1,172.500006580353,6|0,1:2|0:0,0:0:0:0:
192,288,77241,2,0,B|245:300|245:300|278:146,1,172.500006580353,10|0,1:2|0:0,0:0:0:0:
64,256,77685,1,2,1:2:0:0:
160,96,77908,1,2,0:0:0:0:
320,320,78130,2,0,P|355:309|342:258,1,86.2500032901765,10|0,1:2|0:0,0:0:0:0:
332,291,78352,6,0,P|313:215|355:93,1,172.500006580353,2|2,0:0|1:2,0:0:0:0:
475,41,78685,1,2,0:0:0:0:
475,41,78797,2,0,P|460:117|354:96,1,172.500006580353,2|8,0:0|1:2,0:0:0:0:
256,32,79241,2,0,P|382:19|458:6,1,172.500006580353,2|0,0:0|1:2,0:0:0:0:
352,128,79685,1,2,0:0:0:0:
480,224,79908,2,0,L|470:345,1,86.2500032901765,10|0,1:2|0:0,0:0:0:0:
384,352,80130,2,0,L|374:231,1,86.2500032901765,2|0,0:0|0:0,0:0:0:0:
364,141,80352,6,0,B|396:117|396:117|254:145,1,172.500006580353,6|2,1:2|0:0,0:0:0:0:
129,175,80685,1,2,0:0:0:0:
129,175,80797,2,0,B|140:138|169:130|169:130|171:253|209:344,1,258.75000987053,10|0,1:2|0:0,0:0:0:0:
289,376,81241,2,0,P|403:332|503:331,1,172.500006580353,2|2,1:2|0:0,0:0:0:0:
365,241,81574,1,2,0:0:0:0:
365,241,81685,2,0,L|381:137,1,86.2500032901765,10|0,1:2|0:0,0:0:0:0:
398,30,81908,6,0,P|380:100|267:61,1,172.500006580353,2|2,0:0|1:2,0:0:0:0:
128,32,82352,1,2,0:0:0:0:
128,32,82463,1,2,0:0:0:0:
128,32,82574,2,0,L|149:232,1,172.500006580353,10|0,1:2|0:0,0:0:0:0:
164,381,83019,5,2,0:0:0:0:
224,320,83241,1,2,0:0:0:0:
32,288,83463,1,10,0:3:0:0:
32,288,83574,1,10,0:3:0:0:
32,288,83685,1,10,1:3:0:0:
32,288,83797,1,10,1:3:0:0:
32,288,83908,6,2,B|100:274|100:274|118:231|118:231|357:191,1,345,6|2,1:2|0:0,0:1:0:0:
351,206,85685,6,0,L|365:80,1,86.2500032901765,6|0,1:2|0:0,0:0:0:0:
161,206,86019,2,0,L|147:80,1,86.2500032901765,6|0,1:2|0:0,0:0:0:0:
448,128,86352,6,0,L|479:-2,1,115,6|0,1:2|0:0,0:0:0:0:
64,128,86685,2,0,L|33:-2,1,115,6|0,1:2|0:0,0:0:0:0:
256,32,87019,5,6,1:2:0:0:
256,352,87241,1,6,1:2:0:0:
