osu file format v14

[General]
AudioFilename: audio.mp3
AudioLeadIn: 0
PreviewTime: 54908
Countdown: 0
SampleSet: Soft
StackLeniency: 0.3
Mode: 0
LetterboxInBreaks: 0
WidescreenStoryboard: 1

[Editor]
DistanceSpacing: 1
BeatDivisor: 8
GridSize: 8
TimelineZoom: 8

[Metadata]
Title:Long shot (TV Size)
TitleUnicode:Long shot (TV Size)
Artist:Maeshima Mayu
ArtistUnicode:前島麻由
Creator:619
Version:Fate
Source:Re:ゼロから始める異世界生活
Tags:re:zero kara hajimeru isekai seikatsu rezero starting life in another world different from zero season two anime opening op japanese english rock pop myth and & roid BlastTheKidd honne Maruoko Delette
BeatmapID:3588174
BeatmapSetID:1349240

[Difficulty]
HPDrainRate:5
CircleSize:4
OverallDifficulty:9
ApproachRate:9.3
SliderMultiplier:3.6
SliderTickRate:1

[Events]
//Background and Video events
0,0,"EMT.jpg",0,0
//Break Periods
//Storyboard Layer 0 (Background)
//Storyboard Layer 1 (Fail)
//Storyboard Layer 2 (Pass)
//Storyboard Layer 3 (Foreground)
//Storyboard Layer 4 (Overlay)
//Storyboard Sound Samples

[TimingPoints]
2131,444.444444444444,4,2,1,50,1,0
2131,-200,4,2,1,50,0,0
4130,-200,4,2,1,5,0,0
4242,-200,4,2,1,50,0,0
4797,-200,4,2,1,5,0,0
4908,-200,4,2,1,50,0,0
5242,-100,4,2,1,70,0,0
5353,-100,4,2,1,70,0,0
5464,-100,4,2,2,75,0,0
5575,-100,4,2,1,75,0,0
5686,444.444444444444,4,2,1,65,1,0
5686,-111.111111111111,4,2,1,65,0,0
5852,-111.111111111111,4,2,1,5,0,0
5908,-111.111111111111,4,2,1,65,0,0
6130,-111.111111111111,4,2,2,65,0,0
6297,-111.111111111111,4,2,1,5,0,0
6352,-111.111111111111,4,2,1,65,0,0
6574,-111.111111111111,4,2,1,65,0,0
7019,-111.111111111111,4,2,2,65,0,0
7130,-111.111111111111,4,2,1,65,0,0
7797,-111.111111111111,4,2,1,5,0,0
7908,-111.111111111111,4,2,2,65,0,0
8019,-111.111111111111,4,2,1,65,0,0
8130,-111.111111111111,4,2,2,65,0,0
8241,-111.111111111111,4,2,1,65,0,0
8574,-111.111111111111,4,2,1,65,0,0
8797,-111.111111111111,4,2,2,65,0,0
9019,-111.111111111111,4,2,2,65,0,0
9130,-111.111111111111,4,2,2,65,0,0
9241,-111.111111111111,4,2,1,65,0,0
9408,-111.111111111111,4,2,1,5,0,0
9463,-111.111111111111,4,2,1,65,0,0
9685,-111.111111111111,4,2,2,65,0,0
9852,-111.111111111111,4,2,1,5,0,0
9908,-111.111111111111,4,2,1,65,0,0
10130,-111.111111111111,4,2,1,65,0,0
10574,-111.111111111111,4,2,2,65,0,0
10685,-111.111111111111,4,2,1,65,0,0
10797,-111.111111111111,4,2,2,65,0,0
10908,-111.111111111111,4,2,1,65,0,0
11019,-100,4,2,1,75,0,1
11463,-100,4,2,2,75,0,1
11574,-100,4,2,1,75,0,1
11908,-50,4,2,1,80,0,0
11963,-50,4,2,1,5,0,0
12241,-50,4,2,1,80,0,0
12297,-50,4,2,1,5,0,0
12574,-50,4,2,2,80,0,0
12630,-50,4,2,2,5,0,0
12797,-125,4,2,1,55,0,0
13685,-125,4,2,2,55,0,0
13797,-125,4,2,1,55,0,0
14019,-125,4,2,2,55,0,0
14130,-125,4,2,1,55,0,0
14352,-125,4,2,2,55,0,0
14463,-125,4,2,1,55,0,0
15463,-125,4,2,2,55,0,0
15574,-125,4,2,1,55,0,0
15908,-125,4,2,2,55,0,0
15963,-125,4,2,1,55,0,0
16241,-125,4,2,1,5,0,0
16352,-125,4,2,1,55,0,0
17241,-125,4,2,2,55,0,0
17352,-125,4,2,1,55,0,0
17574,-125,4,2,2,55,0,0
17685,-125,4,2,1,55,0,0
17908,-125,4,2,2,55,0,0
18019,-125,4,2,1,55,0,0
18130,-125,4,2,1,55,0,0
18352,-125,4,2,1,55,0,0
18574,-125,4,2,1,55,0,0
18741,-125,4,2,1,5,0,0
18797,-125,4,2,1,55,0,0
19019,-100,4,2,2,60,0,0
19185,-100,4,2,1,5,0,0
19241,-100,4,2,1,60,0,0
19463,-100,4,2,2,60,0,0
19630,-100,4,2,1,5,0,0
19685,-250,4,2,1,60,0,0
19852,-100,4,2,1,5,0,0
19908,-125,4,2,1,55,0,0
20797,-125,4,2,2,55,0,0
20908,-125,4,2,1,55,0,0
21130,-125,4,2,2,55,0,0
21241,-125,4,2,1,55,0,0
21463,-125,4,2,2,55,0,0
21574,-125,4,2,1,55,0,0
22574,-125,4,2,2,55,0,0
22685,-125,4,2,1,55,0,0
23019,-125,4,2,2,55,0,0
23352,-125,4,2,1,5,0,0
23463,-125,4,2,1,55,0,0
24352,-125,4,2,2,55,0,0
24463,-125,4,2,1,55,0,0
24685,-125,4,2,2,55,0,0
24797,-125,4,2,1,55,0,0
25019,-125,4,2,2,55,0,0
25130,-125,4,2,1,55,0,0
25241,-125,4,2,1,55,0,0
25685,-125,4,2,2,55,0,0
25741,-125,4,2,1,55,0,0
26074,-125,4,2,1,5,0,0
26130,-200,4,2,1,50,0,0
26519,-200,4,2,1,5,0,0
26574,-333.333333333333,4,2,2,45,0,0
26908,-333.333333333333,4,2,1,45,0,0
27019,-111.111111111111,4,2,1,65,0,0
27408,-111.111111111111,4,2,1,5,0,0
27463,-499.999999999997,4,2,2,50,0,0
27852,-499.999999999997,4,2,1,5,0,0
27908,-99.9999999999999,4,2,1,65,0,0
28185,-99.9999999999999,4,2,1,5,0,0
28241,-99.9999999999999,4,2,1,65,0,0
28519,-99.9999999999999,4,2,1,5,0,0
28574,-499.999999999997,4,2,1,65,0,0
29185,-499.999999999997,4,2,1,5,0,0
29241,-111.111111111111,4,2,2,50,0,0
29408,-111.111111111111,4,2,2,5,0,0
29463,-111.111111111111,4,2,2,50,0,0
29630,-111.111111111111,4,2,2,5,0,0
29685,-99.9999999999999,4,2,1,65,0,0
29963,-99.9999999999999,4,2,1,5,0,0
30019,-99.9999999999999,4,2,1,65,0,0
30297,-99.9999999999999,4,2,1,5,0,0
30352,-111.111111111111,4,2,1,65,0,0
30797,-133.333333333333,4,2,1,65,0,0
31019,-133.333333333333,4,2,2,65,0,0
31130,-133.333333333333,4,2,1,65,0,0
31463,-129.87012987013,4,2,1,65,0,0
31852,-129.87012987013,4,2,1,5,0,0
31908,-129.87012987013,4,2,2,65,0,0
32019,-129.87012987013,4,2,1,65,0,0
32741,-129.87012987013,4,2,1,5,0,0
32797,-129.87012987013,4,2,2,65,0,0
33019,-129.87012987013,4,2,1,65,0,0
33685,-129.87012987013,4,2,2,65,0,0
33797,-129.87012987013,4,2,1,65,0,0
33908,-129.87012987013,4,2,2,65,0,0
34019,-129.87012987013,4,2,1,65,0,0
35019,-129.87012987013,4,2,2,65,0,0
35241,-129.87012987013,4,2,1,65,0,0
35352,-129.87012987013,4,2,2,65,0,0
35463,-129.87012987013,4,2,1,65,0,0
35685,-129.87012987013,4,2,2,65,0,0
35908,-129.87012987013,4,2,1,65,0,0
36797,-166.666666666667,4,2,2,65,0,0
37019,-166.666666666667,4,2,1,65,0,0
37130,-166.666666666667,4,2,2,65,0,0
37241,-166.666666666667,4,2,1,65,0,0
37463,-166.666666666667,4,2,2,65,0,0
37685,-166.666666666667,4,2,2,65,0,0
38130,-833.333333333333,4,2,1,30,0,0
39463,-100,4,2,1,65,0,0
39797,-100,4,2,1,70,0,0
40130,-100,4,2,2,75,0,0
40241,-100,4,2,1,75,0,0
40463,-100,4,2,2,80,0,0
40574,-100,4,2,1,80,0,0
40797,-200,4,2,1,55,0,0
40963,-200,4,2,1,5,0,0
41019,-200,4,2,1,55,0,0
41185,-200,4,2,1,5,0,0
41241,-200,4,2,1,50,0,0
41297,-200,4,2,1,5,0,0
41463,-200,4,2,1,50,0,0
41519,-200,4,2,1,5,0,0
41685,-200,4,2,1,50,0,0
43074,-200,4,2,1,5,0,0
43241,-200,4,2,1,50,0,0
43297,-200,4,2,1,5,0,0
43463,-200,4,2,1,50,0,0
44852,-200,4,2,1,5,0,0
45019,-200,4,2,1,50,0,0
45074,-200,4,2,1,5,0,0
45241,-200,4,2,1,50,0,0
45685,-100,4,2,1,50,0,0
46352,-200,4,2,1,50,0,0
46463,-200,4,2,1,5,0,0
46574,-133.333333333333,4,2,1,55,0,0
46797,-133.333333333333,4,2,2,55,0,0
46908,-133.333333333333,4,2,1,55,0,0
47241,-133.333333333333,4,2,2,55,0,0
47352,-133.333333333333,4,2,1,55,0,0
47685,-133.333333333333,4,2,2,55,0,0
47797,-133.333333333333,4,2,1,55,0,0
47908,-400,4,2,2,55,0,0
48297,-400,4,2,1,5,0,0
48352,-200,4,2,1,60,0,0
48797,-200,4,2,2,60,0,0
49019,-200,4,2,1,60,0,0
49241,-166.666666666667,4,2,1,60,0,0
49685,-166.666666666667,4,2,2,60,0,0
49797,-166.666666666667,4,2,1,60,0,0
49908,-166.666666666667,4,2,2,60,0,0
50019,-166.666666666667,4,2,2,60,0,0
50130,-142.857142857143,4,2,1,60,0,0
50574,-142.857142857143,4,2,2,60,0,0
50797,-142.857142857143,4,2,1,60,0,0
51019,-125,4,2,1,60,0,0
51463,-125,4,2,2,60,0,0
51574,-125,4,2,1,60,0,0
51685,-125,4,2,2,60,0,0
51797,-125,4,2,1,60,0,0
51908,-142.857142857143,4,2,2,75,0,0
51963,-142.857142857143,4,2,2,5,0,0
52130,-142.857142857143,4,2,1,75,0,0
52185,-142.857142857143,4,2,1,5,0,0
52352,-125,4,2,1,75,0,0
52408,-125,4,2,1,5,0,0
52574,-125,4,2,1,75,0,0
52630,-125,4,2,1,5,0,0
52797,-111.111111111111,4,2,2,75,0,0
52852,-111.111111111111,4,2,2,5,0,0
53019,-111.111111111111,4,2,1,75,0,0
53074,-111.111111111111,4,2,1,5,0,0
53241,-100,4,2,1,75,0,0
53297,-100,4,2,1,5,0,0
53463,-100,4,2,1,75,0,0
53519,-100,4,2,1,5,0,0
53685,-333.333333333333,4,2,1,45,0,0
54574,-333.333333333333,4,2,2,45,0,0
54741,-500,4,2,2,5,0,0
54797,-200,4,2,1,55,0,0
54963,-200,4,2,1,5,0,0
55019,-111.111111111111,4,2,2,65,0,0
55408,-111.111111111111,4,2,1,5,0,0
55463,-100,4,2,1,75,0,1
56130,-100,4,2,2,75,0,1
56241,-100,4,2,1,75,0,1
56352,-100,4,2,2,75,0,1
56797,-100,4,2,1,75,0,1
57019,-100,4,2,2,75,0,1
57241,-100,4,2,1,75,0,1
57908,-100,4,2,2,75,0,1
58019,-100,4,2,1,75,0,1
58130,-100,4,2,2,75,0,1
58297,-100,4,2,2,5,0,1
58352,-100,4,2,2,75,0,1
58519,-100,4,2,2,5,0,1
58574,-100,4,2,1,75,0,1
58797,-100,4,2,2,75,0,1
58908,-100,4,2,1,75,0,1
59685,-100,4,2,2,75,0,1
59797,-100,4,2,1,75,0,1
59908,-100,4,2,2,75,0,1
60019,-100,4,2,1,75,0,1
60574,-100,4,2,2,75,0,1
60685,-100,4,2,1,75,0,1
61463,-100,4,2,2,75,0,1
61574,-100,4,2,1,75,0,1
61685,-100,4,2,2,75,0,1
61797,-100,4,2,1,75,0,1
62130,-100,4,2,2,75,0,1
62241,-100,4,2,1,75,0,1
62352,-100,4,2,2,75,0,1
62463,-100,4,2,1,75,0,1
63241,-100,4,2,2,75,0,1
63352,-100,4,2,1,75,0,1
63463,-100,4,2,2,75,0,1
63685,-100,4,2,1,75,0,1
64130,-100,4,2,2,75,0,1
64241,-100,4,2,1,75,0,1
65019,-100,4,2,2,75,0,1
65130,-100,4,2,1,75,0,1
65241,-100,4,2,2,75,0,1
65352,-100,4,2,1,75,0,1
65908,-100,4,2,2,75,0,1
66019,-100,4,2,1,75,0,1
66797,-100,4,2,2,75,0,1
66908,-100,4,2,1,75,0,1
67019,-100,4,2,2,75,0,1
67130,-100,4,2,1,75,0,1
67352,-100,4,2,2,75,0,1
67463,-100,4,2,1,75,0,1
67686,-100,4,2,2,75,0,1
67797,-100,4,2,1,75,0,1
67908,-100,4,2,1,75,0,0
68574,-100,4,2,2,75,0,0
68685,-100,4,2,1,75,0,0
68797,-100,4,2,1,75,0,0
69241,-100,4,2,2,80,0,0
69352,-100,4,2,1,80,0,0
69463,-100,4,2,2,80,0,0
69574,-100,4,2,1,80,0,0
69685,-100,4,2,1,75,0,1
69852,-100,4,2,1,5,0,1
69908,-100,4,2,1,75,0,1
70352,-100,4,2,2,75,0,1
70463,-100,4,2,1,75,0,1
70574,-100,4,2,2,75,0,1
71019,-100,4,2,1,75,0,1
71241,-100,4,2,2,75,0,1
71352,-100,4,2,1,75,0,1
71630,-100,4,2,1,5,0,1
71685,-100,4,2,1,75,0,1
72130,-100,4,2,2,75,0,1
72241,-100,4,2,1,75,0,1
72352,-100,4,2,2,75,0,1
72797,-100,4,2,1,75,0,1
73019,-100,4,2,2,75,0,1
73130,-100,4,2,1,75,0,1
73408,-100,4,2,1,5,0,1
73463,-100,4,2,1,75,0,1
73908,-100,4,2,2,75,0,1
74019,-100,4,2,1,75,0,1
74130,-100,4,2,2,75,0,1
74241,-100,4,2,1,75,0,1
74797,-100,4,2,2,75,0,1
74908,-100,4,2,1,75,0,1
75685,-100,4,2,2,75,0,1
75797,-100,4,2,1,75,0,1
75908,-100,4,2,2,75,0,1
76019,-100,4,2,1,75,0,1
76574,-100,4,2,2,75,0,1
76685,-100,4,2,1,75,0,1
77463,-100,4,2,2,75,0,1
77574,-100,4,2,1,75,0,1
77685,-100,4,2,2,75,0,1
77908,-100,4,2,1,75,0,1
78352,-100,4,2,2,75,0,1
78463,-100,4,2,1,75,0,1
79241,-100,4,2,2,75,0,1
79352,-100,4,2,1,75,0,1
79463,-100,4,2,2,75,0,1
79574,-100,4,2,1,75,0,1
80130,-100,4,2,2,75,0,1
80241,-100,4,2,1,75,0,1
81019,-100,4,2,2,75,0,1
81130,-100,4,2,1,75,0,1
81241,-100,4,2,2,75,0,1
81408,-100,4,2,2,5,0,1
81463,-100,4,2,2,75,0,1
81685,-76.9230769230769,4,2,1,75,0,1
81852,-76.9230769230769,4,2,1,5,0,1
81908,-76.9230769230769,4,2,2,75,0,1
82019,-76.9230769230769,4,2,1,75,0,1
82074,-76.9230769230769,4,2,1,5,0,1
82130,-100,4,2,1,65,0,0
82519,-100,4,2,1,5,0,0
82574,-100,4,2,1,65,0,0
82963,-100,4,2,1,5,0,0
83019,-100,4,2,1,50,0,0
83463,-100,4,2,2,65,0,0
83574,-100,4,2,1,65,0,0
83685,-100,4,2,2,75,0,0
83797,-100,4,2,1,75,0,0
83908,-333.333333333333,4,2,1,65,0,0
85241,-333.333333333333,4,2,1,40,0,0
85685,-66.6666666666667,4,2,1,75,0,0
85797,-66.6666666666667,4,2,1,5,0,0
86019,-66.6666666666667,4,2,1,75,0,0
86130,-66.6666666666667,4,2,1,5,0,0
86352,-66.6666666666667,4,2,1,75,0,0
86463,-66.6666666666667,4,2,1,5,0,0
86685,-66.6666666666667,4,2,1,75,0,0
86797,-66.6666666666667,4,2,1,5,0,0
87019,-66.6666666666667,4,2,1,75,0,0
87130,-66.6666666666667,4,2,1,5,0,0
87241,-66.6666666666667,4,2,2,75,0,0
87352,-66.6666666666667,4,2,2,30,0,0

[Colours]
Combo1 : 128,0,128
Combo2 : 255,229,200
Combo3 : 192,192,192
Combo4 : 226,100,244
SliderBorder : 192,192,192

[HitObjects]
200,281,2131,5,2,3:2:0:0:
157,155,2353,1,0,0:0:0:0:
316,281,2575,1,2,0:0:0:0:
359,155,2797,1,0,0:0:0:0:
133,235,3019,5,2,0:0:0:0:
259,117,3242,1,2,0:3:0:0:
383,235,3464,1,2,0:0:0:0:
188,81,3686,1,2,1:3:0:0:
198,71,3797,1,2,0:3:0:0:
185,70,3908,6,0,B|146:73|146:73|141:79|141:79|90:84,1,89.9999976158143,2|0,0:0|0:0,0:0:0:0:
86,85,4242,1,6,0:3:0:0:
259,117,4575,2,0,B|297:120|297:120|302:126|302:126|353:131,1,89.9999976158143,2|0,0:0|0:0,0:0:0:0:
358,132,4908,1,6,0:3:0:0:
358,132,5242,5,10,1:0:0:0:
436,192,5353,1,2,1:0:0:0:
420,289,5464,1,14,3:0:0:0:
330,330,5575,1,10,1:0:0:0:
319,335,5686,6,0,L|182:308,1,121.499993073464,4|0,3:1|0:0,0:0:0:0:
116,346,5908,2,0,L|202:329,1,80.9999953823091,2|0,0:3|0:0,0:0:0:0:
319,227,6130,2,0,L|182:200,1,121.499993073464,10|0,1:0|0:0,0:0:0:0:
116,238,6352,2,0,L|202:221,1,80.9999953823091,6|0,0:3|0:0,0:0:0:0:
29,178,6574,1,2,1:2:0:0:
2,250,6685,1,0,1:0:0:0:
43,317,6797,2,0,P|76:340|116:345,1,80.9999953823091,2|0,0:3|0:0,0:0:0:0:
89,128,7019,6,0,P|53:147|28:178,1,80.9999953823091,10|0,1:0|0:0,0:0:0:0:
231,266,7241,2,0,P|233:226|218:189,1,80.9999953823091,6|0,1:3|0:0,0:0:0:0:
115,43,7463,2,0,P|7:70|29:178,1,242.999986146927,2|0,3:2|0:0,0:0:0:0:
231,266,7908,5,10,1:0:0:0:
315,238,8019,1,10,1:0:0:0:
347,155,8130,1,14,3:0:0:0:
322,69,8241,1,10,1:0:0:0:
264,2,8352,6,0,B|208:7|208:7|175:37|175:37|100:44,1,161.999990764618,2|2,1:2|0:3,0:0:0:0:
66,110,8685,1,0,0:0:0:0:
162,167,8797,2,0,B|193:169|193:169|205:179|205:179|241:182,1,80.9999953823091,10|0,1:0|0:0,0:0:0:0:
403,211,9019,1,14,1:3:0:0:
349,292,9130,1,2,1:3:0:0:
349,292,9241,6,0,L|217:262,1,121.499993073464,2|0,1:2|0:0,0:0:0:0:
151,282,9463,2,0,L|230:265,1,80.9999953823091,2|0,0:3|0:0,0:0:0:0:
345,384,9685,2,0,L|227:358,1,121.499993073464,10|0,1:0|0:0,0:0:0:0:
147,374,9908,2,0,L|226:357,1,80.9999953823091,6|0,0:3|0:0,0:0:0:0:
417,348,10130,1,2,1:2:0:0:
455,281,10241,1,0,1:0:0:0:
405,223,10352,2,0,L|327:206,1,80.9999953823091,2|0,0:3|0:0,0:0:0:0:
101,177,10574,5,10,1:0:0:0:
58,99,10685,1,10,1:0:0:0:
100,20,10797,1,14,1:3:0:0:
188,19,10908,1,10,1:0:0:0:
256,90,11019,6,0,P|268:132|250:185,1,89.9999976158143,6|0,3:1|0:0,0:0:0:0:
98,195,11241,1,2,0:3:0:0:
101,177,11352,2,0,P|131:145|186:134,1,89.9999976158143,2|10,1:0|1:0,0:0:0:0:
270,259,11574,1,2,0:3:0:0:
253,266,11685,2,0,P|210:255|173:213,1,89.9999976158143,6|2,1:3|0:1,0:0:0:0:
255,4,11908,6,0,P|267:46|249:99,1,89.9999976158143,6|0,3:2|0:0,0:0:0:0:
26,220,12241,2,0,P|56:188|111:177,1,89.9999976158143,6|0,3:2|0:0,0:0:0:0:
327,308,12574,2,0,P|284:297|247:255,1,89.9999976158143,6|0,3:0|0:0,0:0:0:0:
320,52,12797,6,0,B|367:59|367:59|390:99|390:99|458:111,1,143.999996185303,4|2,1:0|0:3,0:0:0:0:
512,137,13130,1,2,0:1:0:0:
433,120,13241,2,0,B|383:110|383:110|360:70|360:70|313:62,1,143.999996185303,10|2,1:2|0:3,0:0:0:0:
37,36,13685,2,0,P|10:59|8:115,1,71.9999980926514,2|0,1:3|0:0,0:0:0:0:
156,95,13908,1,2,0:3:0:0:
162,82,14019,2,0,P|155:47|107:17,1,71.9999980926514,2|10,0:3|1:2,0:0:0:0:
52,154,14241,1,2,0:3:0:0:
59,166,14352,2,0,P|92:177|142:151,1,71.9999980926514,14|2,3:0|0:3,0:0:0:0:
256,101,14574,6,0,L|247:17,1,71.9999980926514,2|0,1:2|0:0,0:0:0:0:
355,127,14797,2,0,L|347:198,1,71.9999980926514,2|2,0:3|0:1,0:0:0:0:
333,341,15019,2,0,P|268:370|224:303,1,143.999996185303,10|2,1:2|0:3,0:0:0:0:
323,53,15463,2,0,P|359:46|408:67,1,71.9999980926514,2|0,1:3|0:0,0:0:0:0:
506,142,15685,2,0,P|470:135|421:156,1,71.9999980926514,2|2,0:3|0:1,0:0:0:0:
401,284,15908,2,0,B|422:301|448:302|448:302|448:229|448:229|436:222|436:222|436:135,1,215.999994277954,10|0,1:0|0:0,0:0:0:0:
392,55,16352,6,0,B|358:64|358:64|305:119|305:119|252:133,1,143.999996185303,2|2,1:2|0:3,0:0:0:0:
195,138,16685,1,2,0:1:0:0:
269,110,16797,2,0,B|300:101|300:101|352:46|352:46|386:37,1,143.999996185303,10|2,1:2|0:3,0:0:0:0:
238,283,17241,2,0,B|205:297|205:297|158:278,1,71.9999980926514,2|0,1:3|0:0,0:0:0:0:
83,160,17463,1,2,0:3:0:0:
95,153,17574,2,0,B|123:174|123:174|130:224,1,71.9999980926514,2|10,0:3|1:2,0:0:0:0:
65,349,17797,1,2,0:3:0:0:
53,341,17908,2,0,B|57:305|57:305|97:274,1,71.9999980926514,14|2,3:0|0:1,0:0:0:0:
288,210,18130,6,0,P|312:235|323:269,1,71.9999980926514,2|0,1:2|0:0,0:0:0:0:
269,110,18352,2,0,P|234:118|199:111,1,71.9999980926514,2|0,0:3|0:0,0:0:0:0:
365,141,18574,2,0,P|372:86|419:50,1,107.999997138977,10|0,1:2|0:0,0:0:0:0:
471,96,18797,2,0,P|461:130|437:156,1,71.9999980926514,2|2,0:3|0:3,0:0:0:0:
270,291,19019,6,0,B|229:276|229:276|209:233|209:233|153:213,1,134.999996423721,6|0,1:3|0:0,0:0:0:0:
77,223,19241,2,0,P|65:264|98:330,1,89.9999976158143,2|0,0:3|0:0,0:0:0:0:
276,283,19463,6,0,B|235:268|235:268|215:225|215:225|159:205,1,134.999996423721,10|0,1:0|0:0,0:0:0:0:
118,153,19685,6,0,B|109:129|109:129|123:88,1,53.9999985694885,6|0,3:0|0:0,0:0:0:0:
188,35,19908,6,0,L|341:44,1,143.999996185303,4|2,1:0|0:3,0:0:0:0:
401,80,20241,1,2,0:1:0:0:
331,117,20352,2,0,L|178:126,1,143.999996185303,10|2,1:2|0:3,0:0:0:0:
336,372,20797,2,0,P|362:348|368:301,1,71.9999980926514,2|0,1:3|0:0,0:0:0:0:
288,194,21019,1,2,0:3:0:0:
288,194,21130,2,0,P|294:228|331:257,1,71.9999980926514,2|10,0:3|1:2,0:0:0:0:
464,242,21352,1,2,0:3:0:0:
464,242,21463,2,0,P|429:230|386:248,1,71.9999980926514,14|2,3:0|0:1,0:0:0:0:
336,372,21685,6,0,B|302:385|302:385|255:367,1,71.9999980926514,2|0,1:2|0:0,0:0:0:0:
156,280,21908,2,0,B|190:267|190:267|237:285,1,71.9999980926514,2|0,0:3|0:0,0:0:0:0:
111,370,22130,2,0,P|68:329|66:235,1,143.999996185303,10|2,1:2|0:3,0:0:0:0:
58,168,22463,1,2,0:1:0:0:
101,101,22574,2,0,P|134:94|183:107,1,71.9999980926514,2|0,1:3|0:0,0:0:0:0:
277,200,22797,2,0,P|244:207|195:194,1,71.9999980926514,2|2,0:3|0:1,0:0:0:0:
242,60,23019,2,0,B|263:43|289:42|289:42|289:115|289:115|277:122|277:122|277:209,1,215.999994277954,10|0,1:0|0:0,0:0:0:0:
277,299,23463,6,0,P|340:326|413:294,1,143.999996185303,2|2,1:2|0:3,0:0:0:0:
468,249,23797,1,2,0:1:0:0:
407,200,23908,2,0,P|344:173|271:205,1,143.999996185303,10|2,1:2|0:3,0:0:0:0:
28,344,24352,2,0,B|49:372|49:372|89:378,1,71.9999980926514,2|0,1:3|0:0,0:0:0:0:
111,221,24574,1,2,0:3:0:0:
111,221,24685,2,0,B|75:225|75:225|49:257,1,71.9999980926514,2|10,0:3|1:2,0:0:0:0:
175,355,24908,1,2,0:3:0:0:
175,355,25019,2,0,B|188:322|188:322|174:283,1,71.9999980926514,14|2,3:0|0:1,0:0:0:0:
24,134,25241,6,0,P|16:98|36:45,1,71.9999980926514,2|0,1:3|0:0,0:0:0:0:
154,4,25463,2,0,P|161:38|153:73,1,71.9999980926514,2|0,0:3|0:0,0:0:0:0:
111,221,25685,2,0,B|155:257|155:257|203:257|203:257|213:248|213:248|213:264|213:264|222:255|222:255|272:255|272:255|326:213,1,251.99999332428,10|0,1:0|0:0,0:0:0:0:
381,175,26130,6,0,P|444:183|450:269,1,157.499995827675,6|0,1:3|0:0,0:0:0:0:
408,328,26574,6,0,L|345:323,1,53.9999969215394,14|2,1:3|0:3,0:0:0:0:
349,313,26908,1,2,0:1:0:0:
355,324,27019,6,0,B|308:306|308:306|261:242|261:242|263:230|263:230|206:153|206:153|150:133,1,283.499983838082,6|0,1:2|0:0,0:0:0:0:
156,124,27463,6,0,L|218:147,1,62.99999833107,6|0,0:3|0:0,0:0:0:0:
328,183,27908,6,0,P|388:106|315:6,1,224.999994039536,6|0,1:2|0:0,0:0:0:0:
449,9,28241,2,0,P|388:95|448:182,1,224.999994039536,6|0,1:2|0:0,0:0:0:0:
444,265,28574,6,0,P|396:252|350:265,1,98.9999973773957,6|0,1:2|0:0,0:0:0:0:
278,311,29241,6,0,B|228:344|228:344|155:298,1,121.499993073464,14|0,0:3|0:0,0:0:0:0:
172,229,29463,2,0,B|222:196|222:196|295:242,1,121.499993073464,14|0,0:3|0:0,0:0:0:0:
175,311,29685,6,0,P|97:262|145:152,1,224.999994039536,6|0,1:2|0:0,0:0:0:0:
142,30,30019,2,0,B|65:12|-13:38|-13:38|19:67|68:70,1,224.999994039536,6|0,1:2|0:0,0:0:0:0:
138,154,30352,6,0,B|215:125|215:125|245:63|245:63|342:28,1,242.999986146927,6|2,1:2|0:1,0:0:0:0:
423,174,30797,6,0,L|331:141,1,67.5000007867814,6|0,0:3|0:0,0:0:0:0:
369,138,31019,2,0,L|433:161,1,67.5000007867814,10|0,1:3|0:0,0:0:0:0:
442,148,31241,2,0,L|350:115,1,67.5000007867814,4|2,0:3|0:1,0:0:0:0:
331,31,31463,6,0,B|245:63|245:63|215:125|215:125|138:154,1,242.999986146927,2|0,1:2|0:0,0:0:0:0:
62,111,31908,1,10,1:3:0:0:
52,122,32019,2,0,P|45:150|60:201,1,69.2999967895127,2|6,0:3|3:0,0:0:0:0:
178,335,32241,1,2,0:1:0:0:
189,343,32352,6,0,P|275:329|200:235,1,242.549988763295,2|0,1:2|0:0,0:0:0:0:
127,242,32797,1,10,1:3:0:0:
127,242,33019,1,6,0:3:0:0:
353,82,33241,5,10,1:0:0:0:
380,75,33352,1,2,0:1:0:0:
406,84,33463,1,2,1:3:0:0:
428,100,33574,1,2,0:1:0:0:
444,122,33685,5,10,3:0:0:0:
441,198,33797,1,10,1:0:0:0:
373,232,33908,1,14,3:0:0:0:
301,204,34019,1,10,1:0:0:0:
284,129,34130,6,0,B|238:141|238:141|214:179|214:179|147:197,1,138.599993579025,6|6,1:0|0:3,0:0:0:0:
13,186,34463,1,2,0:1:0:0:
3,177,34574,2,0,B|7:132|56:120|56:120|100:146|100:199|67:253,1,207.899990368538,10|2,1:2|0:1,0:0:0:0:
209,336,35019,2,0,P|145:359|83:333,1,138.599993579025,2|6,1:3|0:3,0:0:0:0:
252,262,35352,2,0,P|283:252|326:266,1,69.2999967895127,2|10,0:3|1:2,0:0:0:0:
378,316,35574,1,2,0:1:0:0:
474,275,35685,6,0,P|492:210|475:143,1,138.599993579025,2|2,1:3|1:2,0:0:0:0:
327,85,36019,1,2,0:1:0:0:
317,96,36130,2,0,P|308:129|317:162,1,69.2999967895127,6|0,0:3|0:0,0:0:0:0:
317,260,36352,2,0,B|271:267|271:267|252:262|252:262|237:273|237:273|178:283,1,138.599993579025,10|6,1:2|0:3,0:0:0:0:
101,289,36685,1,2,0:1:0:0:
151,117,36797,6,0,P|194:148|194:209,1,107.999993843079,2|6,1:3|0:3,0:0:0:0:
82,93,37130,2,0,P|87:40|140:9,1,107.999993843079,2|2,0:3|0:1,0:0:0:0:
94,164,37463,2,0,P|45:185|-7:155,1,107.999993843079,6|0,1:3|0:0,0:0:0:0:
0,163,38130,6,0,P|47:185|95:163,1,107.999993843079,2|2,0:0|0:0,0:0:0:0:
190,15,39463,5,14,3:0:0:0:
171,10,39574,1,10,1:0:0:0:
175,26,39685,1,2,0:1:0:0:
326,52,39797,5,14,3:0:0:0:
352,59,39908,1,10,1:0:0:0:
352,85,40019,1,2,0:1:0:0:
257,204,40130,5,14,3:0:0:0:
262,216,40241,1,10,1:0:0:0:
273,222,40352,1,2,0:1:0:0:
422,185,40463,5,14,3:0:0:0:
430,169,40574,1,2,1:0:0:0:
412,170,40685,1,10,0:1:0:0:
400,267,40797,6,0,L|400:349,1,67.4999982118607,2|0,1:2|0:0,0:0:0:0:
410,333,41019,2,0,L|410:265,1,67.4999982118607,2|0,0:3|0:0,0:0:0:0:
412,170,41241,6,0,L|410:147,1,22.5,6|0,1:2|0:0,0:0:0:0:
228,54,41463,2,0,L|226:77,1,22.5,2|0,1:3|0:0,0:0:0:0:
207,278,41685,5,4,0:3:0:0:
129,254,41907,1,2,0:3:0:0:
111,175,42130,1,2,1:2:0:0:
170,120,42352,1,2,0:3:0:0:
248,143,42574,1,4,0:3:0:0:
266,222,42796,1,2,1:3:0:0:
66,326,43019,6,0,L|38:317,1,22.4999994039536,6|0,1:2|0:0,0:0:0:0:
238,377,43241,2,0,L|266:368,1,22.4999994039536,2|0,1:3|0:0,0:0:0:0:
445,289,43463,5,4,0:3:0:0:
511,242,43685,1,2,0:3:0:0:
442,197,43908,1,2,1:2:0:0:
508,150,44130,1,2,0:3:0:0:
441,103,44352,1,4,0:3:0:0:
507,56,44574,1,2,1:3:0:0:
287,2,44797,6,0,L|250:7,1,22.4999994039536,6|0,1:2|0:0,0:0:0:0:
101,125,45019,2,0,L|138:130,1,22.4999994039536,2|0,1:3|0:0,0:0:0:0:
326,134,45241,5,4,0:3:0:0:
376,197,45463,1,2,0:3:0:0:
249,298,45685,6,0,L|227:291,2,22.4999994039536,2|2|2,1:2|0:0|0:0,0:0:0:0:
343,375,45908,2,0,L|364:368,2,22.4999994039536,2|2|2,0:3|0:0|0:3,0:0:0:0:
468,235,46130,2,0,L|476:201,6,22.4999994039536,4|2|2|2|2|2|2,0:3|0:3|0:3|0:3|0:3|0:3|0:3,0:0:0:0:
475,194,46352,6,0,L|463:143,1,44.9999988079071,6|0,1:3|0:0,0:0:0:0:
393,46,46574,6,0,P|363:38|318:52,1,67.5000007867814,2|0,0:0|0:0,0:0:0:0:
293,190,46797,2,0,P|314:168|325:122,1,67.5000007867814,6|0,0:3|0:0,0:0:0:0:
231,10,47019,1,2,0:0:0:0:
220,18,47130,1,2,0:3:0:0:
219,31,47241,2,0,P|227:60|261:92,1,67.5000007867814,6|0,0:3|0:0,0:0:0:0:
82,88,47463,6,0,P|105:63|114:31,1,67.5000007867814,2|0,0:0|0:0,0:0:0:0:
216,191,47685,1,6,0:3:0:0:
208,185,47797,1,2,0:3:0:0:
201,179,47908,6,0,B|165:162|165:162|128:180,1,78.7499979138375,6|0,1:3|0:0,0:0:0:0:
76,234,48352,5,6,1:3:0:0:
249,365,48574,1,2,0:3:0:0:
257,361,48685,1,10,0:1:0:0:
264,355,48797,2,0,P|277:312|251:254,1,89.9999976158143,2|14,1:0|0:3,0:0:0:0:
23,126,49241,5,6,1:3:0:0:
123,291,49463,1,2,0:3:0:0:
134,302,49574,1,10,0:1:0:0:
146,312,49685,2,0,P|174:317|216:303,1,53.9999969215394,2|0,1:0|0:0,0:0:0:0:
317,269,49908,2,0,P|289:274|247:260,1,53.9999969215394,14|8,0:3|0:3,0:0:0:0:
138,165,50130,5,6,1:3:0:0:
334,50,50352,1,2,0:3:0:0:
358,45,50463,1,10,0:1:0:0:
381,54,50574,2,0,B|418:67|418:67|437:106|437:106|477:121,1,125.999992816925,2|14,1:0|0:3,0:0:0:0:
139,266,51019,5,6,1:3:0:0:
23,24,51241,1,2,0:3:0:0:
57,13,51352,1,10,0:1:0:0:
90,25,51463,2,0,P|99:59|79:113,1,71.9999980926514,2|0,1:0|0:0,0:0:0:0:
19,265,51685,1,14,0:3:0:0:
79,217,51797,1,10,0:3:0:0:
139,266,51908,6,0,P|147:280|147:305,1,31.4999982042313,14|0,3:0|0:0,0:0:0:0:
373,266,52130,2,0,P|365:280|365:305,1,31.4999982042313,2|0,1:0|0:0,0:0:0:0:
143,176,52352,6,0,B|159:182|159:182|174:198,1,35.9999990463257,10|0,1:3|0:0,0:0:0:0:
369,176,52574,2,0,B|353:182|353:182|338:198,1,35.9999990463257,2|0,1:3|0:0,0:0:0:0:
91,94,52797,6,0,L|137:104,1,40.4999976911546,14|0,3:0|0:0,0:0:0:0:
421,94,53019,2,0,L|375:104,1,40.4999976911546,2|0,1:0|0:0,0:0:0:0:
53,8,53241,6,0,P|83:8|109:24,1,44.9999988079071,14|0,1:3|0:0,0:0:0:0:
459,8,53463,2,0,P|429:8|403:24,1,44.9999988079071,14|0,1:3|0:0,0:0:0:0:
219,112,53685,6,0,P|256:125|295:111,2,80.9999953823091,2|0|2,0:0|0:0|0:3,0:0:0:0:
421,94,54574,2,0,P|435:101|452:122,1,40.4999976911546,2|0,0:3|0:0,0:0:0:0:
475,207,54797,6,0,L|470:291,1,67.4999982118607,2|0,0:3|0:0,0:0:0:0:
411,355,55019,6,0,B|336:355|336:355|276:315|276:315|223:354|223:354|136:354,1,283.499983838082,6|0,1:3|0:0,0:0:0:0:
69,363,55463,6,0,P|24:280|96:208,1,179.999995231629,4|2,3:1|0:3,0:0:0:0:
163,191,55797,1,2,0:1:0:0:
86,79,55908,2,0,P|46:68|-16:91,1,89.9999976158143,10|0,3:0|0:0,0:0:0:0:
163,191,56130,2,0,P|203:202|265:179,1,89.9999976158143,6|2,3:0|0:1,0:0:0:0:
436,128,56352,6,0,P|453:59|366:43,1,179.999995231629,2|4,3:0|0:3,0:0:0:0:
337,137,56685,1,2,0:3:0:0:
417,246,56797,2,0,B|457:253|457:253|461:260|461:260|501:268,1,89.9999976158143,10|2,3:0|0:1,0:0:0:0:
297,361,57019,1,6,3:0:0:0:
234,291,57130,1,0,0:0:0:0:
234,291,57241,6,0,B|171:301|171:301|141:343|141:343|77:355,1,179.999995231629,2|2,3:2|0:3,0:0:0:0:
6,287,57574,1,0,0:0:0:0:
20,154,57685,2,0,P|66:144|121:162,1,89.9999976158143,10|0,3:0|0:0,0:0:0:0:
297,212,57908,1,6,3:0:0:0:
293,226,58019,1,2,0:1:0:0:
282,217,58130,6,0,L|279:69,1,134.999996423721,2|0,3:0|0:0,0:0:0:0:
179,81,58352,2,0,L|176:215,1,134.999996423721,4|0,0:3|0:0,0:0:0:0:
180,315,58574,2,0,P|223:326|281:308,1,89.9999976158143,10|0,3:0|0:0,0:0:0:0:
470,215,58797,1,14,3:0:0:0:
448,127,58908,1,10,0:1:0:0:
448,127,59019,6,0,B|319:127|411:81|261:81,1,180,2|2,3:2|0:3,0:0:0:0:
179,81,59352,1,2,0:1:0:0:
65,153,59463,2,0,P|54:194|76:256,1,89.9999976158143,10|0,3:0|0:0,0:0:0:0:
218,363,59685,1,6,3:0:0:0:
230,369,59797,1,2,0:1:0:0:
229,355,59908,6,0,P|239:311|228:268,1,89.9999976158143,2|2,3:0|0:1,0:0:0:0:
65,153,60130,1,4,0:3:0:0:
55,143,60241,1,2,0:1:0:0:
10,65,60352,1,10,3:0:0:0:
17,54,60463,1,2,0:1:0:0:
98,15,60574,1,6,3:0:0:0:
179,81,60685,1,2,0:1:0:0:
179,81,60797,6,0,B|217:84|217:84|225:93|225:93|264:97,1,89.9999976158143,2|0,3:2|0:0,0:0:0:0:
438,190,61019,1,2,0:3:0:0:
431,201,61130,1,2,0:1:0:0:
422,191,61242,2,0,B|383:194|383:194|375:203|375:203|318:208,1,89.9999976158143,10|0,3:0|0:0,0:0:0:0:
141,187,61463,1,6,3:0:0:0:
153,195,61574,1,2,0:1:0:0:
161,206,61685,6,0,B|176:246|176:246|141:298,1,89.9999976158143,2|0,3:0|0:0,0:0:0:0:
348,285,61908,2,0,B|321:245|321:245|336:205,1,89.9999976158143,4|0,0:3|0:0,0:0:0:0:
399,18,62130,1,14,1:3:0:0:
495,38,62241,1,10,0:1:0:0:
504,136,62352,1,14,3:0:0:0:
409,162,62463,1,10,0:1:0:0:
334,97,62574,6,0,B|280:101|280:101|251:124|251:124|217:106|217:106|149:112,1,179.999995231629,6|2,3:2|0:3,0:0:0:0:
87,192,62908,1,2,0:1:0:0:
144,315,63019,2,0,B|181:318|181:318|194:328|194:328|243:332,1,89.9999976158143,10|0,3:0|0:0,0:0:0:0:
425,302,63241,1,6,3:0:0:0:
436,294,63352,1,2,0:1:0:0:
427,283,63463,6,0,B|389:286|389:286|376:296|376:296|327:300,1,89.9999976158143,2|0,3:0|0:0,0:0:0:0:
144,315,63685,1,4,0:3:0:0:
135,325,63797,1,2,0:1:0:0:
53,286,63908,1,10,3:0:0:0:
47,273,64019,1,0,0:0:0:0:
87,192,64130,1,6,3:0:0:0:
86,98,64241,1,2,0:1:0:0:
86,98,64352,6,0,P|43:88|-6:101,1,89.9999976158143,2|0,3:2|0:0,0:0:0:0:
198,86,64574,1,2,0:3:0:0:
197,101,64685,1,2,0:1:0:0:
210,104,64797,2,0,P|240:72|253:23,1,89.9999976158143,10|0,3:0|0:0,0:0:0:0:
222,225,65019,1,6,3:0:0:0:
210,217,65130,1,2,0:1:0:0:
201,227,65241,6,0,P|213:269|249:305,1,89.9999976158143,2|0,3:0|0:0,0:0:0:0:
367,147,65463,2,0,P|324:136|275:149,1,89.9999976158143,4|2,0:3|0:1,0:0:0:0:
355,329,65685,2,0,P|385:297|398:248,1,89.9999976158143,10|0,3:0|0:0,0:0:0:0:
415,27,65908,1,14,3:0:0:0:
324,4,66019,1,10,0:1:0:0:
324,4,66130,6,0,B|288:10|288:10|279:18|279:18|213:30,1,89.9999976158143,2|0,3:2|0:0,0:0:0:0:
43,55,66352,1,2,0:3:0:0:
54,46,66463,1,2,0:1:0:0:
134,5,66574,2,0,B|169:11|169:11|178:19|178:19|244:31,1,89.9999976158143,10|0,3:0|0:0,0:0:0:0:
159,216,66797,1,6,3:0:0:0:
148,207,66908,1,2,0:1:0:0:
140,195,67019,6,0,P|129:151|149:95,1,89.9999976158143,2|0,3:0|0:0,0:0:0:0:
325,178,67241,2,0,P|293:209|234:220,1,89.9999976158143,4|2,0:3|0:3,0:0:0:0:
219,26,67463,2,0,P|262:38|301:83,1,89.9999976158143,10|0,3:0|0:0,0:0:0:0:
367,281,67685,1,14,3:0:0:0:
272,305,67797,1,2,0:1:0:0:
272,305,67908,6,0,B|268:274|268:274|253:253|253:253|248:202,1,89.9999976158143,6|0,3:2|0:0,0:0:0:0:
376,29,68130,1,6,0:3:0:0:
388,27,68241,1,0,0:0:0:0:
396,38,68352,2,0,B|393:71|393:71|378:92|378:92|374:122,1,89.9999976158143,14|0,3:0|0:0,0:0:0:0:
348,351,68574,1,6,3:0:0:0:
358,359,68685,1,2,0:1:0:0:
448,348,68797,5,14,3:0:0:0:
479,263,68908,1,2,0:1:0:0:
438,182,69019,1,6,3:0:0:0:
426,175,69130,1,2,0:1:0:0:
318,180,69241,5,14,3:0:0:0:
249,237,69352,1,10,3:1:0:0:
159,227,69463,1,14,3:0:0:0:
122,145,69574,1,10,3:1:0:0:
180,75,69685,6,0,B|224:78|224:78|232:93|232:93|320:101,1,134.999996423721,4|0,3:1|0:0,0:0:0:0:
395,53,69908,2,0,B|361:55|361:55|355:66|355:66|289:72,1,89.9999976158143,2|2,0:3|0:1,0:0:0:0:
126,0,70130,2,0,P|96:35|87:78,1,90,14|0,3:0|0:0,0:0:0:0:
158,261,70352,1,14,3:0:0:0:
167,244,70463,1,2,0:1:0:0:
159,227,70574,6,0,B|125:230|125:230|122:238|122:238|59:243,1,89.9999976158143,2|0,3:0|0:0,0:0:0:0:
222,375,70797,1,4,0:3:0:0:
213,358,70908,1,2,0:3:0:0:
221,341,71019,2,0,B|255:344|255:344|258:352|258:352|321:357,1,89.9999976158143,14|0,3:0|0:0,0:0:0:0:
501,379,71241,1,14,3:0:0:0:
409,342,71352,1,10,0:1:0:0:
394,332,71463,6,0,P|376:265|399:193,1,134.999996423721,2|0,3:2|0:0,0:0:0:0:
420,107,71685,2,0,P|430:150|418:198,1,89.9999976158143,2|2,0:3|0:1,0:0:0:0:
323,368,71908,2,0,B|275:364|275:364|272:356|272:356|239:353,1,89.9999976158143,14|0,3:0|0:0,0:0:0:0:
58,274,72130,1,14,3:0:0:0:
47,282,72241,1,2,0:1:0:0:
44,268,72352,6,0,B|47:232|47:232|53:230|53:230|59:159,1,89.9999976158143,2|0,3:0|0:0,0:0:0:0:
145,5,72574,1,4,0:3:0:0:
133,0,72685,1,2,0:3:0:0:
130,11,72796,2,0,B|133:46|133:46|139:48|139:48|145:119,1,89.9999976158143,14|0,3:0|0:0,0:0:0:0:
243,268,73019,1,14,3:0:0:0:
197,178,73130,1,10,0:1:0:0:
187,163,73241,6,0,B|146:167|146:167|140:175|140:175|46:183,1,134.999996423721,2|0,3:2|0:0,0:0:0:0:
56,83,73463,2,0,B|86:86|86:86|90:92|90:92|162:98,1,89.9999976158143,2|2,0:3|0:1,0:0:0:0:
340,91,73685,2,0,P|356:134|334:179,1,89.9999976158143,14|0,3:0|0:0,0:0:0:0:
256,354,73908,1,14,3:0:0:0:
265,345,74019,1,2,0:1:0:0:
257,335,74130,6,0,B|297:338|297:338|308:346|308:346|352:350,1,89.9999976158143,2|0,3:0|0:0,0:0:0:0:
492,210,74352,1,4,0:3:0:0:
485,220,74463,1,2,0:1:0:0:
495,229,74574,2,0,B|454:232|454:232|443:240|443:240|399:244,1,89.9999976158143,14|0,3:0|0:0,0:0:0:0:
208,254,74797,1,14,3:0:0:0:
165,165,74908,1,10,0:1:0:0:
175,150,75019,6,0,P|218:138|268:155,1,89.9999976158143,2|0,3:2|0:0,0:0:0:0:
368,316,75241,2,0,P|336:284|325:232,1,89.9999976158143,2|2,0:3|0:1,0:0:0:0:
415,65,75463,2,0,P|403:108|364:143,1,89.9999976158143,14|0,3:0|0:0,0:0:0:0:
175,150,75685,1,14,3:0:0:0:
156,61,75797,1,2,0:1:0:0:
243,38,75908,6,0,B|280:44|280:44|291:56|291:56|334:64,1,89.9999976158143,2|0,3:0|0:0,0:0:0:0:
494,166,76130,1,4,0:3:0:0:
497,179,76241,1,0,0:0:0:0:
483,181,76352,2,0,B|445:187|445:187|434:199|434:199|391:207,1,89.9999976158143,14|0,3:0|0:0,0:0:0:0:
202,220,76574,1,14,3:0:0:0:
143,292,76685,1,10,0:1:0:0:
210,357,76797,6,0,P|299:376|397:351,1,179.999995231629,6|2,3:2|0:3,0:0:0:0:
475,317,77130,1,2,0:1:0:0:
399,205,77241,2,0,P|357:199|299:208,1,89.9999976158143,14|0,3:0|0:0,0:0:0:0:
117,158,77463,1,14,3:0:0:0:
109,146,77574,1,2,0:1:0:0:
120,138,77685,6,0,P|162:132|220:141,1,89.9999976158143,2|0,3:0|0:0,0:0:0:0:
399,205,77908,1,4,0:3:0:0:
411,199,78019,1,2,0:1:0:0:
496,171,78130,1,14,3:0:0:0:
500,158,78241,1,0,0:0:0:0:
491,68,78352,1,14,3:0:0:0:
410,28,78463,1,10,0:1:0:0:
395,18,78574,6,0,B|261:18|357:55|214:55,1,180,2|2,3:2|0:3,0:0:0:0:
125,46,78908,1,2,0:1:0:0:
17,127,79019,2,0,P|5:165|24:222,1,89.9999976158143,14|0,3:0|0:0,0:0:0:0:
137,369,79241,1,14,3:0:0:0:
149,363,79352,1,2,0:1:0:0:
157,352,79463,6,0,P|169:314|150:257,1,89.9999976158143,2|0,3:0|0:0,0:0:0:0:
17,127,79685,2,0,P|43:156|102:168,1,89.9999976158143,4|0,0:3|0:0,0:0:0:0:
284,119,79908,2,0,P|245:127|205:172,1,89.9999976158143,14|0,3:0|0:0,0:0:0:0:
157,352,80130,1,14,3:0:0:0:
145,253,80241,1,10,0:1:0:0:
156,266,80352,6,0,B|193:269|193:269|202:277|202:277|257:281,1,89.9999976158143,2|0,3:2|0:0,0:0:0:0:
421,195,80574,1,2,0:3:0:0:
427,183,80685,1,2,0:1:0:0:
416,175,80797,2,0,B|378:178|378:178|369:186|369:186|314:190,1,89.9999976158143,14|0,3:0|0:0,0:0:0:0:
163,80,81019,1,14,3:0:0:0:
159,66,81130,1,2,0:1:0:0:
169,57,81241,6,0,B|309:71,1,134.999996423721,2|0,3:0|0:0,0:0:0:0:
397,36,81463,2,0,B|272:48,1,89.9999976158143,4|2,0:3|0:3,0:0:0:0:
8,77,81685,6,0,P|13:53|48:110,1,175.499987317086,14|0,3:0|0:0,0:0:0:0:
72,239,81908,2,0,P|67:263|32:206,1,175.499987317086,6|0,3:0|0:0,0:0:0:0:
137,162,82130,6,0,B|176:168|176:168|255:236|255:236|256:244|256:244|358:318|358:318|424:330,1,314.99999165535,2|0,3:0|0:0,0:0:0:0:
397,161,82574,2,0,B|357:167|357:167|278:235|278:235|277:243|277:243|175:317|175:317|109:329,1,314.99999165535,2|0,1:3|0:0,0:0:0:0:
72,239,83019,1,2,0:3:0:0:
72,239,83463,5,10,1:3:0:0:
2,182,83574,1,10,1:0:0:0:
18,93,83685,1,14,3:0:0:0:
28,84,83797,1,10,1:0:0:0:
113,49,83908,6,0,B|194:49|194:49|255:101|255:101|316:49|316:49|426:49,1,323.999981529237,6|2,1:3|1:3,0:0:0:0:
398,49,85685,6,0,B|499:67|499:67|461:98,1,135.000001573563,6|0,3:2|0:0,0:0:0:0:
113,49,86019,2,0,B|12:67|12:67|50:98,1,135.000001573563,6|0,3:2|0:0,0:0:0:0:
390,60,86352,6,0,B|491:78|491:78|453:109,1,135.000001573563,6|0,3:2|0:0,0:0:0:0:
122,60,86685,2,0,B|21:78|21:78|59:109,1,135.000001573563,6|0,3:2|0:0,0:0:0:0:
390,324,87019,6,0,B|441:330|441:330|491:306|491:306|476:295|476:295|458:308,1,135.000001573563,14|0,1:3|0:0,0:0:0:0:
122,324,87241,2,0,B|71:330|71:330|21:306|21:306|36:295|36:295|54:308,1,135.000001573563,14|0,3:1|0:0,0:0:0:0:
