osu file format v14

[General]
AudioFilename: audio.mp3
AudioLeadIn: 0
PreviewTime: 69122
Countdown: 0
SampleSet: Normal
StackLeniency: 0.7
Mode: 1
LetterboxInBreaks: 0
WidescreenStoryboard: 0

[Editor]
Bookmarks: 2123,5678,12789,27011,39456,48345,55456,83900,87234
DistanceSpacing: 1.3
BeatDivisor: 4
GridSize: 32
TimelineZoom: 1.8

[Metadata]
Title:Long shot (TV Size)
TitleUnicode:Long shot (TV Size)
Artist:Maeshima Mayu
ArtistUnicode:前島麻由
Creator:Lexa14
Version:Futsuu
Source:Re:ゼロから始める異世界生活
Tags:re:zero rezero kara hajimeru isekai seikatsu season 2 op opening starting life in another world different female vocal anime two english japanese R・O・N ron 株式会社KADOKAWA J-pop Jpop pop
BeatmapID:2917833
BeatmapSetID:1415816

[Difficulty]
HPDrainRate:7
CircleSize:2
OverallDifficulty:4
ApproachRate:10
SliderMultiplier:1.4
SliderTickRate:1

[Events]
//Background and Video events
0,0,"re-zero-kara-hajimeru-isekai-seikatsu-emilia-dress-white-hair.jpg",0,80
//Break Periods
//Storyboard Layer 0 (Background)
//Storyboard Layer 1 (Fail)
//Storyboard Layer 2 (Pass)
//Storyboard Layer 3 (Foreground)
//Storyboard Layer 4 (Overlay)
//Storyboard Sound Samples

[TimingPoints]
2123,444.444444444444,4,1,0,70,1,0
2123,-100,4,1,0,70,0,0
5678,-100,4,1,0,75,0,1
12789,-100,4,1,0,65,0,0
26956,-100,4,1,0,70,0,0
27845,-100,4,1,0,75,0,0
29179,-100,4,1,0,70,0,0
29623,-100,4,1,0,75,0,0
30956,-100,4,1,0,70,0,0
34067,-100,4,1,0,70,0,0
41623,-100,4,1,0,60,0,0
42956,-100,4,1,0,70,0,0
46512,-100,4,1,0,60,0,0
48290,-100,4,1,0,70,0,0
53623,-100,4,1,0,50,0,0
54956,-100,4,1,0,70,0,0
55456,-100,4,1,0,80,0,1
67678,-100,4,1,0,70,0,0
68734,-100,4,1,0,80,0,0
69678,-100,4,1,0,80,0,1
83900,-100,4,1,0,70,0,0

[HitObjects]
256,192,2123,5,0,0:0:0:0:
256,192,3011,1,8,0:0:0:0:
256,192,3456,1,0,0:0:0:0:
256,192,3900,1,8,0:0:0:0:
256,192,4234,1,8,0:0:0:0:
256,192,4567,1,0,0:0:0:0:
256,192,4900,1,0,0:0:0:0:
256,192,5234,1,8,0:0:0:0:
256,192,5678,1,4,0:0:0:0:
256,192,6122,1,8,0:0:0:0:
256,192,6345,1,0,0:0:0:0:
256,192,6567,1,8,0:0:0:0:
256,192,7011,1,8,0:0:0:0:
256,192,7456,1,0,0:0:0:0:
256,192,7900,1,0,0:0:0:0:
256,192,8122,1,0,0:0:0:0:
256,192,8345,1,8,0:0:0:0:
256,192,8567,1,8,0:0:0:0:
256,192,8789,1,0,0:0:0:0:
256,192,9234,1,8,0:0:0:0:
256,192,9678,1,8,0:0:0:0:
256,192,9900,1,0,0:0:0:0:
256,192,10122,1,8,0:0:0:0:
256,192,10567,1,8,0:0:0:0:
256,192,11011,1,0,0:0:0:0:
256,192,11900,1,12,0:0:0:0:
256,192,12234,1,12,0:0:0:0:
256,192,12567,1,12,0:0:0:0:
256,192,12789,1,0,0:0:0:0:
256,192,13234,1,8,0:0:0:0:
256,192,13678,1,0,0:0:0:0:
256,192,14011,1,0,0:0:0:0:
256,192,14345,1,8,0:0:0:0:
256,192,14789,1,0,0:0:0:0:
256,192,15011,1,8,0:0:0:0:
256,192,15456,1,0,0:0:0:0:
256,192,15678,1,0,0:0:0:0:
256,192,15900,1,8,0:0:0:0:
256,192,16345,1,0,0:0:0:0:
256,192,16789,1,8,0:0:0:0:
256,192,17234,1,0,0:0:0:0:
256,192,17678,1,8,0:0:0:0:
256,192,17900,1,0,0:0:0:0:
256,192,18345,1,0,0:0:0:0:
256,192,18567,1,0,0:0:0:0:
256,192,19900,1,0,0:0:0:0:
256,192,20345,1,8,0:0:0:0:
256,192,20789,1,0,0:0:0:0:
256,192,21122,1,8,0:0:0:0:
256,192,21456,1,0,0:0:0:0:
256,192,21900,1,8,0:0:0:0:
256,192,22122,1,8,0:0:0:0:
256,192,22567,1,0,0:0:0:0:
256,192,22789,1,0,0:0:0:0:
256,192,23011,1,8,0:0:0:0:
256,192,23456,1,0,0:0:0:0:
256,192,23900,1,8,0:0:0:0:
256,192,24345,1,8,0:0:0:0:
256,192,24678,1,8,0:0:0:0:
256,192,25011,1,0,0:0:0:0:
256,192,25456,1,0,0:0:0:0:
256,192,25678,1,8,0:0:0:0:
256,192,27011,1,12,0:0:0:0:
256,192,27456,1,8,0:0:0:0:
256,192,27900,1,4,0:0:0:0:
256,192,28234,1,4,0:0:0:0:
256,192,28567,1,12,0:0:0:0:
256,192,29234,1,0,0:0:0:0:
256,192,29678,1,12,0:0:0:0:
256,192,30011,1,12,0:0:0:0:
256,192,30345,1,4,0:0:0:0:
256,192,31011,1,0,0:0:0:0:
256,192,31456,1,12,0:0:0:0:
256,192,32345,1,12,0:0:0:0:
256,192,33234,1,4,0:0:0:0:
256,192,33678,1,8,0:0:0:0:
256,192,34122,1,0,0:0:0:0:
256,192,34567,1,8,0:0:0:0:
256,192,35011,1,0,0:0:0:0:
256,192,35345,1,0,0:0:0:0:
256,192,35678,1,8,0:0:0:0:
256,192,36345,1,8,0:0:0:0:
256,192,36789,1,0,0:0:0:0:
256,192,37122,1,0,0:0:0:0:
256,192,37456,1,8,0:0:0:0:
256,192,39456,1,12,0:0:0:0:
256,192,39789,1,12,0:0:0:0:
256,192,40122,1,4,0:0:0:0:
256,192,40456,1,4,0:0:0:0:
256,192,40789,1,12,0:0:0:0:
256,192,41234,1,0,0:0:0:0:
256,192,41456,1,0,0:0:0:0:
256,192,43011,1,4,0:0:0:0:
256,192,43234,1,4,0:0:0:0:
256,192,44789,1,4,0:0:0:0:
256,192,45011,1,4,0:0:0:0:
256,192,46567,1,8,0:0:0:0:
256,192,47011,1,0,0:0:0:0:
256,192,47456,1,8,0:0:0:0:
256,192,48345,1,8,0:0:0:0:
256,192,48789,1,8,0:0:0:0:
256,192,49234,1,8,0:0:0:0:
256,192,49678,1,0,0:0:0:0:
256,192,49900,1,8,0:0:0:0:
256,192,50122,1,0,0:0:0:0:
256,192,50789,1,8,0:0:0:0:
256,192,51122,1,0,0:0:0:0:
256,192,51456,1,8,0:0:0:0:
256,192,52122,1,0,0:0:0:0:
256,192,52345,1,0,0:0:0:0:
256,192,52567,1,0,0:0:0:0:
256,192,52789,1,8,0:0:0:0:
256,192,53234,1,0,0:0:0:0:
256,192,53678,1,8,0:0:0:0:
256,192,55011,1,8,0:0:0:0:
256,192,55456,1,4,0:0:0:0:
256,192,55900,1,8,0:0:0:0:
256,192,56122,1,8,0:0:0:0:
256,192,56345,1,0,0:0:0:0:
256,192,56678,1,0,0:0:0:0:
256,192,57011,1,8,0:0:0:0:
256,192,57456,1,8,0:0:0:0:
256,192,57678,1,0,0:0:0:0:
256,192,58122,1,8,0:0:0:0:
256,192,58456,1,8,0:0:0:0:
256,192,58789,1,8,0:0:0:0:
256,192,59011,1,0,0:0:0:0:
256,192,59234,1,8,0:0:0:0:
256,192,59456,1,0,0:0:0:0:
256,192,60345,1,0,0:0:0:0:
256,192,60567,1,8,0:0:0:0:
256,192,61011,1,8,0:0:0:0:
256,192,61234,1,0,0:0:0:0:
256,192,61456,1,0,0:0:0:0:
256,192,61678,1,8,0:0:0:0:
256,192,62122,1,0,0:0:0:0:
256,192,62567,1,8,0:0:0:0:
256,192,63011,1,0,0:0:0:0:
256,192,63456,1,8,0:0:0:0:
256,192,63900,1,8,0:0:0:0:
256,192,64122,1,8,0:0:0:0:
256,192,64567,1,0,0:0:0:0:
256,192,65011,1,8,0:0:0:0:
256,192,65456,1,0,0:0:0:0:
256,192,65678,1,8,0:0:0:0:
256,192,66122,1,0,0:0:0:0:
256,192,67011,1,0,0:0:0:0:
256,192,67456,1,0,0:0:0:0:
256,192,67678,1,8,0:0:0:0:
256,192,68122,1,8,0:0:0:0:
256,192,68567,1,8,0:0:0:0:
256,192,69234,1,0,0:0:0:0:
256,192,69456,1,0,0:0:0:0:
256,192,69678,1,12,0:0:0:0:
256,192,70122,1,0,0:0:0:0:
256,192,70345,1,8,0:0:0:0:
256,192,70567,1,0,0:0:0:0:
256,192,70900,1,0,0:0:0:0:
256,192,71234,1,8,0:0:0:0:
256,192,71678,1,8,0:0:0:0:
256,192,71900,1,0,0:0:0:0:
256,192,72345,1,8,0:0:0:0:
256,192,72678,1,8,0:0:0:0:
256,192,73011,1,0,0:0:0:0:
256,192,73234,1,8,0:0:0:0:
256,192,73678,1,8,0:0:0:0:
256,192,74122,1,0,0:0:0:0:
256,192,74567,1,8,0:0:0:0:
256,192,74789,1,8,0:0:0:0:
256,192,75678,1,8,0:0:0:0:
256,192,75900,1,0,0:0:0:0:
256,192,76122,1,8,0:0:0:0:
256,192,76345,1,0,0:0:0:0:
256,192,76789,1,8,0:0:0:0:
256,192,77234,1,8,0:0:0:0:
262,196,77678,1,0,0:0:0:0:
256,192,78122,1,8,0:0:0:0:
256,192,78345,1,0,0:0:0:0:
256,192,78789,1,8,0:0:0:0:
256,192,79234,1,0,0:0:0:0:
256,192,79678,1,8,0:0:0:0:
256,192,79900,1,0,0:0:0:0:
256,192,80122,1,0,0:0:0:0:
256,192,80345,1,8,0:0:0:0:
256,192,80789,1,8,0:0:0:0:
256,192,81234,1,8,0:0:0:0:
256,192,81678,1,8,0:0:0:0:
256,192,81900,1,0,0:0:0:0:
256,192,82345,1,8,0:0:0:0:
256,192,82567,1,0,0:0:0:0:
256,192,83011,1,8,0:0:0:0:
256,192,83456,1,0,0:0:0:0:
256,192,83678,1,0,0:0:0:0:
256,192,83900,1,12,0:0:0:0:
256,192,85678,1,12,0:0:0:0:
256,192,86011,1,12,0:0:0:0:
256,192,86345,1,4,0:0:0:0:
256,192,86678,1,4,0:0:0:0:
256,192,87011,1,12,0:0:0:0:
256,192,87234,1,4,0:0:0:0:
