osu file format v14

[General]
AudioFilename: audio.mp3
AudioLeadIn: 0
PreviewTime: 29
Countdown: 0
SampleSet: Soft
StackLeniency: 0.7
Mode: 2
LetterboxInBreaks: 0
WidescreenStoryboard: 0

[Editor]
DistanceSpacing: 1.3
BeatDivisor: 4
GridSize: 8
TimelineZoom: 1

[Metadata]
Title:Kimi Iro Smile (TV Size)
TitleUnicode:君色スマイル (TV Size)
Artist:Maeno Tomoaki, Hanae Natsuki, Toriumi Kohsuke
ArtistUnicode:前野智昭、花江夏樹、鳥海浩輔
Creator:MBomb
Version:Rain
Source:Room Mate
Tags:magic bomb roommate male vocal japanese anime ルームメイト
BeatmapID:1897846
BeatmapSetID:909472

[Difficulty]
HPDrainRate:6
CircleSize:4.5
OverallDifficulty:8.7
ApproachRate:8.7
SliderMultiplier:2.6
SliderTickRate:2

[Events]
//Background and Video events
0,0,"rsz_theyre_not_shirtless_anymore_but_theyre_still_hot_so_its_gucci.jpg",0,0
//Break Periods
//Storyboard Layer 0 (Background)
//Storyboard Layer 1 (Fail)
//Storyboard Layer 2 (Pass)
//Storyboard Layer 3 (Foreground)
//Storyboard Sound Samples

[TimingPoints]
315,571.428571428571,4,2,0,88,1,0
27743,-100,4,2,0,39,0,0

[Colours]
Combo1 : 78,78,107
Combo2 : 255,255,94
Combo3 : 128,64,0

[HitObjects]
64,192,29,5,2,0:0:0:0:
408,192,315,6,0,P|456:176|408:136,1,130,4|0,0:0|0:0,0:0:0:0:
200,192,743,2,0,L|200:128,1,65,0|8,0:0|0:3,0:0:0:0:
456,192,1172,1,0,0:0:0:0:
112,192,1457,2,0,P|56:160|88:120,1,130,2|0,0:0|0:0,0:0:0:0:
304,192,1886,2,0,L|368:192,2,65,0|8|0,0:0|0:3|0:0,0:0:0:0:
152,192,2314,1,0,0:0:0:0:
496,192,2600,6,0,L|432:192,1,65,2|0,0:0|0:0,0:0:0:0:
280,192,2886,2,0,L|216:192,1,65,2|0,0:0|0:0,0:0:0:0:
431,192,3172,2,0,P|447:144|383:120,1,130,8|0,0:3|0:0,0:0:0:0:
168,192,3600,2,0,L|88:192,2,65,0|2|0,0:0|0:0|0:0,0:0:0:0:
272,192,4029,2,0,L|344:192,2,65,0|0|8,0:0|0:0|0:3,0:0:0:0:
16,192,4600,1,0,0:0:0:0:
392,192,4886,6,0,P|440:152|400:128,1,130,2|0,0:0|0:0,0:0:0:0:
320,192,5314,1,0,0:0:0:0:
160,192,5457,2,0,P|184:128|240:120,1,130,8|0,0:3|0:0,0:0:0:0:
304,192,5886,1,0,0:0:0:0:
80,192,6029,2,0,P|48:152|104:120,1,130,2|0,0:0|0:0,0:0:0:0:
352,192,6600,1,8,0:3:0:0:
96,192,6886,6,0,L|232:192,1,130
368,192,7457,2,0,L|296:192,1,65
152,192,7743,2,0,P|104:160|152:128,1,130,8|0,0:3|0:0,0:0:0:0:
400,192,8314,1,2,0:0:0:0:
472,192,8457,1,0,0:0:0:0:
496,192,8600,1,2,0:0:0:0:
472,192,8743,1,0,0:0:0:0:
400,192,8886,1,8,0:3:0:0:
320,192,9029,1,0,0:0:0:0:
160,192,9172,2,0,L|160:128,1,65,2|0,0:0|0:0,0:0:0:0:
392,192,9457,6,0,P|472:144|464:104,1,130,4|0,0:0|0:0,0:0:0:0:
248,192,9886,2,0,L|184:192,2,65,0|8|0,0:0|0:3|0:0,0:0:0:0:
400,192,10314,1,0,0:0:0:0:
56,192,10600,2,0,P|24:160|88:120,1,130,2|0,0:0|0:0,0:0:0:0:
232,192,11029,2,0,L|296:192,2,65,0|8|0,0:0|0:3|0:0,0:0:0:0:
80,192,11457,1,0,0:0:0:0:
424,192,11743,6,0,L|496:192,1,65,2|0,0:0|0:0,0:0:0:0:
328,192,12029,2,0,L|240:192,1,65,2|0,0:0|0:0,0:0:0:0:
480,192,12314,2,0,P|472:128|400:104,1,130,8|0,0:3|0:0,0:0:0:0:
200,192,12743,2,0,L|128:192,2,65,0|2|0,0:0|0:0|0:0,0:0:0:0:
120,192,13172,2,0,L|48:192,2,65,0|0|8,0:0|0:0|0:3,0:0:0:0:
200,192,13600,1,0,0:0:0:0:
360,192,13743,1,2,0:0:0:0:
16,192,14029,6,0,P|24:144|104:120,1,130,2|0,0:0|0:0,0:0:0:0:
248,192,14457,2,0,L|176:192,1,65,0|8,0:0|0:3,0:0:0:0:
32,192,14886,1,0,0:0:0:0:
376,192,15172,2,0,P|368:144|288:120,1,130,2|0,0:0|0:0,0:0:0:0:
144,192,15600,2,0,L|80:192,1,65,0|8,0:0|0:3,0:0:0:0:
320,192,16029,1,2,0:0:0:0:
64,192,16314,5,0,0:0:0:0:
416,192,16600,2,0,L|480:192,2,65,2|0|8,0:0|0:0|0:3,0:0:0:0:
272,192,17172,2,0,L|208:192,1,65
360,192,17457,1,2,0:0:0:0:
416,192,17600,1,0,0:0:0:0:
360,192,17743,1,2,0:0:0:0:
288,192,17886,1,0,0:0:0:0:
232,192,18029,1,8,0:3:0:0:
288,192,18172,1,0,0:0:0:0:
448,192,18314,2,0,L|448:128,1,65,2|0,0:0|0:0,0:0:0:0:
208,192,18600,6,0,P|136:160|112:112,1,130,4|0,0:0|0:0,0:0:0:0:
192,192,19029,1,0,0:0:0:0:
344,192,19172,1,8,0:3:0:0:
88,192,19457,2,0,L|160:192,1,65
312,192,19743,1,0,0:0:0:0:
384,192,19886,1,0,0:0:0:0:
424,192,20029,1,0,0:0:0:0:
440,192,20172,1,0,0:0:0:0:
400,192,20314,1,8,0:3:0:0:
152,192,20600,1,2,0:0:0:0:
496,192,20886,6,0,P|464:128|384:112,1,130,4|0,0:0|0:0,0:0:0:0:
336,192,21314,1,0,0:0:0:0:
184,192,21457,1,8,0:3:0:0:
432,192,21743,1,0,0:0:0:0:
216,192,21886,1,0,0:0:0:0:
120,192,22029,1,0,0:0:0:0:
56,192,22172,1,0,0:0:0:0:
120,192,22314,1,0,0:0:0:0:
192,192,22457,1,0,0:0:0:0:
256,192,22600,1,8,0:3:0:0:
16,192,22886,1,2,0:0:0:0:
408,192,23172,6,0,P|464:160|416:120,1,130,4|0,0:0|0:0,0:0:0:0:
352,192,23600,1,0,0:0:0:0:
200,192,23743,2,0,P|232:136|312:120,1,130,8|0,0:3|0:0,0:0:0:0:
40,192,24314,2,0,P|24:128|80:120,1,130,2|0,0:0|0:0,0:0:0:0:
224,192,24743,2,0,L|288:192,1,65,0|8,0:0|0:3,0:0:0:0:
40,192,25172,1,2,0:0:0:0:
400,192,25457,6,0,L|464:192,2,65,2|0|2,0:0|0:0|0:0,0:0:0:0:
312,192,25886,2,0,L|240:192,1,65,0|8,0:0|0:3,0:0:0:0:
400,192,26314,1,0,0:0:0:0:
144,192,26600,2,0,L|144:128,1,65,2|0,0:0|0:0,0:0:0:0:
216,192,26886,2,0,L|216:120,1,65,2|0,0:0|0:0,0:0:0:0:
288,192,27172,2,0,L|288:128,1,65,8|0,0:3|0:0,0:0:0:0:
448,192,27457,2,0,L|448:128,1,65,2|0,0:0|0:0,0:0:0:0:
208,192,27743,6,0,P|152:176|128:112,1,130,4|0,0:0|0:0,0:0:0:0:
376,192,28314,2,0,P|432:176|488:128,1,130,2|0,0:0|0:0,0:0:0:0:
144,192,28886,1,4,0:0:0:0:
496,192,29314,1,2,0:0:0:0:
8,192,29743,2,0,L|8:56,1,130,4|0,0:0|0:0,0:0:0:0:
