osu file format v14

[General]
AudioFilename: Kaichou wa Maid-sama OST- Main Theme.mp3
AudioLeadIn: 0
PreviewTime: 25326
Countdown: 0
SampleSet: Soft
StackLeniency: 0.8
Mode: 0
LetterboxInBreaks: 0
WidescreenStoryboard: 1

[Editor]
DistanceSpacing: 0.8
BeatDivisor: 4
GridSize: 4
TimelineZoom: 1.9

[Metadata]
Title:Main Theme
TitleUnicode:メインテーマ
Artist:Maeguchi Wataru
ArtistUnicode:前口渉
Creator:Sidetail
Version:Insane
Source:会長はメイド様!
Tags:Class President is a Maid! Maid Sama! Instrumental OST
BeatmapID:368504
BeatmapSetID:148916

[Difficulty]
HPDrainRate:5
CircleSize:4
OverallDifficulty:7
ApproachRate:8
SliderMultiplier:2
SliderTickRate:1

[Events]
//Background and Video events
0,0,"bg.jpg",0,0
//Break Periods
//Storyboard Layer 0 (Background)
//Storyboard Layer 1 (Fail)
//Storyboard Layer 2 (Pass)
//Storyboard Layer 3 (Foreground)
//Storyboard Sound Samples

[TimingPoints]
-556,588.235294117647,4,2,1,30,1,0
8863,594.059405940594,4,2,1,30,1,0
10032,588.235294117647,4,2,1,30,1,0
11208,588.235294117647,4,2,1,30,1,0
25330,447.761194029851,4,2,1,50,1,0
27121,-100,4,2,1,70,0,1
33389,-83.3333333333333,4,2,1,60,0,1
34285,-100,4,2,1,70,0,1
41449,-133.333333333333,4,2,1,50,0,0
55777,-133.333333333333,4,2,1,60,0,0
64732,-100,4,2,1,70,0,1
71001,-83.3333333333333,4,2,1,60,0,1
71897,-100,4,2,1,70,0,1
78165,-83.3333333333333,4,2,1,60,0,1
79061,-100,4,2,1,70,0,1
85330,-83.3333333333333,4,2,1,60,0,1
86225,-100,4,2,1,70,0,1
93389,-111.111111111111,4,2,1,50,0,0

[Colours]
Combo1 : 128,64,64
Combo2 : 0,128,192
Combo3 : 208,0,104
Combo4 : 255,83,83
Combo5 : 0,128,64

[HitObjects]
408,168,620,6,0,P|420:244|397:339,2,150,0|0|0,0:0|0:0|0:0,0:0:0:0:
324,48,1796,6,0,P|276:60|216:44,1,100,0|0,0:0|0:0,0:0:0:0:
227,49,2237,1,0,0:0:0:0:
227,49,2384,1,0,0:0:0:0:
88,52,2678,1,0,0:0:0:0:
160,148,2973,2,0,P|160:208|152:288,1,100,0|8,0:0|0:0,0:0:0:0:
64,344,3561,1,8,0:0:0:0:
248,352,3855,1,0,0:0:0:0:
248,352,4002,1,0,0:0:0:0:
248,352,4149,6,0,P|296:344|368:360,1,100,0|0,0:0|0:0,0:0:0:0:
423,360,4591,2,0,P|415:292|430:205,1,150
276,36,5326,2,0,P|284:104|272:171,1,100,0|8,0:0|0:0,0:0:0:0:
168,212,5914,1,8,0:0:0:0:
104,28,6208,1,0,0:0:0:0:
104,28,6355,1,0,0:0:0:0:
104,28,6502,6,0,P|152:20|212:32,1,100,0|0,0:0|0:0,0:0:0:0:
281,26,6943,2,0,P|270:100|287:192,1,150
500,267,7678,2,0,P|508:215|492:143,1,100
427,174,8120,2,0,P|337:186|261:166,1,150
132,81,8863,5,0,0:0:0:0:
253,253,9160,1,0,0:0:0:0:
55,184,9457,1,0,0:0:0:0:
256,124,9754,1,0,0:0:0:0:
129,290,10032,2,0,P|200:296|248:284,1,100
280,240,10473,2,0,P|332:232|396:248,1,100
436,296,10914,1,0,0:0:0:0:
436,296,11208,6,0,P|432:244|440:164,1,100
438,118,11649,2,0,P|365:133|291:120,1,150
144,216,12384,2,0,P|192:207|259:224,1,100,0|8,0:0|0:0,0:0:0:0:
316,236,12973,1,8,0:0:0:0:
196,136,13267,1,0,0:0:0:0:
196,136,13414,1,0,0:0:0:0:
196,136,13561,6,0,P|192:76|204:20,1,100,0|0,0:0|0:0,0:0:0:0:
277,30,14002,2,0,P|353:41|432:30,1,150
345,139,14737,2,0,P|349:199|337:255,1,100,0|8,0:0|0:0,0:0:0:0:
193,212,15326,1,8,0:0:0:0:
29,301,15620,1,0,0:0:0:0:
29,301,15767,1,0,0:0:0:0:
29,301,15914,6,0,P|21:253|33:189,1,100,0|0,0:0|0:0,0:0:0:0:
21,122,16355,2,0,P|93:135|177:121,1,150
256,24,17090,2,0,P|248:84|256:132,1,100,0|8,0:0|0:0,0:0:0:0:
388,240,17678,2,0,P|396:180|388:132,1,100,8|0,0:0|0:0,0:0:0:0:
184,60,18267,6,0,B|132:128|184:197|184:197|235:266|184:335,1,300
4,260,19443,2,0,P|60:252|120:268,1,100,0|8,0:0|0:0,0:0:0:0:
184,336,20031,1,8,0:0:0:0:
256,192,20620,5,2,0:0:0:0:
256,192,20767,12,0,25031,0:0:0:0:
456,72,25330,6,0,P|452:128|460:204,1,100,4|0,0:0|0:0,0:0:0:0:
476,296,25777,1,4,0:0:0:0:
336,76,26225,2,0,P|256:64|160:84,2,150,12|12|12,0:0|0:0|0:0,0:0:0:0:
256,192,27121,6,0,P|248:244|256:296,1,100,4|2,0:0|0:0,0:0:0:0:
254,290,27456,1,0,0:0:0:0:
254,290,27568,1,8,0:0:0:0:
324,152,27792,1,2,0:0:0:0:
164,244,28016,2,0,P|116:252|60:244,1,100,0|10,0:0|0:0,0:0:0:0:
0,104,28464,1,8,0:0:0:0:
156,32,28688,1,2,0:0:0:0:
196,24,28800,1,0,0:0:0:0:
236,32,28912,6,0,P|240:84|236:136,1,100,0|2,0:0|0:0,0:0:0:0:
232,208,29247,1,0,0:0:0:0:
232,284,29359,2,0,P|280:292|344:280,1,100,8|2,0:0|0:0,0:0:0:0:
335,132,29807,2,0,P|287:124|223:136,1,100,0|10,0:0|0:0,0:0:0:0:
164,244,30255,1,8,0:0:0:0:
320,300,30479,1,2,0:0:0:0:
336,268,30591,1,0,0:0:0:0:
336,231,30703,6,0,P|332:179|336:123,1,100,0|2,0:0|0:0,0:0:0:0:
440,40,31150,1,8,0:0:0:0:
296,52,31374,1,2,0:0:0:0:
263,67,31486,1,0,0:0:0:0:
248,100,31598,2,0,P|196:112|136:96,1,100,0|10,0:0|0:0,0:0:0:0:
44,24,32046,1,8,0:0:0:0:
196,24,32270,1,2,0:0:0:0:
116,172,32494,6,0,P|108:228|120:284,1,100,0|2,0:0|0:0,0:0:0:0:
264,344,32941,2,0,P|272:288|260:231,1,100,8|2,0:0|0:0,0:0:0:0:
116,172,33389,6,0,P|180:184|253:156,1,119.999996337891,12|2,0:0|0:0,0:0:0:0:
292,80,33725,2,0,P|227:67|155:96,1,119.999996337891,12|0,0:0|0:0,0:0:0:0:
231,169,34061,1,14,0:0:0:0:
114,270,34285,6,0,P|108:221|116:172,1,100,4|2,0:0|0:0,0:0:0:0:
116,171,34620,1,0,0:0:0:0:
116,171,34732,1,8,0:0:0:0:
292,232,34956,1,2,0:0:0:0:
164,352,35180,2,0,P|112:364|65:353,1,100,0|10,0:0|0:0,0:0:0:0:
20,216,35628,1,8,0:0:0:0:
188,232,35852,1,2,0:0:0:0:
220,220,35964,1,0,0:0:0:0:
240,192,36076,6,0,P|236:144|240:88,1,100,0|2,0:0|0:0,0:0:0:0:
299,49,36411,1,0,0:0:0:0:
230,18,36523,2,0,P|178:26|118:14,1,100,8|2,0:0|0:0,0:0:0:0:
17,103,36971,2,0,P|66:95|115:103,1,100,0|10,0:0|0:0,0:0:0:0:
140,267,37419,1,8,0:0:0:0:
309,191,37643,1,2,0:0:0:0:
311,161,37755,1,0,0:0:0:0:
312,132,37867,6,0,P|316:80|312:24,1,100,0|2,0:0|0:0,0:0:0:0:
146,19,38314,1,8,0:0:0:0:
212,173,38538,1,2,0:0:0:0:
221,208,38650,1,0,0:0:0:0:
212,243,38762,2,0,P|160:255|100:239,1,100,0|10,0:0|0:0,0:0:0:0:
40,127,39210,1,8,0:0:0:0:
203,88,39434,1,2,0:0:0:0:
114,246,39658,6,0,P|106:302|118:358,1,100,0|2,0:0|0:0,0:0:0:0:
314,294,40106,2,0,P|322:238|310:181,1,100,8|2,0:0|0:0,0:0:0:0:
312,44,40553,5,10,0:0:0:0:
312,44,40703,2,0,P|344:32|376:32,1,66.6666666666667,0|8,0:0|0:0,0:0:0:0:
380,207,41001,5,2,0:0:0:0:
380,207,41150,2,0,P|346:207|316:196,1,66.6666666666667,8|8,0:0|0:0,0:0:0:0:
456,140,41449,6,0,P|476:212|444:288,1,150.000005722046,2|0,0:0|0:0,0:0:0:0:
380,207,42121,1,0,0:0:0:0:
304,280,42344,2,0,L|260:280,3,37.5000014305115,2|0|8|0,0:0|0:0|0:0|0:0,0:0:0:0:
236,260,42792,1,8,0:0:0:0:
140,160,43016,1,8,0:0:0:0:
140,160,43128,1,0,0:0:0:0:
140,160,43240,6,0,P|132:232|144:264,1,75.0000028610231,2|0,0:0|0:0,0:0:0:0:
48,344,43688,2,0,P|56:272|44:239,1,75.0000028610231,0|0,0:0|0:0,0:0:0:0:
20,208,44024,1,0,0:0:0:0:
20,208,44135,2,0,P|24:180|28:152,2,37.5000014305115,2|0|8,0:0|0:0|0:0,0:0:0:0:
99,73,44583,2,0,P|143:77|191:69,1,75.0000028610231,8|8,0:0|0:0,0:0:0:0:
212,140,44919,1,0,0:0:0:0:
252,204,45031,6,0,P|248:244|256:304,1,75.0000028610231,2|0,0:0|0:0,0:0:0:0:
360,360,45479,2,0,P|364:320|356:260,1,75.0000028610231,0|0,0:0|0:0,0:0:0:0:
344,216,45815,1,0,0:0:0:0:
344,216,45927,2,0,P|348:188|356:160,3,37.5000014305115,2|0|8|0,0:0|0:0|0:0|0:0,0:0:0:0:
372,144,46374,1,8,0:0:0:0:
420,240,46598,1,8,0:0:0:0:
272,180,46822,6,0,P|264:156|260:120,3,37.5000014305115,2|0|0|0,0:0|0:0|0:0|0:0,0:0:0:0:
272,104,47270,2,0,P|232:108|187:101,1,75.0000028610231,2|0,0:0|0:0,0:0:0:0:
108,24,47718,1,2,0:0:0:0:
108,24,47830,1,0,0:0:0:0:
108,24,47941,1,8,0:0:0:0:
96,152,48165,2,0,P|92:200|100:256,1,75.0000028610231,10|8,0:0|0:0,0:0:0:0:
160,264,48501,1,0,0:0:0:0:
228,232,48613,6,0,P|268:228|304:236,1,75.0000028610231,2|0,0:0|0:0,0:0:0:0:
410,317,49061,2,0,P|370:321|318:313,1,75.0000028610231
376,196,49509,2,0,P|388:180|392:162,3,37.5000014305115,2|0|8|0,0:0|0:0|0:0|0:0,0:0:0:0:
376,124,49956,1,8,0:0:0:0:
436,244,50180,1,8,0:0:0:0:
304,160,50404,6,0,P|268:156|229:162,1,75.0000028610231,2|0,0:0|0:0,0:0:0:0:
144,264,50852,2,0,P|152:220|152:180,1,75.0000028610231,0|0,0:0|0:0,0:0:0:0:
128,124,51188,1,0,0:0:0:0:
128,124,51300,2,0,P|136:100|144:76,2,37.5000014305115,2|0|8,0:0|0:0|0:0,0:0:0:0:
52,240,51747,2,0,P|52:284|60:316,1,75.0000028610231,8|8,0:0|0:0,0:0:0:0:
132,340,52083,1,0,0:0:0:0:
208,320,52195,6,0,P|244:316|292:320,1,75.0000028610231,2|0,0:0|0:0,0:0:0:0:
408,356,52643,2,0,P|404:316|412:268,1,75.0000028610231,0|0,0:0|0:0,0:0:0:0:
456,224,52979,1,0,0:0:0:0:
456,224,53091,2,0,P|464:204|468:176,3,37.5000014305115,2|0|8|0,0:0|0:0|0:0|0:0,0:0:0:0:
464,148,53538,1,8,0:0:0:0:
348,220,53762,1,8,0:0:0:0:
344,84,53986,6,0,P|344:60|340:36,3,37.5000014305115,2|0|0|0,0:0|0:0|0:0|0:0,0:0:0:0:
316,16,54434,2,0,P|272:12|232:20,1,75.0000028610231,2|0,0:0|0:0,0:0:0:0:
168,32,54770,1,0,0:0:0:0:
96,16,54882,2,0,P|76:16|44:20,2,37.5000014305115,0|0|8,0:0|0:0|0:0,0:0:0:0:
220,88,55330,2,0,L|224:172,1,50.0000019073487,10|0,0:0|0:0,0:0:0:0:
288,300,55703,5,0,0:0:0:0:
288,300,55777,6,0,L|284:212,1,75.0000028610231,4|0,0:0|0:0,0:0:0:0:
360,112,56225,2,0,L|364:200,1,75.0000028610231,8|0,0:0|0:0,0:0:0:0:
440,300,56673,1,0,0:0:0:0:
433,124,56897,1,0,0:0:0:0:
433,124,57009,1,0,0:0:0:0:
433,124,57121,2,0,P|392:116|359:111,1,75.0000028610231,8|0,0:0|0:0,0:0:0:0:
400,12,57568,5,0,0:0:0:0:
272,88,57792,1,0,0:0:0:0:
272,88,57904,1,0,0:0:0:0:
272,88,58016,2,0,P|272:132|292:172,1,75.0000028610231,8|0,0:0|0:0,0:0:0:0:
416,212,58464,1,0,0:0:0:0:
416,212,58576,1,0,0:0:0:0:
416,212,58688,1,0,0:0:0:0:
312,292,58912,1,8,0:0:0:0:
204,136,59135,1,0,0:0:0:0:
204,136,59247,1,0,0:0:0:0:
204,136,59359,6,0,P|168:132|128:136,1,75.0000028610231,0|0,0:0|0:0,0:0:0:0:
24,216,59807,1,8,0:0:0:0:
96,72,60031,1,0,0:0:0:0:
184,220,60255,1,0,0:0:0:0:
184,220,60367,1,0,0:0:0:0:
184,220,60479,1,0,0:0:0:0:
296,104,60703,2,0,P|304:64|296:20,1,75.0000028610231,8|0,0:0|0:0,0:0:0:0:
144,56,61150,5,0,0:0:0:0:
144,56,61262,1,0,0:0:0:0:
144,56,61374,1,0,0:0:0:0:
256,180,61598,2,0,P|296:188|340:180,1,75.0000028610231,8|0,0:0|0:0,0:0:0:0:
329,183,61934,1,0,0:0:0:0:
329,183,62046,1,0,0:0:0:0:
168,188,62270,1,0,0:0:0:0:
256,56,62494,1,8,0:0:0:0:
256,256,62718,2,0,L|264:292,2,25.0000009536744,0|0|0,0:0|0:0|0:0,0:0:0:0:
256,328,62941,5,12,0:0:0:0:
256,328,63389,1,12,0:0:0:0:
256,328,63837,2,0,P|316:336|376:324,2,112.500004291535,12|12|12,0:0|0:0|0:0,0:0:0:0:
180,140,64732,6,0,P|128:135|64:140,1,100,4|2,0:0|0:0,0:0:0:0:
80,137,65068,1,0,0:0:0:0:
80,137,65180,1,8,0:0:0:0:
124,260,65404,1,2,0:0:0:0:
276,192,65628,2,0,P|288:140|272:80,1,100,0|10,0:0|0:0,0:0:0:0:
180,140,66076,1,8,0:0:0:0:
296,20,66300,1,2,0:0:0:0:
336,12,66412,1,0,0:0:0:0:
376,20,66524,6,0,P|380:72|376:124,1,100,0|2,0:0|0:0,0:0:0:0:
360,192,66859,1,0,0:0:0:0:
396,260,66971,2,0,P|444:268|508:256,1,100,8|2,0:0|0:0,0:0:0:0:
475,120,67419,2,0,P|427:112|363:124,1,100,0|10,0:0|0:0,0:0:0:0:
396,260,67867,1,8,0:0:0:0:
264,204,68091,1,2,0:0:0:0:
244,164,68203,1,0,0:0:0:0:
236,120,68315,6,0,P|232:68|236:12,1,100,0|2,0:0|0:0,0:0:0:0:
376,48,68762,1,8,0:0:0:0:
328,172,68986,1,2,0:0:0:0:
296,188,69098,1,0,0:0:0:0:
264,204,69210,2,0,P|224:208|160:172,1,100,0|10,0:0|0:0,0:0:0:0:
148,44,69658,1,8,0:0:0:0:
236,120,69882,1,2,0:0:0:0:
76,212,70106,6,0,P|76:160|104:100,1,100,0|2,0:0|0:0,0:0:0:0:
264,204,70553,2,0,P|264:256|236:316,1,100,8|2,0:0|0:0,0:0:0:0:
93,115,71001,6,0,P|144:132|212:112,1,119.999996337891,12|2,0:0|0:0,0:0:0:0:
248,20,71337,2,0,P|197:3|129:23,1,119.999996337891,12|0,0:0|0:0,0:0:0:0:
206,115,71673,1,14,0:0:0:0:
348,24,71897,6,0,P|340:76|348:128,1,100,4|2,0:0|0:0,0:0:0:0:
346,122,72232,1,0,0:0:0:0:
346,122,72344,1,8,0:0:0:0:
472,100,72568,1,2,0:0:0:0:
396,260,72792,2,0,P|348:268|292:260,1,100,0|10,0:0|0:0,0:0:0:0:
346,122,73240,1,8,0:0:0:0:
460,214,73464,1,2,0:0:0:0:
474,249,73576,1,0,0:0:0:0:
471,287,73688,6,0,P|433:330|374:335,1,100,0|2,0:0|0:0,0:0:0:0:
317,340,74023,1,0,0:0:0:0:
243,316,74135,2,0,P|193:307|136:319,1,100,8|2,0:0|0:0,0:0:0:0:
205,212,74583,2,0,P|213:163|205:114,1,100,0|10,0:0|0:0,0:0:0:0:
103,28,75031,1,8,0:0:0:0:
249,29,75255,1,2,0:0:0:0:
279,23,75367,1,0,0:0:0:0:
309,28,75479,6,0,P|360:37|416:27,1,100,0|2,0:0|0:0,0:0:0:0:
507,154,75926,1,8,0:0:0:0:
353,193,76150,1,2,0:0:0:0:
318,202,76262,1,0,0:0:0:0:
283,193,76374,2,0,P|271:141|287:81,1,100,0|10,0:0|0:0,0:0:0:0:
407,29,76822,1,8,0:0:0:0:
443,214,77046,1,2,0:0:0:0:
225,147,77270,6,0,P|169:139|113:151,1,100,0|2,0:0|0:0,0:0:0:0:
185,278,77717,2,0,P|241:286|298:274,1,100,8|2,0:0|0:0,0:0:0:0:
69,221,78165,6,0,P|57:277|69:349,1,119.999996337891,12|2,0:0|0:0,0:0:0:0:
185,278,78501,2,0,P|197:222|185:149,1,119.999996337891,12|0,0:0|0:0,0:0:0:0:
69,221,78837,1,14,0:0:0:0:
138,60,79061,6,0,P|188:54|237:59,1,100,4|2,0:0|0:0,0:0:0:0:
311,78,79397,1,0,0:0:0:0:
386,59,79508,2,0,P|388:108|384:158,1,100,8|2,0:0|0:0,0:0:0:0:
257,233,79956,2,0,P|252:183|255:133,1,100,0|10,0:0|0:0,0:0:0:0:
439,111,80404,1,8,0:0:0:0:
373,281,80628,1,2,0:0:0:0:
369,317,80740,1,0,0:0:0:0:
374,352,80852,6,0,P|326:356|270:352,1,100,0|2,0:0|0:0,0:0:0:0:
220,299,81187,1,0,0:0:0:0:
255,232,81300,2,0,P|260:180|253:121,1,100,8|2,0:0|0:0,0:0:0:0:
85,159,81747,2,0,P|80:211|87:270,1,100,0|10,0:0|0:0,0:0:0:0:
202,371,82195,1,8,0:0:0:0:
255,232,82419,1,2,0:0:0:0:
285,221,82531,1,0,0:0:0:0:
315,231,82643,6,0,P|367:235|423:231,1,100,0|2,0:0|0:0,0:0:0:0:
491,77,83090,1,8,0:0:0:0:
321,79,83314,1,2,0:0:0:0:
290,89,83426,1,0,0:0:0:0:
258,83,83538,2,0,P|207:75|158:82,1,100,0|10,0:0|0:0,0:0:0:0:
19,188,83986,1,8,0:0:0:0:
91,27,84210,1,2,0:0:0:0:
213,173,84434,6,0,P|221:224|206:285,1,100,0|2,0:0|0:0,0:0:0:0:
78,322,84882,2,0,P|70:271|85:210,1,100,8|2,0:0|0:0,0:0:0:0:
147,125,85330,6,0,P|90:142|33:126,1,119.999996337891,12|2,0:0|0:0,0:0:0:0:
90,26,85665,2,0,P|147:9|205:26,1,119.999996337891,12|0,0:0|0:0,0:0:0:0:
147,126,86002,1,14,0:0:0:0:
303,28,86226,6,0,P|295:80|303:132,1,100,4|2,0:0|0:0,0:0:0:0:
301,126,86561,1,0,0:0:0:0:
301,126,86673,1,8,0:0:0:0:
439,80,86897,1,2,0:0:0:0:
360,237,87121,2,0,P|311:247|254:237,1,100,0|10,0:0|0:0,0:0:0:0:
221,102,87569,1,8,0:0:0:0:
99,214,87793,1,2,0:0:0:0:
99,247,87905,1,0,0:0:0:0:
99,279,88016,6,0,P|147:275|203:279,1,100,0|2,0:0|0:0,0:0:0:0:
268,310,88351,1,0,0:0:0:0:
262,239,88464,2,0,P|265:189|261:139,1,100,8|2,0:0|0:0,0:0:0:0:
98,114,88912,2,0,P|94:163|98:213,1,100,0|10,0:0|0:0,0:0:0:0:
208,350,89359,1,8,0:0:0:0:
313,189,89583,1,2,0:0:0:0:
342,181,89695,1,0,0:0:0:0:
375,189,89807,6,0,P|426:199|481:184,1,100,0|2,0:0|0:0,0:0:0:0:
446,19,90254,1,8,0:0:0:0:
289,106,90478,1,2,0:0:0:0:
263,120,90590,1,0,0:0:0:0:
238,137,90703,2,0,P|224:187|240:246,1,100,0|10,0:0|0:0,0:0:0:0:
298,357,91150,1,8,0:0:0:0:
313,189,91374,1,2,0:0:0:0:
136,257,91598,6,0,P|86:270|22:253,1,100,0|2,0:0|0:0,0:0:0:0:
68,108,92046,2,0,P|116:94|167:104,1,100,8|2,0:0|0:0,0:0:0:0:
164,103,92382,1,0,0:0:0:0:
164,103,92494,1,0,0:0:0:0:
206,295,92718,1,10,0:0:0:0:
342,220,92941,1,8,0:0:0:0:
334,195,93052,1,0,0:0:0:0:
334,170,93164,1,2,0:0:0:0:
339,146,93276,1,0,0:0:0:0:
348,123,93389,6,0,P|300:127|232:119,1,89.9999972534181,4|0,0:0|0:0,0:0:0:0:
176,48,93837,1,8,0:0:0:0:
140,160,94061,1,0,0:0:0:0:
140,160,94173,1,0,0:0:0:0:
140,160,94285,2,0,P|136:216|140:260,1,89.9999972534181,0|8,0:0|0:0,0:0:0:0:
64,336,94732,1,8,0:0:0:0:
208,336,94956,1,0,0:0:0:0:
208,336,95068,1,0,0:0:0:0:
208,336,95180,6,0,P|260:344|312:332,1,89.9999972534181,0|0,0:0|0:0,0:0:0:0:
436,344,95628,1,8,0:0:0:0:
368,224,95852,1,0,0:0:0:0:
368,224,95964,1,0,0:0:0:0:
368,224,96076,1,0,0:0:0:0:
296,337,96300,1,8,0:0:0:0:
296,337,96412,1,0,0:0:0:0:
296,337,96524,2,0,P|296:313|292:285,3,44.999998626709,8|0|0|0,0:0|0:0|0:0|0:0,0:0:0:0:
256,264,96971,6,0,P|248:216|264:152,1,89.9999972534181,0|0,0:0|0:0,0:0:0:0:
332,92,97419,1,8,0:0:0:0:
168,92,97643,1,0,0:0:0:0:
168,92,97755,1,0,0:0:0:0:
168,92,97867,2,0,P|160:140|168:196,1,89.9999972534181,0|8,0:0|0:0,0:0:0:0:
256,264,98315,1,8,0:0:0:0:
84,264,98538,1,0,0:0:0:0:
84,264,98650,1,0,0:0:0:0:
84,264,98762,6,0,P|76:224|92:160,1,89.9999972534181,0|0,0:0|0:0,0:0:0:0:
254,175,99210,2,0,P|262:223|246:287,1,89.9999972534181,8|0,0:0|0:0,0:0:0:0:
84,176,99658,2,0,P|76:136|92:72,1,89.9999972534181,4|0,0:0|0:0,0:0:0:0:
84,0,99994,2,0,P|122:13|170:58,1,89.9999972534181,4|0,0:0|0:0,0:0:0:0:
236,88,100330,1,4,0:0:0:0:
236,88,100441,1,0,0:0:0:0:
236,88,100553,6,0,P|205:114|141:133,1,89.9999972534181,4|0,0:0|0:0,0:0:0:0:
24,128,101001,1,8,0:0:0:0:
144,240,101225,1,0,0:0:0:0:
144,240,101337,1,0,0:0:0:0:
144,240,101449,2,0,P|140:288|144:330,1,89.9999972534181,0|8,0:0|0:0,0:0:0:0:
284,328,101897,1,8,0:0:0:0:
144,240,102121,1,0,0:0:0:0:
144,240,102232,1,0,0:0:0:0:
144,240,102344,6,0,P|96:232|36:244,1,89.9999972534181,0|0,0:0|0:0,0:0:0:0:
8,328,102792,1,8,0:0:0:0:
8,152,103016,1,0,0:0:0:0:
8,152,103128,1,0,0:0:0:0:
8,152,103240,2,0,P|32:140|60:132,3,44.999998626709,0|0|0|0,0:0|0:0|0:0|0:0,0:0:0:0:
96,136,103688,2,0,P|117:143|137:153,3,44.999998626709,8|0|0|0,0:0|0:0|0:0|0:0,0:0:0:0:
184,160,104135,6,0,P|236:168|288:160,1,89.9999972534181,0|0,0:0|0:0,0:0:0:0:
408,116,104583,1,8,0:0:0:0:
372,248,104807,1,0,0:0:0:0:
372,248,104919,1,0,0:0:0:0:
372,248,105031,2,0,P|364:300|364:356,1,89.9999972534181
490,280,105479,1,8,0:0:0:0:
494,257,105590,1,0,0:0:0:0:
497,235,105702,1,0,0:0:0:0:
498,213,105814,1,0,0:0:0:0:
498,190,105926,5,12,0:0:0:0:
304,192,106150,1,12,0:0:0:0:
