osu file format v14

[General]
AudioFilename: Kaichou wa Maid-sama OST- Main Theme.mp3
AudioLeadIn: 0
PreviewTime: 25326
Countdown: 0
SampleSet: Soft
StackLeniency: 0.8
Mode: 0
LetterboxInBreaks: 0
WidescreenStoryboard: 1

[Editor]
DistanceSpacing: 1.3
BeatDivisor: 3
GridSize: 4
TimelineZoom: 1

[Metadata]
Title:Main Theme
TitleUnicode:メインテーマ
Artist:Maeguchi Wataru
ArtistUnicode:前口渉
Creator:Sidetail
Version:Easy
Source:会長はメイド様!
Tags:Class President is a Maid! Maid Sama! Instrumental OST
BeatmapID:412442
BeatmapSetID:148916

[Difficulty]
HPDrainRate:1
CircleSize:2
OverallDifficulty:2
ApproachRate:3
SliderMultiplier:0.8
SliderTickRate:1

[Events]
//Background and Video events
0,0,"bg.jpg",0,0
//Break Periods
//Storyboard Layer 0 (Background)
//Storyboard Layer 1 (Fail)
//Storyboard Layer 2 (Pass)
//Storyboard Layer 3 (Foreground)
//Storyboard Sound Samples

[TimingPoints]
-556,588.235294117647,4,2,1,30,1,0
8863,594.059405940594,4,2,1,30,1,0
10032,588.235294117647,4,2,1,30,1,0
11208,588.235294117647,4,2,1,30,1,0
25330,447.761194029851,4,2,1,50,1,0
27121,-100,4,2,1,70,0,1
33389,-100,4,2,1,60,0,1
34285,-100,4,2,1,70,0,1
41449,-100,4,2,1,50,0,0
55777,-100,4,2,1,60,0,0
64732,-100,4,2,1,70,0,1
71001,-100,4,2,1,60,0,1
71897,-100,4,2,1,70,0,1
78165,-100,4,2,1,60,0,1
79061,-100,4,2,1,70,0,1
85330,-100,4,2,1,60,0,1
86225,-100,4,2,1,70,0,1
93389,-100,4,2,1,50,0,0

[Colours]
Combo1 : 128,64,64
Combo2 : 0,128,192
Combo3 : 208,0,104
Combo4 : 255,83,83
Combo5 : 0,128,64

[HitObjects]
256,192,20619,12,0,24148,0:0:0:0:
320,256,25330,6,0,P|328:208|316:153,1,80,4|4,0:0|0:0,0:0:0:0:
304,76,26225,1,12,0:0:0:0:
100,36,27121,6,0,P|72:116|108:200,1,160,4|0,0:0|0:0,0:0:0:0:
132,280,28464,1,8,0:0:0:0:
200,204,28912,2,0,P|276:192|392:220,1,160,0|0,0:0|0:0,0:0:0:0:
452,248,30255,1,8,0:0:0:0:
488,152,30703,6,0,P|494:108|488:63,1,80,0|8,0:0|0:0,0:0:0:0:
396,28,31598,2,0,P|389:71|395:116,1,80,0|8,0:0|0:0,0:0:0:0:
357,205,32494,2,0,P|320:282|261:326,1,160,0|12,0:0|0:0,0:0:0:0:
88,212,34285,6,0,P|124:134|183:90,1,160,4|0,0:0|0:0,0:0:0:0:
284,75,35628,1,8,0:0:0:0:
387,87,36076,2,0,P|449:135|480:208,1,160,0|0,0:0|0:0,0:0:0:0:
469,311,37419,1,8,0:0:0:0:
376,358,37867,6,0,P|332:365|287:358,1,80,0|8,0:0|0:0,0:0:0:0:
257,264,38762,2,0,P|213:257|168:264,1,80,0|8,0:0|0:0,0:0:0:0:
113,342,39658,2,0,P|124:256|117:165,1,160,0|10,0:0|0:0,0:0:0:0:
44,111,41001,1,2,0:0:0:0:
142,78,41449,6,0,P|206:31|210:143,1,240,2|8,0:0|0:0,0:0:0:0:
208,244,43240,2,0,P|282:308|299:211,1,240,2|8,0:0|0:0,0:0:0:0:
322,109,45031,6,0,P|386:62|390:174,1,240,2|8,0:0|0:0,0:0:0:0:
299,211,46822,2,0,P|294:262|305:309,1,80,2|2,0:0|0:0,0:0:0:0:
390,340,47718,2,0,P|395:289|384:242,1,80,2|10,0:0|0:0,0:0:0:0:
299,211,48613,6,0,P|209:230|137:212,1,160,2|2,0:0|0:0,0:0:0:0:
66,146,49956,1,8,0:0:0:0:
144,77,50404,2,0,P|234:58|306:76,1,160,2|2,0:0|0:0,0:0:0:0:
378,139,51747,1,8,0:0:0:0:
479,114,52195,6,0,P|472:198|482:283,1,160,2|2,0:0|0:0,0:0:0:0:
420,358,53538,1,8,0:0:0:0:
316,346,53986,2,0,P|240:335|130:355,1,160,2|0,0:0|0:0,0:0:0:0:
54,355,55330,1,10,0:0:0:0:
98,260,55777,6,0,P|88:167|101:94,1,160,4|0,0:0|0:0,0:0:0:0:
154,13,57121,1,8,0:0:0:0:
255,35,57568,2,0,P|299:40|361:26,1,80,0|8,0:0|0:0,0:0:0:0:
438,27,58464,2,0,P|446:67|431:123,1,80,0|8,0:0|0:0,0:0:0:0:
448,208,59359,6,0,P|366:193|271:214,1,160,0|0,0:0|0:0,0:0:0:0:
197,251,60703,1,8,0:0:0:0:
113,188,61150,2,0,P|108:140|130:85,1,80,0|8,0:0|0:0,0:0:0:0:
213,72,62046,2,0,P|218:120|196:175,1,80,0|8,0:0|0:0,0:0:0:0:
197,251,62941,6,0,P|192:299|214:354,1,80,12|12,0:0|0:0,0:0:0:0:
298,363,63837,1,12,0:0:0:0:
450,226,64732,6,0,P|373:203|283:228,1,160,4|0,0:0|0:0,0:0:0:0:
197,251,66076,1,8,0:0:0:0:
99,216,66524,2,0,P|87:140|115:24,1,160,0|0,0:0|0:0,0:0:0:0:
197,20,67867,1,8,0:0:0:0:
287,70,68315,6,0,P|281:114|287:159,1,80,0|8,0:0|0:0,0:0:0:0:
379,194,69210,2,0,P|386:151|380:106,1,80,0|8,0:0|0:0,0:0:0:0:
287,70,70106,2,0,P|211:50|105:87,1,160,0|12,0:0|0:0,0:0:0:0:
132,280,71897,6,0,P|208:300|314:263,1,160,4|0,0:0|0:0,0:0:0:0:
385,254,73240,1,8,0:0:0:0:
488,268,73688,2,0,P|476:192|504:76,1,160,0|0,0:0|0:0,0:0:0:0:
498,7,75031,1,8,0:0:0:0:
401,45,75479,6,0,P|357:39|312:45,1,80,0|8,0:0|0:0,0:0:0:0:
218,34,76374,2,0,P|211:77|217:122,1,80,0|8,0:0|0:0,0:0:0:0:
179,211,77270,2,0,P|226:218|268:207,1,80,0|8,0:0|0:0,0:0:0:0:
335,143,78165,1,12,0:0:0:0:
138,75,79061,6,0,P|121:158|142:240,1,160,4|0,0:0|0:0,0:0:0:0:
148,332,80404,1,8,0:0:0:0:
233,275,80852,2,0,P|309:263|425:291,1,160,0|0,0:0|0:0,0:0:0:0:
476,334,82195,1,8,0:0:0:0:
484,230,82643,6,0,P|490:186|484:141,1,80,0|8,0:0|0:0,0:0:0:0:
399,93,83538,2,0,P|392:136|398:181,1,80,0|8,0:0|0:0,0:0:0:0:
390,276,84434,2,0,P|306:294|235:274,1,160,0|12,0:0|0:0,0:0:0:0:
235,67,86225,6,0,P|318:48|389:68,1,160,4|0,0:0|0:0,0:0:0:0:
463,140,87568,1,8,0:0:0:0:
363,170,88016,2,0,P|352:251|368:338,1,160,0|0,0:0|0:0,0:0:0:0:
269,369,89359,1,8,0:0:0:0:
181,312,89807,6,0,P|137:306|92:312,1,80,0|8,0:0|0:0,0:0:0:0:
15,251,90703,2,0,P|11:211|18:171,1,80,0|8,0:0|0:0,0:0:0:0:
109,121,91598,2,0,P|150:125|188:120,1,80,0|8,0:0|0:0,0:0:0:0:
275,66,92494,1,0,0:0:0:0:
368,110,92941,1,8,0:0:0:0:
284,171,93389,6,0,P|267:252|290:343,1,160,4|0,0:0|0:0,0:0:0:0:
383,349,94732,1,8,0:0:0:0:
484,328,95180,2,0,P|501:247|478:156,1,160,0|0,0:0|0:0,0:0:0:0:
406,104,96524,1,8,0:0:0:0:
330,32,96971,6,0,P|251:44|173:34,1,160,0|0,0:0|0:0,0:0:0:0:
68,22,98315,1,8,0:0:0:0:
30,118,98762,2,0,P|25:167|38:225,1,80,0|8,0:0|0:0,0:0:0:0:
77,289,99658,2,0,P|127:283|177:295,1,80,12|0,0:0|0:0,0:0:0:0:
254,324,100553,6,0,P|248:235|250:138,1,160,4|0,0:0|0:0,0:0:0:0:
272,62,101897,1,8,0:0:0:0:
345,135,102344,2,0,P|423:148|526:129,1,160,0|0,0:0|0:0,0:0:0:0:
475,36,103688,1,8,0:0:0:0:
371,32,104135,5,0,0:0:0:0:
256,192,104359,12,12,105927,0:0:0:0:
