osu file format v14

[General]
AudioFilename: audio.mp3
AudioLeadIn: 0
PreviewTime: 122738
Countdown: 0
SampleSet: Soft
StackLeniency: 0.7
Mode: 0
LetterboxInBreaks: 0
WidescreenStoryboard: 1

[Editor]
Bookmarks: 750,47581,79288,93671,122738,155114,188148,205619
DistanceSpacing: 1.3
BeatDivisor: 8
GridSize: 32
TimelineZoom: 1.9

[Metadata]
Title:Takaramono ni Natta Hi
TitleUnicode:宝物になった日
Artist:Maeda Jun x yanaginagi
ArtistUnicode:麻枝准×やなぎなぎ
Creator:HeTo
Version:Miracle
Source:神様になった日
Tags:the day i became a god kamisama ni natta hi pop jpop j-pop anime japanese full ver version ost theme ed ending episode 5 yanagi nagi key visualarts 12
BeatmapID:2765074
BeatmapSetID:1334762

[Difficulty]
HPDrainRate:5
CircleSize:4.5
OverallDifficulty:5.5
ApproachRate:7.4
SliderMultiplier:1.58
SliderTickRate:1

[Events]
//Background and Video events
0,0,"hina.jpg",0,0
//Break Periods
//Storyboard Layer 0 (Background)
//Storyboard Layer 1 (Fail)
//Storyboard Layer 2 (Pass)
//Storyboard Layer 3 (Foreground)
//Storyboard Layer 4 (Overlay)
//Storyboard Sound Samples

[TimingPoints]
750,857.142857142857,4,2,1,30,1,0
750,-133.333333333333,4,2,1,30,0,0
1608,-133.333333333333,4,2,1,30,0,0
2461,895.5223880597,4,2,1,30,1,0
2461,-133.333333333333,4,2,1,30,0,0
3133,1052.63157894736,4,2,1,30,1,0
3396,983.606557377049,4,2,1,30,1,0
3640,1034.48275862069,4,2,1,30,1,0
3897,983.606557377049,4,2,1,30,1,0
4391,923.076923076923,4,2,1,30,1,0
4391,-133.333333333333,4,2,1,30,0,0
5314,967.741935483871,4,2,1,30,1,0
5314,-133.333333333333,4,2,1,30,0,0
6285,882.352941176469,4,2,1,30,1,0
6285,-133.333333333333,4,2,1,30,0,0
6946,923.076923076923,4,2,1,30,1,0
7209,1071.42857142857,4,2,1,30,1,0
7475,1016.94915254237,4,2,1,30,1,0
7731,1052.63157894736,4,2,1,30,1,0
8257,944.88188976378,4,2,1,30,1,0
8257,-133.333333333333,4,2,1,30,0,0
9205,952.380952380952,4,2,1,30,1,0
9205,-133.333333333333,4,2,1,30,0,0
9681,983.606557377049,4,2,1,30,1,0
10111,810.810810810811,4,2,1,30,1,0
10161,875.912408759124,4,2,1,30,1,0
10161,-133.333333333333,4,2,1,30,0,0
10816,1034.48275862069,4,2,1,30,1,0
11076,983.606557377049,4,2,1,30,1,0
11562,960,4,2,1,30,1,0
12041,983.606557377049,4,2,1,30,1,0
12534,937.5,4,2,1,30,1,0
13001,960,4,2,1,30,1,0
13483,967.741935483871,4,2,1,30,1,0
13965,1008.40336134454,4,2,1,30,1,0
13965,-133.333333333333,4,2,1,30,0,0
14721,1153.84615384615,4,2,1,30,1,0
15005,1052.63157894737,4,2,1,30,1,0
15269,1176.47058823529,4,2,1,30,1,0
15566,1538.46153846154,4,2,1,30,1,0
16237,750,4,2,1,30,1,0
16284,821.917808219178,4,2,1,30,1,0
16284,-133.333333333333,4,2,1,30,0,0
17107,869.565217391304,4,2,1,30,1,0
17974,882.352941176471,4,2,1,30,1,0
18634,1071.42857142857,4,2,1,30,1,0
18901,1071.42857142857,4,2,1,30,1,0
19172,1034.48275862069,4,2,1,30,1,0
19431,1052.63157894737,4,2,1,30,1,0
19955,952.380952380952,4,2,1,30,1,0
19955,-133.333333333333,4,2,1,30,0,0
20909,967.741935483871,4,2,1,30,1,0
21388,967.741935483871,4,2,1,30,1,0
21872,882.352941176471,4,2,1,30,1,0
21872,-90.9090909090909,4,2,1,30,0,0
22533,1071.42857142857,4,2,1,30,1,0
22799,1071.42857142857,4,2,1,30,1,0
23066,1016.94915254237,4,2,1,30,1,0
23574,1090.90909090909,4,2,1,30,1,0
23846,991.735537190084,4,2,1,30,1,0
24838,1052.63157894737,4,2,1,30,1,0
25361,1034.48275862069,4,2,1,30,1,0
25816,722.89156626506,4,2,1,30,1,0
25861,923.076923076923,4,2,1,30,1,0
26324,857.142857142857,4,2,1,30,1,0
26540,923.076923076923,4,2,1,30,1,0
26792,1000,4,2,1,30,1,0
27044,952.380952380952,4,2,1,30,1,0
27283,1016.94915254237,4,2,1,30,1,0
27730,779.220779220779,4,2,1,30,1,0
27778,983.606557377049,4,2,1,30,1,0
27778,-133.333333333333,4,2,1,30,0,0
28762,1016.94915254237,4,2,1,30,1,0
29266,967.741935483871,4,2,1,30,1,0
29748,952.380952380952,4,2,1,30,1,0
29748,-181.818181818181,4,2,1,30,0,0
30224,1379.31034482759,4,2,1,30,1,0
30917,902.255639097744,4,2,1,30,1,0
32216,1034.48275862069,4,2,1,30,1,0
32282,869.565217391304,4,2,1,30,1,0
32282,-117.647058823529,4,2,1,30,0,0
32719,821.917808219178,4,2,1,30,1,0
33127,869.565217391304,4,2,1,30,1,0
33994,833.333333333333,4,2,1,30,1,0
33994,-117.647058823529,4,2,1,30,0,0
35673,857.142857142857,4,2,1,30,1,0
35673,-117.647058823529,4,2,1,30,0,0
36530,833.333333333333,4,2,1,30,1,0
37367,821.917808219178,4,2,1,30,1,0
37367,-133.333333333333,4,2,1,30,0,0
37781,882.352941176471,4,2,1,30,1,0
38222,869.565217391304,4,2,1,30,1,0
39075,833.333333333333,4,2,1,30,1,0
39075,-133.333333333333,4,2,1,30,0,0
39912,845.070422535211,4,2,1,30,1,0
39912,-117.647058823529,4,2,1,30,0,0
40334,869.565217391304,4,2,1,30,1,0
41203,909.090909090909,4,2,1,30,1,0
41661,952.380952380952,4,2,1,30,1,0
42137,895.522388059701,4,2,1,30,1,0
42583,983.606557377049,4,2,1,30,1,0
43566,1008.40336134454,4,2,1,30,1,0
43566,-153.846153846153,4,2,1,30,0,0
45582,-153.846153846153,4,2,1,15,0,0
47095,-153.846153846153,4,2,1,5,0,0
47475,857.142857142857,4,2,1,30,1,0
47581,882.352941176471,4,2,1,30,1,0
47581,-117.647058823529,4,2,1,30,0,0
48021,845.070422535211,4,2,1,30,1,0
48444,833.333333333333,4,2,1,30,1,0
49284,869.565217391304,4,2,1,30,1,0
49941,1016.94915254237,4,2,1,30,1,0
50196,983.606557377049,4,2,1,30,1,0
50688,1016.94915254237,4,2,1,30,1,0
51197,983.606557377049,4,2,1,30,1,0
51197,-117.647058823529,4,2,1,30,0,0
51688,952.380952380952,4,2,1,30,1,0
52164,1034.48275862069,4,2,1,30,1,0
52681,952.380952380952,4,2,1,30,1,0
53161,923.076923076923,4,2,1,30,1,0
53855,952.380952380952,4,2,1,30,1,0
54092,1071.42857142857,4,2,1,30,1,0
54360,1016.94915254237,4,2,1,30,1,0
54616,967.741935483871,4,2,1,30,1,0
55098,1000,4,2,1,30,1,0
55098,-117.647058823529,4,2,1,30,0,0
55600,1071.42857142857,4,2,1,30,1,0
56138,967.741935483871,4,2,1,30,1,0
56623,1016.94915254237,4,2,1,30,1,0
57127,909.090909090909,4,2,1,30,1,0
57581,952.380952380952,4,2,1,30,1,0
57816,882.352941176471,4,2,1,30,1,0
58035,1016.94915254237,4,2,1,30,1,0
58289,869.565217391304,4,2,1,30,1,0
58502,1034.48275862069,4,2,1,30,1,0
59015,1071.42857142857,4,2,1,30,1,0
59015,-117.647058823529,4,2,1,30,0,0
59550,1034.48275862069,4,2,1,30,1,0
60063,1000,4,2,1,30,1,0
60063,-133.333333333333,4,2,1,30,0,0
60563,1034.48275862069,4,2,1,30,1,0
61080,1034.48275862069,4,2,1,30,1,0
61080,-153.846153846153,4,2,1,30,0,0
61599,937.5,4,2,1,30,1,0
61840,1333.33333333333,4,2,1,30,1,0
62175,1200,4,2,1,30,1,0
62175,-133.333333333333,4,2,1,30,0,0
62775,983.606557377049,4,2,1,30,1,0
62775,-153.846153846153,4,2,1,30,0,0
63514,923.076923076923,4,2,1,30,1,0
63978,833.333333333333,4,2,1,30,1,0
64392,857.142857142857,4,2,1,30,1,0
64821,821.917808219178,4,2,1,30,1,0
65232,952.380952380952,4,2,1,30,1,0
65708,983.606557377049,4,2,1,30,1,0
65952,705.882352941176,4,2,1,30,1,0
66125,1016.94915254237,4,2,1,30,1,0
66632,983.606557377049,4,2,1,30,1,0
67121,1016.94915254237,4,2,1,30,1,0
67633,1000,4,2,1,30,1,0
68132,1016.94915254237,4,2,1,30,1,0
68643,952.380952380952,4,2,1,30,1,0
69120,857.142857142857,4,2,1,30,1,0
69549,923.076923076923,4,2,1,30,1,0
70241,1132.07547169811,4,2,1,30,1,0
70520,923.076923076922,4,2,1,30,1,0
70751,1224.48979591836,4,2,1,30,1,0
71055,952.380952380952,4,2,1,30,1,0
72016,1000,4,2,1,30,1,0
72518,967.741935483871,4,2,1,30,1,0
73003,909.090909090909,4,2,1,30,1,0
73459,1034.48275862069,4,2,1,30,1,0
73721,789.473684210526,4,2,1,30,1,0
73916,1111.11111111111,4,2,1,30,1,0
74193,1250,4,2,1,30,1,0
74502,845.070422535211,4,2,1,30,1,0
74818,-100,4,2,1,5,0,0
74928,1016.94915254237,4,2,1,30,1,0
75944,983.606557377049,4,2,1,30,1,0
76428,999.999999999997,4,2,1,30,1,0
76928,1071.42857142857,4,2,1,30,1,0
77463,1176.47058823529,4,2,1,30,1,0
78051,1237.11340206186,4,2,1,30,1,0
78051,-133.333333333333,4,2,1,30,0,0
78824,-133.333333333333,4,2,1,5,0,0
79288,869.565217391304,4,2,1,30,1,0
80918,-100,4,2,1,5,0,0
81027,882.352941176471,4,2,1,30,1,0
81469,857.142857142857,4,2,1,30,1,0
82752,923.076923076923,4,2,1,30,1,0
83674,869.565217391304,4,2,1,30,1,0
84434,-100,4,2,1,5,0,0
84548,952.380952380952,4,2,1,30,1,0
85025,923.076923076923,4,2,1,30,1,0
86410,888.888888888889,4,2,1,30,1,0
87301,833.333333333333,4,2,1,30,1,0
87613,-100,4,2,1,5,0,0
87718,882.352941176471,4,2,1,30,1,0
88159,909.090909090909,4,2,1,30,1,0
88613,869.565217391304,4,2,1,30,1,0
89045,923.076923076923,4,2,1,30,1,0
89506,845.070422535211,4,2,1,30,1,0
89926,909.090909090909,4,2,1,30,1,0
89926,-117.647058823529,4,2,1,30,0,0
90835,923.076923076923,4,2,1,30,1,0
91762,952.380952380952,4,2,1,30,1,0
91762,-153.846153846153,4,2,1,30,0,0
93547,-153.846153846153,4,2,1,5,0,0
93671,923.076923076923,4,2,1,30,1,0
93671,-105.263157894737,4,2,1,40,0,0
94940,-105.263157894737,4,2,1,5,0,0
95056,857.142857142857,4,2,1,40,1,0
95484,882.352941176471,4,2,1,40,1,0
95484,-95.2380952380951,4,2,1,40,0,0
96366,937.5,4,2,1,40,1,0
96829,983.606557377049,4,2,1,40,1,0
97323,909.090909090909,4,2,1,40,1,0
97323,-90.9090909090909,4,2,1,40,0,0
98118,-90.9090909090909,4,2,1,5,0,0
98235,909.090909090909,4,2,1,40,1,0
98235,-90.9090909090909,4,2,1,40,0,0
99030,-90.9090909090909,4,2,1,5,0,0
99145,923.076923076923,4,2,1,40,1,0
99145,-90.9090909090909,4,2,1,40,0,0
100065,923.076923076923,4,2,1,40,1,0
100526,882.352941176471,4,2,1,40,1,0
100977,909.090909090909,4,2,1,40,1,0
100977,-95.2380952380951,4,2,1,40,0,0
101887,952.380952380949,4,2,1,40,1,0
102363,882.352941176471,4,2,1,40,1,0
102805,895.522388059701,4,2,1,40,1,0
102805,-95.2380952380951,4,2,1,40,0,0
103253,779.220779220779,4,2,1,40,1,0
103447,1034.48275862069,4,2,1,40,1,0
103709,909.090909090909,4,2,1,40,1,0
104163,923.076923076923,4,2,1,40,1,0
104619,909.090909090909,4,2,1,40,1,0
104619,-90.9090909090909,4,2,1,40,0,0
105414,-90.9090909090909,4,2,1,5,0,0
105528,895.522388059701,4,2,1,40,1,0
105528,-90.9090909090909,4,2,1,40,0,0
106311,-90.9090909090909,4,2,1,5,0,0
106424,895.522388059701,4,2,1,40,1,0
106424,-90.9090909090909,4,2,1,40,0,0
107207,-90.9090909090909,4,2,1,5,0,0
107323,1034.48275862069,4,2,1,40,1,0
107584,983.606557377049,4,2,1,40,1,0
108318,857.142857142857,4,2,1,40,1,0
108318,-95.2380952380952,4,2,1,40,0,0
108747,895.522388059701,4,2,1,40,1,0
109199,937.5,4,2,1,40,1,0
109199,-95.2380952380952,4,2,1,40,0,0
109667,857.142857142857,4,2,1,40,1,0
110101,937.5,4,2,1,40,1,0
110569,857.142857142857,4,2,1,40,1,0
111003,895.522388059701,4,2,1,40,1,0
111451,937.5,4,2,1,40,1,0
111914,882.352941176471,4,2,1,40,1,0
112796,909.090909090909,4,2,1,40,1,0
113249,882.352941176471,4,2,1,40,1,0
113249,-95.2380952380951,4,2,1,40,0,0
113579,-95.2380952380951,4,2,1,5,0,0
113687,937.5,4,2,1,40,1,0
114156,869.565217391304,4,2,1,40,1,0
114369,983.606557377049,4,2,1,40,1,0
114614,857.142857142857,4,2,1,40,1,0
115041,895.522388059701,4,2,1,40,1,0
115489,937.5,4,2,1,40,1,0
115957,810.810810810811,4,2,1,40,1,0
116155,923.076923076923,4,2,1,40,1,0
116618,895.522388059701,4,2,1,40,1,0
116839,857.142857142857,4,2,1,40,1,0
117269,909.090909090909,4,2,1,40,1,0
118178,1034.48275862069,4,2,1,40,1,0
118438,714.285714285714,4,2,1,40,1,0
118438,-153.846153846153,4,2,1,40,0,0
119063,-153.846153846153,4,2,1,5,0,0
119151,909.090909090909,4,2,1,40,1,0
120055,909.090909090909,4,2,1,40,1,0
120967,895.522388059701,4,2,1,40,1,0
121862,845.070422535211,4,2,1,40,1,0
122286,833.333333333333,4,2,1,40,1,0
122493,983.606557377049,4,2,1,40,1,0
122738,895.522388059701,4,2,1,40,1,1
122738,-74.0740740740741,4,2,1,40,0,1
123633,869.565217391304,4,2,1,40,1,1
124072,857.142857142857,4,2,1,40,1,1
124500,882.352941176471,4,2,1,40,1,1
124500,-90.9090909090909,4,2,1,40,0,1
125051,-90.9090909090909,4,2,1,5,0,1
125161,967.741935483871,4,2,1,40,1,1
125886,1025.64102564103,4,2,1,40,1,1
126142,937.5,4,2,1,40,1,1
126376,909.090909090909,4,2,1,40,1,1
126376,-90.9090909090909,4,2,1,40,0,1
127171,-90.9090909090909,4,2,1,5,0,1
127285,895.522388059701,4,2,1,40,1,1
127285,-90.9090909090909,4,2,1,40,0,1
128068,-90.9090909090909,4,2,1,5,0,1
128181,923.076923076923,4,2,1,40,1,1
128181,-90.9090909090909,4,2,1,40,0,1
129104,937.5,4,2,1,40,1,1
129580,882.352941176471,4,2,1,40,1,1
130025,909.090909090909,4,2,1,40,1,1
130025,-83.3333333333333,4,2,1,40,0,1
130933,909.090909090909,4,2,1,40,1,1
131387,909.090909090909,4,2,1,40,1,1
131843,895.522388059701,4,2,1,40,1,1
131843,-90.9090909090909,4,2,1,40,0,1
132291,923.076923076923,4,2,1,40,1,1
132753,895.522388059701,4,2,1,40,1,1
133201,909.090909090909,4,2,1,40,1,1
133542,-100,4,2,1,5,0,1
133656,909.090909090909,4,2,1,40,1,1
133656,-90.9090909090909,4,2,1,40,0,1
134448,-90.9090909090909,4,2,1,5,0,1
134564,923.076923076923,4,2,1,40,1,1
134564,-90.9090909090909,4,2,1,40,0,1
135371,-90.9090909090909,4,2,1,5,0,1
135486,895.522388059701,4,2,1,40,1,1
135486,-90.9090909090909,4,2,1,40,0,1
136269,-90.9090909090909,4,2,1,5,0,1
136381,967.741935483871,4,2,1,40,1,1
137347,909.090909090909,4,2,1,40,1,1
137347,-95.2380952380952,4,2,1,40,0,1
139164,952.380952380952,4,2,1,40,1,1
139164,-95.2380952380952,4,2,1,40,0,1
139639,740.740740740741,4,2,1,40,1,1
139825,882.352941176471,4,2,1,40,1,1
140045,895.522388059701,4,2,1,40,1,1
140045,-95.2380952380952,4,2,1,40,0,1
140491,983.606557377049,4,2,1,40,1,1
140979,833.333333333333,4,2,1,40,1,1
141394,882.352941176471,4,2,1,40,1,1
141835,909.090909090909,4,2,1,40,1,1
141835,-90.9090909090909,4,2,1,40,0,1
142743,895.522388059701,4,2,1,40,1,1
144534,888.888888888889,4,2,1,40,1,1
145440,875.912408759124,4,2,1,40,1,1
146325,895.522388059701,4,2,1,40,1,1
147220,909.090909090909,4,2,1,40,1,1
148118,937.5,4,2,1,40,1,1
148118,-100,4,2,1,40,0,1
148585,937.5,4,2,1,40,1,1
149053,983.606557377049,4,2,1,40,1,1
149053,-111.111111111111,4,2,1,40,0,1
149544,909.090909090909,4,2,1,40,1,1
149999,1111.11111111111,4,2,1,40,1,1
149999,-125,4,2,1,40,0,1
150555,952.380952380952,4,2,1,40,1,1
150793,1428.57142857142,4,2,1,40,1,1
151148,1318.68131868132,4,2,1,30,1,0
155021,1481.48148148148,4,2,1,30,1,0
155114,857.142857142857,4,2,1,30,1,0
155114,-153.846153846153,4,2,1,30,0,0
155971,882.352941176471,4,2,1,30,1,0
156851,937.5,4,2,1,30,1,0
156851,-153.846153846153,4,2,1,30,0,0
157554,1111.11111111111,4,2,1,30,1,0
157834,1052.63157894737,4,2,1,30,1,0
158097,1111.11111111111,4,2,1,30,1,0
158373,1090.90909090909,4,2,1,30,1,0
158918,952.380952380952,4,2,1,30,1,0
158918,-153.846153846153,4,2,1,30,0,0
159870,909.090909090909,4,2,1,30,1,0
160778,923.076923076923,4,2,1,30,1,0
160778,-153.846153846153,4,2,1,30,0,0
161470,1016.94915254237,4,2,1,30,1,0
161725,1016.94915254237,4,2,1,30,1,0
161979,1052.63157894737,4,2,1,30,1,0
162240,1052.63157894737,4,2,1,30,1,0
162767,1034.48275862069,4,2,1,30,1,0
162767,-153.846153846153,4,2,1,30,0,0
163803,952.380952380952,4,2,1,30,1,0
163803,-153.846153846153,4,2,1,30,0,0
164756,967.741935483871,4,2,1,30,1,0
164756,-153.846153846153,4,2,1,30,0,0
165481,1016.94915254237,4,2,1,30,1,0
165735,983.606557377049,4,2,1,30,1,0
166227,1016.94915254237,4,2,1,30,1,0
166734,1000,4,2,1,30,1,0
166734,-153.846153846153,4,2,1,30,0,0
167734,1052.63157894737,4,2,1,30,1,0
168786,1176.47058823529,4,2,1,30,1,0
168786,-153.846153846153,4,2,1,30,0,0
169668,1132.07547169811,4,2,1,30,1,0
169951,1176.47058823529,4,2,1,30,1,0
170242,1333.33333333333,4,2,1,30,1,0
170576,1500,4,2,1,30,1,0
171233,882.352941176471,4,2,1,30,1,0
171289,833.333333333333,4,2,1,30,1,0
171289,-153.846153846153,4,2,1,30,0,0
172123,869.565217391304,4,2,1,30,1,0
172991,952.380952380952,4,2,1,30,1,0
172991,-153.846153846153,4,2,1,30,0,0
173705,1132.07547169811,4,2,1,30,1,0
173986,1016.94915254237,4,2,1,30,1,0
174240,1034.48275862069,4,2,1,30,1,0
174499,1052.63157894737,4,2,1,30,1,0
175024,1034.48275862069,4,2,1,30,1,0
175024,-153.846153846153,4,2,1,30,0,0
176574,869.565217391304,4,2,1,30,1,0
177009,895.522388059701,4,2,1,30,1,0
177009,-153.846153846153,4,2,1,30,0,0
177456,759.493670886076,4,2,1,30,1,0
177643,1111.11111111111,4,2,1,30,1,0
177920,1224.48979591837,4,2,1,30,1,0
178227,1132.07547169811,4,2,1,30,1,0
178510,1016.94915254237,4,2,1,30,1,0
178765,1153.84615384615,4,2,1,30,1,0
179052,983.606557377049,4,2,1,30,1,0
179052,-153.846153846153,4,2,1,30,0,0
181018,882.352941176471,4,2,1,30,1,0
181018,-153.846153846153,4,2,1,30,0,0
181680,923.076923076923,4,2,1,30,1,0
181909,1000,4,2,1,30,1,0
182159,1052.63157894737,4,2,1,30,1,0
182419,1034.48275862069,4,2,1,30,1,0
182936,1034.48275862069,4,2,1,30,1,0
182936,-153.846153846153,4,2,1,30,0,0
183453,1016.94915254237,4,2,1,30,1,0
183966,1132.07547169811,4,2,1,30,1,0
183966,-181.818181818181,4,2,1,30,0,0
184532,1395.3488372093,4,2,1,30,1,0
185229,-222.222222222221,4,2,1,30,0,0
185928,1463.41463414634,4,2,1,30,1,0
186658,1518.98734177215,4,2,1,30,1,0
188079,1132.07547169811,4,2,1,30,1,0
188148,882.35294117647,4,2,1,30,1,0
188148,-133.333333333333,4,2,1,30,0,0
194765,909.090909090909,4,2,1,30,1,0
195220,882.35294117647,4,2,1,30,1,0
195220,-133.333333333333,4,2,1,30,0,0
196984,909.090909090909,4,2,1,30,1,0
196984,-133.333333333333,4,2,1,30,0,0
197895,952.380952380952,4,2,1,30,1,0
197895,-133.333333333333,4,2,1,30,0,0
198372,882.35294117647,4,2,1,30,1,0
198813,1071.42857142857,4,2,1,30,1,0
199884,882.35294117647,4,2,1,30,1,0
199884,-196.078431372549,4,2,1,30,0,0
200766,-196.078431372549,4,2,1,20,0,0
201648,-196.078431372549,4,2,1,15,0,0
203413,-196.078431372549,4,2,1,10,0,0
205619,-196.078431372549,4,2,1,5,0,0

[Colours]
Combo1 : 146,237,250
Combo2 : 255,176,216
Combo3 : 251,247,96
Combo4 : 132,232,57

[HitObjects]
138,57,750,6,0,P|109:60|67:135,1,118.500004520416,2|2,0:0|0:0,0:0:0:0:
145,211,2461,2,0,P|185:215|234:232,1,88.8750033903123,2|2,0:0|0:0,0:0:0:0:
343,91,3396,5,2,0:0:0:0:
281,142,3641,1,2,0:0:0:0:
318,207,3898,1,2,0:0:0:0:
383,159,4391,6,0,P|412:162|454:237,1,118.500004520416,2|2,0:0|0:0,0:0:0:0:
373,324,5797,1,0,0:0:0:0:
373,324,6285,2,0,P|331:309|287:304,1,88.8750033903123,2|2,0:0|0:0,0:0:0:0:
182,161,7209,5,2,0:0:0:0:
238,211,7475,1,2,0:0:0:0:
197,278,7731,1,2,0:0:0:0:
139,226,8191,5,2,0:0:0:0:
130,224,8257,2,0,P|102:235|70:240,1,59.2500022602082,2|0,0:0|0:0,0:0:0:0:
112,363,9205,2,0,P|139:352|171:346,1,59.2500022602082,2|0,0:0|0:0,0:0:0:0:
297,278,10111,5,2,0:0:0:0:
303,274,10161,2,0,P|305:230|311:184,1,88.8750033903123,2|2,0:0|0:0,0:0:0:0:
315,40,11076,5,2,0:0:0:0:
389,30,11321,1,2,0:0:0:0:
423,97,11562,1,2,0:0:0:0:
343,119,11982,5,2,0:0:0:0:
337,126,12041,2,0,P|300:118|255:132,1,79,2|0,0:0|0:0,0:0:0:0:
403,209,13001,2,0,P|427:181|442:138,1,79,2|0,0:0|0:0,0:0:0:0:
297,217,13965,2,0,P|306:252|341:295,1,88.8750033903123,2|2,0:0|0:0,0:0:0:0:
509,274,15005,5,2,0:0:0:0:
474,206,15269,1,2,0:0:0:0:
402,222,15563,1,2,0:0:0:0:
432,295,16237,5,2,0:0:0:0:
428,304,16284,2,0,B|358:314|388:340|321:352,1,118.500004520416,2|2,0:0|0:0,0:0:0:0:
247,251,17541,1,2,0:0:0:0:
247,251,17974,2,0,P|241:223|265:181,1,79,2|0,0:0|0:0,0:0:0:0:
338,70,18634,5,2,0:0:0:0:
338,70,18901,1,2,0:0:0:0:
292,8,19168,1,2,0:0:0:0:
222,34,19431,1,2,0:0:0:0:
261,105,19955,6,0,B|191:95|224:63|154:57,1,118.500004520416,2|2,0:0|0:0,0:0:0:0:
49,147,21388,1,0,0:0:0:0:
49,147,21872,2,0,P|25:172|24:227,1,86.9000026519776,2|0,0:0|0:0,0:0:0:0:
137,295,22533,5,2,0:0:0:0:
137,295,22799,1,2,0:0:0:0:
212,253,23066,1,2,0:0:0:0:
210,179,23320,1,2,0:0:0:0:
192,161,23574,1,2,0:0:0:0:
193,148,23846,6,0,B|289:143|245:92|336:85,1,158,2|2,0:0|0:0,0:0:0:0:
504,199,25816,1,2,0:0:0:0:
499,205,25861,2,0,P|492:244|488:290,1,79,2|0,0:0|0:0,0:0:0:0:
394,354,26540,5,2,0:0:0:0:
394,354,26792,1,2,0:0:0:0:
322,328,27042,1,2,0:0:0:0:
321,252,27282,1,2,0:0:0:0:
400,269,27727,5,2,0:0:0:0:
405,263,27778,2,0,P|412:214|414:144,1,118.500004520416,2|2,0:0|0:0,0:0:0:0:
377,76,29749,2,0,P|358:76|335:70,1,43.4500013259888,2|0,0:0|0:0,0:0:0:0:
221,122,30917,5,2,0:0:0:0:
7,227,32216,5,2,0:0:0:0:
14,233,32282,2,0,P|55:238|81:250,1,67.1500012807846,2|0,0:0|0:0,0:0:0:0:
179,152,33127,1,2,0:0:0:0:
130,94,33561,1,2,0:0:0:0:
139,87,33994,6,0,P|146:52|147:14,2,67.1500012807846,2|0|2,0:0|0:0|0:0,0:0:0:0:
177,157,35244,1,2,0:0:0:0:
292,73,35673,6,0,P|320:83|363:88,1,67.1500012807846,2|0,0:0|0:0,0:0:0:0:
255,238,36530,1,2,0:0:0:0:
309,297,36946,1,2,0:0:0:0:
317,310,37367,6,0,P|315:339|311:373,1,59.2500022602082,2|0,0:0|0:0,0:0:0:0:
435,239,38222,1,2,0:0:0:0:
376,189,38656,1,2,0:0:0:0:
435,137,39037,5,2,0:0:0:0:
441,133,39075,2,0,P|447:87|448:68,1,59.2500022602082,2|0,0:0|0:0,0:0:0:0:
315,236,39912,2,0,P|287:222|247:220,1,67.1500012807846,2|2,0:0|0:0,0:0:0:0:
140,275,40768,5,2,0:0:0:0:
65,196,41203,1,2,0:0:0:0:
98,126,41661,1,2,0:0:0:0:
172,130,42137,1,2,0:0:0:0:
141,197,42583,5,2,0:0:0:0:
282,91,43566,6,0,B|278:21|200:8|200:8|171:88|234:151|252:110|323:170|290:240,1,397.962481782723,2|0,0:0|0:0,0:0:0:0:
290,255,47581,6,0,P|318:268|360:276,1,67.1500012807846,2|0,0:1|0:0,0:0:0:0:
486,169,48444,1,2,0:0:0:0:
431,218,48860,1,0,0:0:0:0:
484,311,49284,5,2,0:0:0:0:
485,323,49941,1,2,0:0:0:0:
402,380,50196,2,0,P|382:373|357:372,1,39.5,2|0,0:0|0:0,0:0:0:0:
345,376,50688,1,2,0:0:0:0:
219,309,51197,6,0,P|225:282|228:243,1,67.1500012807846,2|0,0:0|0:0,0:0:0:0:
192,178,52164,1,2,0:0:0:0:
258,99,52681,1,0,0:0:0:0:
198,39,53161,6,0,P|166:53|120:60,1,79,2|0,0:0|0:0,0:0:0:0:
23,139,53855,1,2,0:0:0:0:
1,67,54092,2,0,P|6:41|6:28,1,39.5,2|0,0:0|0:0,0:0:0:0:
2,15,54616,1,2,0:0:0:0:
129,134,55098,6,0,P|121:164|118:207,1,67.1500012807846,2|0,0:0|0:0,0:0:0:0:
147,273,56138,1,2,0:0:0:0:
104,335,56621,1,0,0:0:0:0:
111,347,57127,6,0,P|142:349|190:365,1,79,2|0,0:0|0:0,0:0:0:0:
289,313,57816,1,2,0:0:0:0:
277,238,58035,2,0,P|280:210|285:195,1,39.5,2|0,0:0|0:0,0:0:0:0:
289,191,58502,1,2,0:0:0:0:
427,91,59015,6,0,P|400:89|360:68,1,67.1500012807846,2|0,0:0|0:0,0:0:0:0:
464,180,60063,2,0,P|478:157|504:135,1,59.2500022602082,2|0,0:0|0:0,0:0:0:0:
374,174,61080,2,0,P|386:197|391:222,1,51.3499976493837,2|0,0:0|0:0,0:0:0:0:
367,293,61840,1,2,0:0:0:0:
437,349,62175,6,0,P|455:345|469:342,1,29.6250011301041,2|0,0:0|0:0,0:0:0:0:
363,306,62775,6,0,P|324:316|296:318,1,64.1874970617296,2|0,0:0|0:0,0:0:0:0:
278,317,63514,6,0,P|263:304|264:244,1,79,2|0,0:0|0:0,0:0:0:0:
325,163,64392,1,2,0:0:0:0:
272,106,64820,1,0,0:0:0:0:
351,35,65232,6,0,P|379:47|427:50,1,79,2|0,0:0|0:0,0:0:0:0:
466,142,65953,1,2,0:0:0:0:
394,165,66126,2,0,P|371:156|356:155,1,39.5,2|0,0:0|0:0,0:0:0:0:
343,163,66632,1,2,0:0:0:0:
136,79,67121,6,0,P|129:54|157:4,1,79,2|0,0:0|0:0,0:0:0:0:
242,95,68132,2,0,P|236:125|233:177,1,79,2|0,0:0|0:0,0:0:0:0:
126,243,69119,1,2,0:0:0:0:
116,226,69549,2,0,P|119:209|121:180,1,39.5,2|0,0:0|0:0,0:0:0:0:
212,254,70010,5,2,0:0:0:0:
241,276,70241,1,2,0:0:0:0:
245,297,70520,1,2,0:0:0:0:
241,309,70751,1,2,0:0:0:0:
354,168,71055,6,0,P|387:184|430:186,1,79,2|0,0:0|0:0,0:0:0:0:
314,90,72016,2,0,P|283:110|260:146,1,79,2|0,0:0|0:0,0:0:0:0:
407,97,73003,2,0,P|404:60|384:22,1,79,2|0,0:0|0:0,0:0:0:0:
354,168,73721,1,2,0:0:0:0:
286,131,73916,6,0,P|267:137|247:141,1,39.5,2|0,0:0|0:0,0:0:0:0:
326,259,74502,2,0,P|346:251|386:244,1,59.25,2|0,0:0|0:0,0:0:0:0:
401,240,74928,6,0,P|426:258|427:306,1,79,2|0,0:0|0:0,0:0:0:0:
356,370,75944,1,2,0:0:0:0:
299,320,76428,1,0,0:0:0:0:
171,372,76928,6,0,P|134:357|89:355,1,79,2|0,0:0|0:0,0:0:0:0:
16,261,78051,6,0,P|22:216|45:195,1,74.0625028252603,2|0,0:0|0:0,0:0:0:0:
104,154,79288,6,0,P|151:164|184:164,1,79,2|0,0:0|0:0,0:0:0:0:
339,62,80157,1,2,0:0:0:0:
285,10,80592,2,0,P|254:22|243:51,1,59.25,2|0,0:0|0:0,0:0:0:0:
242,66,81027,6,0,P|248:93|253:149,1,79,2|0,0:0|0:0,0:0:0:0:
351,219,81897,2,0,P|343:257|340:297,1,79,2|0,0:0|0:0,0:0:0:0:
196,218,82752,5,2,0:0:0:0:
246,277,83213,1,2,0:0:0:0:
203,348,83674,5,2,0:0:0:0:
340,296,84108,2,0,P|370:309|411:313,1,59.25,2|0,0:0|0:0,0:0:0:0:
419,309,84548,6,0,P|440:273|426:235,1,79,2|2,0:0|0:0,0:0:0:0:
372,100,85486,1,2,0:0:0:0:
423,46,85948,1,2,0:0:0:0:
320,154,86410,6,0,P|284:143|242:145,1,79,2|0,0:0|0:0,0:0:0:0:
132,24,87301,2,0,P|154:28|173:66,1,59.25,2|0,0:0|0:0,0:0:0:0:
177,75,87718,1,2,0:0:0:0:
77,208,88159,6,0,P|74:180|63:131,1,79,2|0,0:0|0:0,0:0:0:0:
182,78,89045,2,0,P|185:106|196:155,1,79,2|0,0:0|0:0,0:0:0:0:
151,294,89926,6,0,B|230:278|182:247|270:237,1,134.300002561569,2|2,0:0|0:0,0:0:0:0:
339,269,91296,1,0,0:0:0:0:
439,147,91762,6,0,P|430:76|325:80,1,192.562491185189,2|0,0:0|0:0,0:0:0:0:
309,93,93671,6,0,B|250:53|175:70|175:70|206:89|223:120,1,206.387494488859,2|0,0:1|0:0,0:0:0:0:
224,128,95055,1,2,0:0:0:0:
328,321,95484,2,0,B|335:241|295:274|308:191,1,124.42499620285,2|2,0:0|0:0,0:0:0:0:
306,201,96366,5,2,0:0:0:0:
215,252,96600,1,2,0:0:0:0:
156,203,96829,1,2,0:0:0:0:
156,203,97323,6,0,B|192:176|193:124|193:124|164:146|133:149,1,152.075004640961,2|0,0:0|0:0,0:0:0:0:
77,201,98235,2,0,B|35:183|-9:208|-9:208|23:222|41:247,1,152.075004640961,2|0,0:0|0:0,0:0:0:0:
114,269,99145,2,0,B|118:310|160:336|160:336|156:302|169:275,1,130.350003977966,2|0,0:0|0:0,0:0:0:0:
163,290,100065,5,2,0:0:0:0:
278,342,100295,1,2,0:0:0:0:
330,285,100526,1,2,0:0:0:0:
330,285,100977,6,0,P|400:268|432:346,1,165.899994937134,2|0,0:0|0:0,0:0:0:0:
433,341,102363,1,2,0:0:0:0:
275,238,102805,2,0,P|280:177|277:153,1,82.949997468567,2|0,0:0|0:0,0:0:0:0:
333,101,103447,1,2,0:0:0:0:
205,29,103705,5,2,0:0:0:0:
252,85,103936,1,2,0:0:0:0:
161,174,104163,1,2,0:0:0:0:
161,174,104619,6,0,B|127:164|80:190|80:190|120:218|125:260,1,152.075004640961,2|0,0:0|0:0,0:0:0:0:
250,159,105528,2,0,B|275:134|276:80|276:80|232:101|193:84,1,152.075004640961,2|0,0:0|0:0,0:0:0:0:
219,234,106424,2,0,B|227:268|273:296|273:296|277:247|311:222,1,152.075004640961,2|0,0:0|0:0,0:0:0:0:
316,218,107323,5,2,0:0:0:0:
420,136,107584,1,2,0:0:0:0:
490,201,107829,1,2,0:0:0:0:
490,201,108318,6,0,P|493:150|502:113,1,82.949997468567,2|0,0:0|0:0,0:0:0:0:
354,23,109199,2,0,P|351:74|341:113,1,82.949997468567,2|2,0:0|0:0,0:0:0:0:
390,169,109881,1,2,0:0:0:0:
269,247,110101,6,0,P|239:237|189:237,1,79,2|0,0:0|0:0,0:0:0:0:
129,186,110783,1,2,0:0:0:0:
266,96,111003,2,0,P|296:106|346:106,1,79,2|2,0:0|0:0,0:0:0:0:
428,254,111914,5,2,0:0:0:0:
449,252,112134,1,0,0:0:0:0:
482,233,112355,1,2,0:0:0:0:
499,191,112575,1,0,0:0:0:0:
475,125,112796,1,2,0:0:0:0:
475,125,113249,2,0,P|439:140|409:145,1,62.2124981014252,2|0,0:0|0:0,0:0:0:0:
396,139,113687,6,0,P|376:108|383:65,1,79,2|2,0:0|0:0,0:0:0:0:
425,7,114369,1,0,0:0:0:0:
303,108,114614,2,0,P|276:98|258:97,1,39.5,2|2,0:0|0:0,0:0:0:0:
137,0,115041,1,2,0:0:0:0:
137,0,115489,5,2,0:0:0:0:
153,8,115723,1,0,0:0:0:0:
164,28,115957,1,0,0:0:0:0:
155,67,116155,1,2,0:0:0:0:
122,101,116385,1,2,0:0:0:0:
121,153,116618,1,2,0:0:0:0:
177,192,116839,1,2,0:0:0:0:
177,192,117269,6,0,P|170:229|171:283,1,79,2|2,0:0|0:0,0:0:0:0:
169,270,117950,1,2,0:0:0:0:
6,189,118178,5,2,0:0:0:0:
23,260,118438,2,0,P|30:297|35:357,1,89.8624958864214
37,365,119151,6,0,P|76:373|111:339,1,79,2|0,0:0|0:0,0:0:0:0:
109,281,119832,1,0,0:0:0:0:
221,216,120055,6,0,P|262:223|309:238,1,79,2|0,0:0|0:0,0:0:0:0:
356,282,120736,1,0,0:0:0:0:
449,227,120967,6,0,P|450:195|456:145,1,79,2|0,0:0|0:0,0:0:0:0:
479,82,121638,1,0,0:0:0:0:
351,156,121862,6,0,L|319:150,3,19.75,2|0|2|0,0:0|0:0|0:0|0:0,0:0:0:0:
396,97,122286,6,0,L|400:68,1,19.75,2|0,0:0|0:0,0:0:0:0:
386,92,122493,2,0,L|390:63,1,19.75,2|0,0:0|0:0,0:0:0:0:
260,11,122738,6,0,B|128:9|217:114|76:115,1,213.300000813675,2|0,0:1|0:0,0:0:0:0:
91,114,124072,1,2,0:0:0:0:
217,317,124500,2,0,P|223:261|227:198,1,108.625003314972,2|0,0:0|0:0,0:0:0:0:
221,196,125161,1,2,0:0:0:0:
309,84,125402,5,2,0:0:0:0:
372,116,125644,1,2,0:0:0:0:
364,194,125886,1,2,0:0:0:0:
296,160,126142,1,2,0:0:0:0:
376,105,126376,6,0,B|400:62|439:55|439:55|432:93|445:128,1,152.075004640961,2|0,0:0|0:0,0:0:0:0:
285,160,127285,2,0,B|235:159|209:129|209:129|246:117|270:87,1,152.075004640961,2|0,0:0|0:0,0:0:0:0:
371,210,128181,2,0,B|395:252|382:290|382:290|356:264|326:261,1,130.350003977966,2|2,0:0|0:0,0:0:0:0:
223,242,129104,5,2,0:0:0:0:
159,309,129338,1,2,0:0:0:0:
210,367,129580,1,2,0:0:0:0:
210,367,130025,6,0,B|223:251|158:303|181:171,1,189.599994213867,2|0,0:0|0:0,0:0:0:0:
178,185,131387,1,2,0:0:0:0:
236,137,131614,1,0,0:0:0:0:
122,47,131843,2,0,P|81:65|21:72,1,86.9000026519776,2|0,0:0|0:0,0:0:0:0:
39,72,132521,1,2,0:0:0:0:
97,191,132753,5,2,0:0:0:0:
47,246,132976,1,2,0:0:0:0:
101,302,133201,2,0,P|141:307|166:317,1,59.25,2|0,0:0|0:0,0:0:0:0:
207,251,133656,6,0,B|251:237|288:271|288:271|247:282|232:324,1,152.075004640961,2|0,0:0|0:0,0:0:0:0:
130,232,134564,2,0,B|96:201|107:152|107:152|137:182|163:175,1,152.075004640961,2|0,0:0|0:0,0:0:0:0:
158,313,135486,2,0,B|148:358|100:373|100:373|111:332|82:298,1,152.075004640961,2|0,0:0|0:0,0:0:0:0:
82,302,136381,5,2,0:0:0:0:
163,175,136622,1,2,0:0:0:0:
110,125,136864,1,2,0:0:0:0:
110,125,137347,6,0,P|109:80|100:35,1,82.949997468567,2|0,0:0|0:0,0:0:0:0:
165,0,138028,1,2,0:0:0:0:
267,91,138256,2,0,P|268:136|277:181,1,82.949997468567,2|2,0:0|0:0,0:0:0:0:
236,237,138937,1,2,0:0:0:0:
354,153,139164,6,0,P|388:164|450:162,1,82.949997468567,2|0,0:0|0:0,0:0:0:0:
493,219,139825,1,2,0:0:0:0:
394,295,140045,2,0,P|360:284|298:286,1,82.949997468567,2|0,0:0|0:0,0:0:0:0:
194,208,140736,1,0,0:0:0:0:
249,154,140979,6,0,P|256:118|259:70,1,79,2|2,0:0|0:0,0:0:0:0:
234,6,141614,1,2,0:0:0:0:
363,114,141835,1,2,0:0:0:0:
363,114,142289,2,0,P|397:107|414:104,1,43.4500013259888,0|2,0:0|0:0,0:0:0:0:
296,221,142743,6,0,P|303:260|308:309,1,79,2|2,0:0|0:0,0:0:0:0:
353,359,143414,1,2,0:0:0:0:
421,254,143638,2,0,P|417:233|414:207,1,39.5,2|0,0:0|0:0,0:0:0:0:
308,117,144086,1,2,0:0:0:0:
308,117,144535,6,0,P|303:149|300:204,1,79,2|0,0:0|0:0,0:0:0:0:
321,266,145200,1,2,0:0:0:0:
217,358,145440,5,2,0:0:0:0:
154,310,145658,1,2,0:0:0:0:
179,238,145877,1,2,0:0:0:0:
237,284,146096,1,2,0:0:0:0:
144,321,146325,6,0,P|105:308|63:299,1,79,2|0,0:0|0:0,0:0:0:0:
171,221,146996,1,2,0:0:0:0:
171,221,147220,2,0,P|201:193|212:182,1,39.5,2|0,0:0|0:0,0:0:0:0:
244,137,147674,1,2,0:0:0:0:
252,294,148118,6,0,P|260:334|273:375,1,79,2|0,0:0|0:0,0:0:0:0:
271,370,148819,1,2,0:0:0:0:
124,185,149053,6,0,P|115:225|103:263,1,71.0999978302003,2|2,0:0|0:0,0:0:0:0:
106,253,149771,1,2,0:0:0:0:
271,119,149999,6,0,P|279:159|289:192,1,63.2,2|2,0:0|0:0,0:0:0:0:
286,181,150793,1,2,0:0:0:0:
133,58,151148,5,2,0:0:0:0:
163,30,155021,5,2,0:0:0:0:
169,36,155114,2,0,B|231:37|207:65|285:66,1,102.699995298767,2|2,0:1|0:0,0:0:0:0:
265,65,156851,2,0,P|247:106|251:150,1,77.0249964740755,2|0,0:0|0:0,0:0:0:0:
309,203,157832,5,2,0:0:0:0:
353,209,158097,1,2,0:0:0:0:
384,172,158373,1,2,0:0:0:0:
384,172,158918,6,0,B|446:173|422:201|500:202,1,102.699995298767,2|2,0:0|0:0,0:0:0:0:
480,201,160778,2,0,P|498:242|494:286,1,77.0249964740755,2|0,0:0|0:0,0:0:0:0:
435,322,161724,5,2,0:0:0:0:
389,327,161979,1,2,0:0:0:0:
359,290,162240,1,2,0:0:0:0:
392,189,162700,5,2,0:0:0:0:
386,183,162767,2,0,P|326:184|288:225,1,102.699995298767,2|2,0:0|0:0,0:0:0:0:
295,210,164756,2,0,P|312:248|313:286,1,77.0249964740755,2|0,0:0|0:0,0:0:0:0:
251,337,165735,5,2,0:0:0:0:
206,352,165980,1,2,0:0:0:0:
172,320,166227,1,2,0:0:0:0:
203,223,166671,5,2,0:0:0:0:
198,216,166734,2,0,B|139:218|164:192|99:194,1,102.699995298767,2|2,0:0|0:0,0:0:0:0:
99,193,168786,2,0,P|107:146|107:114,1,77.0249964740755,2|0,0:0|0:0,0:0:0:0:
61,42,169951,5,2,0:0:0:0:
26,37,170242,1,2,0:0:0:0:
3,69,170575,1,2,0:0:0:0:
107,116,171233,5,2,0:0:0:0:
114,121,171289,2,0,B|177:128|149:154|205:162,1,102.699995298767,2|2,0:0|0:0,0:0:0:0:
205,162,172991,2,0,P|207:195|203:217,1,51.3499976493837,2|0,0:0|0:0,0:0:0:0:
241,278,173705,1,2,0:0:0:0:
301,208,173986,5,2,0:0:0:0:
342,198,174240,1,2,0:0:0:0:
369,231,174498,1,2,0:0:0:0:
369,231,175024,6,0,B|428:234|410:259|467:261,1,102.699995298767,2|2,0:0|0:0,0:0:0:0:
498,194,176574,1,0,0:0:0:0:
498,194,177009,2,0,P|501:161|505:138,1,51.3499976493837,2|0,0:0|0:0,0:0:0:0:
504,143,177643,1,0,0:0:0:0:
435,46,177920,5,2,0:0:0:0:
391,38,178227,1,2,0:0:0:0:
359,66,178510,1,2,0:0:0:0:
363,107,178765,1,2,0:0:0:0:
363,107,179052,6,0,B|299:114|331:140|266:147,1,102.699995298767,2|2,0:0|0:0,0:0:0:0:
207,100,180527,1,0,0:0:0:0:
207,100,181018,2,0,P|212:63|213:21,1,77.0249964740755,2|0,0:0|0:0,0:0:0:0:
115,96,181909,5,2,0:0:0:0:
81,112,182159,1,2,0:0:0:0:
51,85,182419,1,2,0:0:0:0:
51,85,182936,6,0,P|56:118|58:140,1,51.3499976493837,2|0,0:0|0:0,0:0:0:0:
122,182,183966,6,0,P|117:215|116:229,1,43.4500013259888,2|0,0:0|0:0,0:0:0:0:
61,271,185229,6,0,P|64:295|65:305,1,35.5499989151001,2|0,0:0|0:0,0:0:0:0:
114,363,186658,5,2,0:0:0:0:
223,205,188079,5,2,0:0:0:0:
230,199,188148,2,0,P|268:213|308:213,2,59.2500022602082,2|0|2,0:0|0:0|0:0,0:0:0:0:
185,132,189471,1,2,0:0:0:0:
177,123,189912,6,0,P|184:81|186:43,1,59.2500022602082,2|0,0:0|0:0,0:0:0:0:
275,116,190795,1,2,0:0:0:0:
328,65,191236,1,2,0:0:0:0:
338,72,191677,6,0,P|378:65|408:53,1,59.2500022602082,2|0,0:0|0:0,0:0:0:0:
472,141,192559,1,2,0:0:0:0:
423,201,193000,2,0,P|426:237|432:265,1,59.2500022602082,2|0,0:0|0:0,0:0:0:0:
350,166,193883,1,2,0:0:0:0:
298,222,194324,1,2,0:0:0:0:
346,284,194765,1,2,0:0:0:0:
339,300,195220,6,0,P|286:310|258:323,1,59.2500022602082,2|0,0:0|0:0,0:0:0:0:
205,229,196102,1,2,0:0:0:0:
256,175,196543,1,2,0:0:0:0:
204,115,196984,6,0,P|209:76|210:40,1,59.2500022602082,2|0,0:0|0:0,0:0:0:0:
340,120,197895,2,0,P|335:159|334:195,1,59.2500022602082,2|2,0:0|0:0,0:0:0:0:
274,230,198813,5,2,0:0:0:0:
274,230,199884,6,0,B|196:119|102:108|102:108|67:192|131:308|131:308|128:238|169:209,1,523.770003196838,2|0,0:0|0:0,0:0:0:0:
