osu file format v14

[General]
AudioFilename: audio.mp3
AudioLeadIn: 0
PreviewTime: 41321
Countdown: 0
SampleSet: Soft
StackLeniency: 0.3
Mode: 0
LetterboxInBreaks: 0
WidescreenStoryboard: 0

[Editor]
Bookmarks: 13524,68028
DistanceSpacing: 1.2
BeatDivisor: 4
GridSize: 32
TimelineZoom: 3.499999

[Metadata]
Title:Kimi to Iu Shinwa (TV Size)
TitleUnicode:君という神話 (TV Size)
Artist:Maeda Jun x yanaginagi
ArtistUnicode:麻枝 准×やなぎなぎ
Creator:kanpakyin
Version:Shinwa
Source:神様になった日
Tags:The Day I Became a God kami sama ni natta hi Visual Art's VA key P.A.Works Aniplex anime pop j-pop jpop japanese MANYO op opening intro theme song
BeatmapID:2608225
BeatmapSetID:1255002

[Difficulty]
HPDrainRate:6.5
CircleSize:4.5
OverallDifficulty:8
ApproachRate:9
SliderMultiplier:1.6
SliderTickRate:1

[Events]
//Background and Video events
Video,50,"video.mp4"
0,0,"bg.jpg",0,0
//Break Periods
//Storyboard Layer 0 (Background)
//Storyboard Layer 1 (Fail)
//Storyboard Layer 2 (Pass)
//Storyboard Layer 3 (Foreground)
//Storyboard Layer 4 (Overlay)
//Storyboard Sound Samples

[TimingPoints]
753,340.909090909091,4,2,1,45,1,0
923,-200,4,2,1,45,0,0
11321,-200,4,1,1,45,0,0
11491,-105.263157894737,4,1,1,45,0,0
11576,-200,4,2,1,45,0,0
11662,-125,4,2,2,60,0,0
12344,-125,4,2,2,40,0,0
12430,-125,4,2,2,60,0,0
13026,-125,4,2,2,25,0,0
13111,-125,4,2,2,60,0,0
14390,-125,4,2,2,25,0,0
14475,-125,4,2,2,60,0,0
15753,-125,4,2,2,25,0,0
15839,-125,4,2,2,60,0,0
16947,-125,4,2,2,35,0,0
17117,-125,4,2,2,40,0,0
17202,-125,4,2,2,60,0,0
17799,-125,4,2,2,30,0,0
17884,-125,4,2,2,60,0,0
18481,-125,4,2,2,30,0,0
18566,-125,4,2,2,60,0,0
19844,-125,4,2,2,30,0,0
19930,-125,4,2,2,60,0,0
20526,-125,4,2,2,30,0,0
20611,-125,4,2,2,60,0,0
21208,-125,4,2,2,30,0,0
21293,-125,4,2,2,60,0,0
21889,-125,4,2,2,30,0,0
21975,-125,4,2,2,60,0,0
22571,-200,4,2,1,60,0,0
22912,-200,4,2,2,60,0,0
23082,-142.857142857143,4,2,1,60,0,0
23593,-111.111111111111,4,2,1,60,0,0
23934,-111.111111111111,4,2,2,60,0,0
24105,-76.9230769230769,4,2,1,60,0,0
24276,-76.9230769230769,4,2,2,60,0,0
24616,-100,4,2,1,60,0,0
24787,-100,4,1,1,45,0,0
25128,-100,4,2,2,45,0,0
25214,-100,4,2,2,45,0,0
25384,-100,4,2,3,65,0,0
29390,-100,4,2,3,45,0,0
29475,-100,4,2,3,65,0,0
30753,-100,4,2,2,65,0,0
30839,-100,4,2,3,65,0,0
33395,-100,4,2,3,50,0,0
33480,-100,4,2,2,35,0,0
33566,-100,4,2,3,35,0,0
33651,-100,4,2,3,65,0,0
34844,-100,4,2,3,45,0,0
34930,-100,4,2,3,65,0,0
36208,-100,4,2,2,50,0,0
36293,-100,4,2,3,65,0,0
38934,-100,4,2,3,40,0,0
39020,-100,4,1,1,40,0,0
39297,-100,4,2,3,65,0,0
39616,-100,4,1,1,40,0,0
39873,-100,4,2,3,65,0,0
40469,-100,4,1,1,35,0,0
40980,-200,4,1,1,50,0,0
41002,-200,4,2,1,65,0,0
41235,-200,4,2,1,5,0,0
41321,-200,4,2,1,50,0,0
41662,-100,4,2,2,70,0,0
41748,-100,4,2,3,70,0,0
47117,-100,4,2,3,40,0,0
47202,-100,4,2,3,70,0,0
47628,-100,4,2,2,40,0,0
47714,-100,4,2,3,70,0,0
51889,-100,4,2,3,45,0,0
51974,-100,4,2,3,70,0,0
52571,-100,4,2,2,50,0,0
52657,-100,4,2,3,70,0,0
55298,-100,4,2,2,35,0,0
55384,-100,4,2,3,70,0,0
58025,-100,4,2,2,50,0,0
58111,-100,4,2,3,70,0,0
62884,-100,4,2,3,50,0,0
63055,-100,4,2,3,70,0,0
63481,-100,4,2,3,50,0,0
63566,-100,4,2,3,70,0,0
68935,-100,4,2,2,50,0,0
69020,-100,4,2,3,70,0,0
74219,-100,4,1,1,40,0,0
74389,-100,4,2,2,60,0,1
74474,-100,4,2,3,70,0,1
79843,-100,4,2,2,50,0,1
79930,-100,4,2,3,70,0,1
85128,-100,4,2,3,70,0,0
85298,-100,4,2,1,5,0,0

[Colours]
Combo1 : 242,136,155
Combo2 : 148,135,207
Combo3 : 96,168,255
Combo4 : 218,166,160

[HitObjects]
120,264,923,5,2,0:0:0:0:
188,311,1093,1,0,0:0:0:0:
252,257,1264,2,0,L|238:212,1,40
305,71,1605,2,0,L|298:123,1,40,2|0,0:0|0:0,0:0:0:0:
163,183,1946,2,0,P|138:184|101:165,1,60
95,156,2287,6,0,L|52:162,1,40,2|0,0:0|0:0,0:0:0:0:
154,105,2628,1,0,0:0:0:0:
96,246,2798,1,2,0:0:0:0:
55,161,2968,5,2,0:0:0:0:
175,247,3139,1,0,0:0:0:0:
50,305,3309,2,0,P|26:310|1:306,1,40
175,247,3650,6,0,L|221:254,1,40,2|0,0:0|0:0,0:0:0:0:
276,297,3991,1,0,0:0:0:0:
311,363,4162,2,0,L|364:356,1,40,2|0,0:0|0:0,0:0:0:0:
468,97,4673,5,2,0:0:0:0:
468,97,5014,1,2,0:0:0:0:
396,71,5184,1,0,0:0:0:0:
404,146,5355,2,0,L|417:190,1,40,0|2,0:0|0:0,0:0:0:0:
288,283,5696,2,0,B|261:292|234:281|234:281|213:279|204:293,1,80,0|2,0:0|0:0,0:0:0:0:
199,294,6378,5,2,0:0:0:0:
146,179,6548,1,0,0:0:0:0:
135,344,6718,2,0,P|129:345|97:336,1,40
214,204,7059,2,0,P|219:194|219:164,1,40,2|0,0:0|0:0,0:0:0:0:
199,294,7400,6,0,L|297:282,1,80
343,244,7912,1,2,0:0:0:0:
356,169,8082,1,0,0:0:0:0:
241,218,8253,6,0,P|228:218|200:209,1,40,2|2,0:0|0:0,0:0:0:0:
278,284,8593,1,0,0:0:0:0:
348,318,8764,2,0,P|381:323|426:306,1,80,2|0,0:0|0:0,0:0:0:0:
315,220,9275,5,0,0:0:0:0:
285,360,9446,1,2,0:0:0:0:
185,292,9616,1,0,0:0:0:0:
261,170,9787,2,0,B|268:142|251:109|251:109|261:83,1,80,0|2,0:0|0:0,0:0:0:0:
263,82,10468,5,0,0:0:0:0:
359,204,10639,1,0,0:0:0:0:
375,129,10809,1,2,0:0:0:0:
244,228,10980,2,0,L|235:260,2,30,2|0|2,0:0|0:0|0:0,0:0:0:0:
194,176,11321,5,0,0:0:0:0:
194,176,11406,1,0,0:0:0:0:
194,176,11491,2,0,P|172:175|151:167,1,37.9999989852906
112,103,11662,6,0,L|37:116,1,64,4|0,0:0|0:0,0:0:0:0:
194,176,12003,2,0,B|238:195|277:163|277:163|312:165|318:183,1,128,0|2,3:0|2:1,0:0:0:0:
378,228,12514,1,0,0:0:0:0:
206,264,12684,2,0,L|118:253,1,64,0|0,3:0|0:0,0:0:0:0:
223,107,13025,1,2,0:0:0:0:
281,255,13196,1,0,0:0:0:0:
118,330,13366,2,0,P|69:283|81:211,1,128,0|0,3:0|0:0,0:0:0:0:
194,175,13878,5,0,0:0:0:0:
129,321,14048,2,0,P|75:311|39:236,1,128,0|2,3:0|0:0,0:0:0:0:
194,175,14559,1,0,0:0:0:0:
38,239,14730,2,0,P|76:294|64:359,1,128,0|0,3:0|0:0,0:0:0:0:
194,175,15241,1,0,0:0:0:0:
328,362,15412,2,0,L|225:343,1,96,0|0,3:0|0:0,0:0:0:0:
219,356,15753,6,0,P|199:363|154:349,1,64,2|0,0:0|0:0,0:0:0:0:
345,279,16093,2,0,P|392:289|464:245,1,128,0|0,3:0|0:0,0:0:0:0:
488,173,16605,1,0,0:0:0:0:
407,193,16775,1,0,3:0:0:0:
403,314,16946,5,2,0:0:0:0:
403,314,17031,1,2,0:0:0:0:
403,314,17116,2,0,P|429:318|474:345,1,64,4|0,0:0|0:0,0:0:0:0:
488,173,17457,2,0,P|483:147|494:108,1,64,0|0,3:0|0:0,0:0:0:0:
417,296,17798,2,0,L|404:367,1,64,2|0,0:0|0:0,0:0:0:0:
418,107,18139,2,0,P|424:82|449:50,1,64,0|0,3:0|0:0,0:0:0:0:
311,130,18480,5,2,2:3:0:0:
344,200,18650,1,0,0:0:0:0:
215,295,18821,2,0,P|173:253|178:181,1,128,0|0,3:0|0:0,0:0:0:0:
236,132,19332,1,0,0:0:0:0:
254,212,19503,2,0,L|320:219,1,64,0|0,3:0|0:0,0:0:0:0:
186,265,19843,6,0,B|143:291|88:277|58:222,1,128,2|0,0:0|3:0,0:0:0:0:
33,167,20355,1,0,0:0:0:0:
115,172,20525,1,2,0:0:0:0:
154,303,20696,1,0,0:0:0:0:
71,242,20866,1,0,3:0:0:0:
223,263,21037,1,0,0:0:0:0:
123,371,21207,6,0,B|168:393|210:354|210:354|238:376|229:389,1,128,2|0,0:0|3:0,0:0:0:0:
362,276,21718,1,0,0:0:0:0:
387,348,21889,2,0,P|363:352|324:341,1,64,2|0,0:0|0:0,0:0:0:0:
323,212,22230,2,0,P|353:202|384:205,1,64,0|0,3:0|0:0,0:0:0:0:
391,191,22485,1,0,0:0:0:0:
398,176,22571,6,0,L|486:197,1,80,2|0,3:2|3:0,0:0:0:0:
371,102,23082,6,0,P|314:109|265:79,1,111.999996582031,2|0,0:0|0:0,0:0:0:0:
388,34,23593,6,0,L|354:205,1,143.999995605469,2|0,3:2|3:0,0:0:0:0:
389,278,24105,6,0,P|427:286|489:255,1,103.999995239258,2|8,0:0|0:0,0:0:0:0:
359,175,24446,1,0,0:0:0:0:
332,359,24616,6,0,P|318:344|286:332,1,40,2|0,3:2|0:0,0:0:0:0:
247,276,24787,2,0,P|232:276|189:292,1,40
141,332,24957,5,2,0:2:0:0:
132,318,25042,1,0,0:0:0:0:
123,304,25128,2,0,L|133:255,1,40,8|0,3:0|0:0,0:0:0:0:
78,184,25298,6,0,P|48:184|-1:149,1,80,4|0,0:0|0:0,0:0:0:0:
7,70,25639,1,8,0:0:0:0:
147,142,25809,2,0,L|322:122,1,160,0|0,3:0|3:0,0:0:0:0:
225,10,26321,1,8,0:0:0:0:
225,10,26662,5,0,3:0:0:0:
370,176,26832,2,0,P|384:149|378:86,1,80,0|8,0:0|0:0,0:0:0:0:
189,76,27173,2,0,L|233:241,1,160,0|0,3:0|3:0,0:0:0:0:
128,144,27684,1,8,0:0:0:0:
230,230,27855,1,0,3:0:0:0:
103,280,28025,6,0,L|87:360,1,80,0|0,3:0|0:0,0:0:0:0:
152,223,28366,2,0,B|82:245|70:178|0:189,1,160,8|2,0:0|0:0,0:0:0:0:
128,144,28878,1,0,3:0:0:0:
230,301,29048,2,0,L|370:272,1,120,10|0,0:0|0:0,0:0:0:0:
455,360,29389,6,0,P|432:361|378:337,1,80,4|0,3:2|0:0,0:0:0:0:
466,172,29730,1,8,0:0:0:0:
497,247,29900,1,0,3:0:0:0:
290,110,30071,6,0,P|283:76|299:26,1,80,0|0,3:0|0:0,0:0:0:0:
328,177,30412,1,8,0:0:0:0:
215,114,30582,1,0,0:0:0:0:
443,66,30753,6,0,L|356:76,1,80,4|0,3:2|0:0,0:0:0:0:
369,288,31093,1,8,0:0:0:0:
275,183,31264,2,0,L|192:174,1,80,0|2,3:0|0:0,0:0:0:0:
138,236,31605,1,0,3:0:0:0:
171,93,31775,2,0,B|125:83|93:105|93:105|107:46|63:12,1,160,10|0,0:0|3:0,0:0:0:0:
35,192,32287,5,0,0:0:0:0:
195,174,32457,1,8,0:0:0:0:
60,118,32628,2,0,L|85:279,1,160,0|0,3:0|3:0,0:0:0:0:
327,297,33139,1,10,0:0:0:0:
255,329,33309,5,0,3:0:0:0:
241,338,33395,1,0,3:0:0:0:
230,350,33480,2,0,P|207:351|173:342,1,40,4|0,3:2|0:0,0:0:0:0:
171,280,33650,1,0,0:0:0:0:
304,182,33821,1,8,0:0:0:0:
358,368,33991,2,0,L|385:235,1,120,0|0,3:0|0:0,0:0:0:0:
402,244,34332,2,0,P|417:220|419:169,1,80,0|10,3:0|0:0,0:0:0:0:
282,85,34673,5,8,0:0:0:0:
282,85,34758,1,8,0:0:0:0:
282,85,34843,2,0,P|345:95|387:13,1,160,4|8,3:2|0:0,0:0:0:0:
206,30,35355,1,0,0:0:0:0:
84,121,35525,2,0,L|191:136,1,80,0|8,3:0|0:0,0:0:0:0:
232,163,35781,1,8,0:0:0:0:
232,163,35866,2,0,P|262:165|316:150,1,80,8|0,0:0|3:0,0:0:0:0:
57,281,36207,6,0,B|126:294|135:216|218:239,1,160,4|8,3:2|0:0,0:0:0:0:
22,196,36718,2,0,L|58:369,1,160,0|0,3:0|3:0,0:0:0:0:
205,236,37230,1,8,0:0:0:0:
129,363,37400,1,0,0:0:0:0:
1,259,37571,6,0,L|140:279,1,120,0|0,3:0|0:0,0:0:0:0:
183,310,37912,2,0,P|217:314|260:291,1,80,10|0,0:0|3:0,0:0:0:0:
318,152,38253,1,2,0:0:0:0:
205,236,38423,1,0,3:0:0:0:
329,326,38593,2,0,P|342:305|344:249,1,80,10|0,0:0|0:0,0:0:0:0:
205,236,38934,5,4,3:2:0:0:
394,194,39105,1,0,0:0:0:0:
394,194,39190,1,0,0:0:0:0:
394,194,39275,2,0,L|473:180,1,80,0|0,0:0|3:0,0:0:0:0:
207,90,39616,5,0,0:0:0:0:
195,79,39701,1,0,0:0:0:0:
191,63,39787,1,0,0:0:0:0:
374,119,39957,1,8,0:0:0:0:
219,194,40128,1,0,3:0:0:0:
259,38,40298,5,0,3:0:0:0:
345,298,40468,2,0,P|320:301|290:290,1,40
243,346,40639,2,0,P|240:367|254:395,1,40
324,224,40809,2,0,P|327:207|315:178,1,40
168,256,40980,6,0,L|241:265,1,60
324,224,41321,2,0,L|374:215,1,40,2|0,0:0|0:0,0:0:0:0:
145,17,41662,6,0,P|141:77|183:132,1,120,4|0,0:0|0:0,0:0:0:0:
320,185,42003,2,0,L|408:197,1,80,8|0,0:0|0:0,0:0:0:0:
425,33,42343,1,0,3:0:0:0:
278,99,42514,1,2,0:0:0:0:
404,175,42684,6,0,B|388:219|388:219|424:262|396:317,1,120,8|0,0:0|0:0,0:0:0:0:
437,363,43025,2,0,P|396:364|349:338,1,80,0|0,3:0|0:0,0:0:0:0:
130,184,43366,6,0,L|268:161,1,120,8|0,0:0|0:0,0:0:0:0:
317,243,43707,2,0,P|320:278|285:322,1,80,0|0,3:0|0:0,0:0:0:0:
122,196,44048,6,0,L|91:66,1,120,8|0,0:0|0:0,0:0:0:0:
167,10,44389,2,0,P|205:7|255:31,1,80,0|0,3:0|0:0,0:0:0:0:
141,202,44730,6,0,L|12:175,1,120,8|0,0:0|0:0,0:0:0:0:
2,269,45071,2,0,P|6:308|32:339,1,80,0|0,3:0|0:0,0:0:0:0:
240,148,45412,6,0,B|312:164|322:100|407:113,1,160,8|0,0:0|3:0,0:0:0:0:
339,263,45923,1,0,0:0:0:0:
269,59,46093,1,8,0:0:0:0:
457,166,46264,1,0,0:0:0:0:
240,148,46434,2,0,B|190:132|152:154|152:154|128:138|102:132,1,120,0|0,3:0|0:0,0:0:0:0:
66,82,46775,6,0,P|38:79|-13:104,1,80,8|0,0:0|0:0,0:0:0:0:
187,226,47116,2,0,L|219:46,1,160,4|8,3:2|0:0,0:0:0:0:
299,43,47628,1,2,0:0:0:0:
444,209,47798,2,0,P|417:210|364:183,1,80,0|0,3:0|0:0,0:0:0:0:
496,71,48139,1,8,0:0:0:0:
314,125,48309,1,0,0:0:0:0:
433,292,48480,6,0,P|469:291|513:255,1,80,0|0,3:0|0:0,0:0:0:0:
342,43,48821,2,0,B|299:20|299:20|235:24|178:84,1,160,8|0,0:0|3:0,0:0:0:0:
186,242,49332,1,0,0:0:0:0:
52,136,49503,2,0,P|33:135|-16:100,1,80,8|0,0:0|0:0,0:0:0:0:
171,30,49843,1,0,3:0:0:0:
92,218,50014,1,0,0:0:0:0:
57,50,50184,5,8,0:0:0:0:
223,112,50355,1,0,0:0:0:0:
29,271,50525,2,0,L|204:239,1,160,0|8,3:0|0:0,0:0:0:0:
253,299,51037,1,0,0:0:0:0:
428,258,51207,2,0,P|432:300|411:347,1,80,0|0,3:0|0:0,0:0:0:0:
296,209,51548,1,8,0:0:0:0:
358,380,51718,1,0,0:0:0:0:
479,175,51889,6,0,B|495:160|495:160|438:193|394:170,1,120,4|8,3:0|0:0,0:0:0:0:
428,258,52230,2,0,P|400:255|386:248,1,40,8|8,0:0|0:0,0:0:0:0:
332,207,52400,2,0,P|321:187|327:151,1,40,8|8,0:0|0:0,0:0:0:0:
347,103,52571,6,0,L|223:84,1,120,4|0,3:2|0:0,0:0:0:0:
170,141,52912,2,0,P|136:143|87:114,1,80,8|0,0:0|0:0,0:0:0:0:
251,304,53253,2,0,L|227:169,1,120,0|0,3:0|0:0,0:0:0:0:
322,339,53593,2,0,P|290:375|230:383,1,80,8|0,0:0|0:0,0:0:0:0:
132,224,53934,6,0,L|303:262,1,160,0|8,3:0|0:0,0:0:0:0:
373,178,54446,1,0,0:0:0:0:
427,364,54616,2,0,B|377:368|347:327|347:327|310:336|314:354,1,120,0|0,3:0|0:0,0:0:0:0:
251,358,54957,2,0,P|225:357|178:325,1,80,8|0,0:0|0:0,0:0:0:0:
414,287,55298,6,0,B|397:249|429:202|429:202|401:202|383:221,1,120,4|0,3:2|0:0,0:0:0:0:
330,174,55639,2,0,P|290:170|248:129,1,80,8|0,0:0|0:0,0:0:0:0:
389,42,55980,2,0,P|405:78|391:135,1,80,0|0,3:0|0:0,0:0:0:0:
240,61,56321,2,0,P|263:28|319:12,1,80,8|0,0:0|0:0,0:0:0:0:
274,210,56662,6,0,L|318:90,1,120,0|0,3:0|0:0,0:0:0:0:
315,97,57003,1,8,0:0:0:0:
370,265,57173,1,0,0:0:0:0:
287,293,57343,2,0,P|252:292|200:255,1,80,0|0,3:0|0:0,0:0:0:0:
363,185,57684,5,8,0:0:0:0:
357,359,57855,1,8,0:0:0:0:
357,359,57940,1,8,0:0:0:0:
357,359,58025,2,0,B|303:388|240:360|240:360|217:382|195:364,1,160,4|8,3:2|0:0,0:0:0:0:
274,216,58537,1,2,0:0:0:0:
152,316,58707,6,0,B|97:335|98:272|21:294,1,120,0|0,3:0|0:0,0:0:0:0:
39,290,59048,1,8,0:0:0:0:
178,195,59218,1,0,0:0:0:0:
60,355,59389,2,0,L|17:216,1,120,0|0,3:0|0:0,0:0:0:0:
66,181,59730,2,0,P|76:149|55:86,1,80,8|0,0:0|0:0,0:0:0:0:
141,298,60071,2,0,B|186:320|229:292|229:292|265:306|262:323,1,120,0|0,3:0|0:0,0:0:0:0:
177,233,60412,6,0,L|148:378,1,120,8|0,0:0|0:0,0:0:0:0:
127,354,60753,2,0,B|92:360|92:360|26:339,1,80,0|0,3:0|0:0,0:0:0:0:
122,169,61093,2,0,B|103:127|124:62|124:62|104:75|86:101,1,160,8|0,0:0|3:0,0:0:0:0:
177,233,61605,1,0,0:0:0:0:
262,153,61775,1,8,0:0:0:0:
262,153,62116,6,0,B|293:170|341:147|341:147|369:158|397:183,1,120,0|0,3:0|0:0,0:0:0:0:
429,217,62457,2,0,L|517:200,1,80,8|0,0:0|0:0,0:0:0:0:
385,42,62798,1,0,3:0:0:0:
262,153,62968,5,8,3:0:0:0:
379,282,63139,1,8,0:0:0:0:
428,110,63309,1,8,0:0:0:0:
300,250,63480,6,0,L|219:241,1,80,4|2,3:2|0:0,0:0:0:0:
1,292,63821,2,0,P|33:315|73:321,1,80,8|2,0:0|0:0,0:0:0:0:
220,241,64162,1,0,3:0:0:0:
185,159,64332,1,2,0:0:0:0:
67,242,64503,2,0,L|91:381,1,120,8|0,0:0|0:0,0:0:0:0:
108,350,64843,6,0,P|145:351|185:378,1,80,0|2,3:0|0:0,0:0:0:0:
358,218,65184,2,0,P|322:216|281:188,1,80,8|2,0:0|0:0,0:0:0:0:
171,382,65525,6,0,B|116:362|97:270|149:232,1,160,0|8,3:0|0:0,0:0:0:0:
346,140,66037,1,2,0:0:0:0:
289,310,66207,2,0,L|193:291,1,80,0|2,3:0|0:0,0:0:0:0:
26,307,66548,6,0,B|64:335|146:292|147:239,1,160,8|0,0:0|3:0,0:0:0:0:
62,122,67059,1,2,0:0:0:0:
203,180,67230,1,8,0:0:0:0:
35,295,67400,6,0,P|126:306|164:391,1,160,2|2,0:0|0:0,0:0:0:0:
344,235,67912,2,0,L|426:252,1,80,8|2,0:0|0:0,0:0:0:0:
260,383,68253,1,0,3:0:0:0:
431,327,68423,1,2,0:0:0:0:
267,264,68593,6,0,B|209:241|189:156|241:115,1,160,8|4,0:0|3:2,0:0:0:0:
294,74,69105,1,0,0:0:0:0:
252,214,69275,2,0,P|219:218|172:198,1,80,8|2,0:0|0:0,0:0:0:0:
216,55,69616,1,0,3:0:0:0:
303,152,69787,1,2,0:0:0:0:
113,251,69957,6,0,B|116:231|91:210|91:210|117:153|89:127,1,120,8|0,0:0|0:0,0:0:0:0:
105,61,70298,2,0,P|64:66|24:101,1,80,0|0,3:0|0:0,0:0:0:0:
252,214,70639,2,0,L|446:237,1,160,8|0,0:0|3:0,0:0:0:0:
478,175,71150,1,2,0:0:0:0:
328,20,71321,6,0,L|339:118,1,80,8|2,0:0|0:0,0:0:0:0:
478,175,71662,1,0,3:0:0:0:
249,52,71832,1,2,0:0:0:0:
324,178,72003,2,0,P|356:179|403:148,1,80,8|0,0:0|0:0,0:0:0:0:
407,15,72343,5,0,3:2:0:0:
265,129,72514,1,0,0:0:0:0:
443,214,72684,1,8,0:0:0:0:
443,214,73025,1,0,3:0:0:0:
455,225,73366,6,0,L|433:354,1,120,8|0,0:0|0:0,0:0:0:0:
300,362,73707,2,0,P|283:339|287:275,1,80,0|8,3:0|0:0,0:0:0:0:
408,164,74048,1,8,0:0:0:0:
480,356,74218,5,0,0:0:0:0:
480,356,74304,1,0,0:0:0:0:
480,356,74389,2,0,L|389:341,1,80,12|0,0:2|0:0,0:0:0:0:
219,225,74730,2,0,L|104:249,1,80,8|0,0:0|0:0,0:0:0:0:
115,357,75071,1,8,0:2:0:0:
53,171,75241,1,0,0:0:0:0:
253,303,75412,6,0,P|294:264|279:165,1,160,8|8,0:0|0:2,0:0:0:0:
140,241,75923,1,0,0:0:0:0:
371,173,76093,2,0,P|376:116|388:68,1,80,8|0,0:0|0:0,0:0:0:0:
179,306,76434,2,0,P|189:362|188:408,1,80,8|0,0:2|0:0,0:0:0:0:
57,152,76775,5,8,0:0:0:0:
92,232,76946,1,0,0:0:0:0:
272,104,77116,1,8,0:0:0:0:
227,179,77287,1,0,0:0:0:0:
112,7,77457,1,8,0:0:0:0:
122,17,77798,6,0,L|101:158,1,120,8|0,0:0|0:0,0:0:0:0:
83,152,78139,2,0,P|90:215|94:258,1,80,8|0,0:0|0:0,0:0:0:0:
207,87,78480,1,8,0:0:0:0:
247,160,78650,1,0,0:0:0:0:
19,249,78821,2,0,B|10:279|10:279|46:323|28:374,1,120,8|0,0:0|0:0,0:0:0:0:
14,363,79162,2,0,L|102:371,1,80,8|0,0:0|0:0,0:0:0:0:
86,198,79503,5,8,0:0:0:0:
186,322,79673,1,8,0:0:0:0:
20,369,79843,2,0,P|73:357|106:284,1,120,12|0,0:0|0:0,0:0:0:0:
186,322,80184,2,0,L|281:341,1,80,8|0,0:0|0:0,0:0:0:0:
491,252,80525,2,0,L|329:270,1,160,8|8,0:0|0:0,0:0:0:0:
233,110,81037,1,0,0:0:0:0:
397,232,81207,6,0,P|405:277|378:332,1,80,8|0,0:0|0:0,0:0:0:0:
161,154,81548,2,0,P|149:119|157:73,1,80,8|0,0:0|0:0,0:0:0:0:
331,269,81889,1,8,0:0:0:0:
408,155,82059,1,0,0:0:0:0:
233,110,82230,1,8,0:0:0:0:
397,232,82400,1,0,0:0:0:0:
222,308,82571,2,0,L|128:293,1,80,8|0,0:0|0:0,0:0:0:0:
336,187,82912,5,8,0:0:0:0:
268,378,83082,1,0,0:0:0:0:
142,295,83253,1,8,0:0:0:0:
342,333,83423,1,0,0:0:0:0:
258,139,83593,1,8,0:0:0:0:
175,371,83764,1,0,0:0:0:0:
359,257,83934,5,8,0:0:0:0:
176,159,84105,1,0,0:0:0:0:
268,378,84275,1,8,0:0:0:0:
289,235,84446,1,0,0:0:0:0:
142,295,84616,2,0,L|42:275,1,80,8|0,0:0|0:0,0:0:0:0:
176,159,84957,5,8,0:0:0:0:
14,328,85128,2,0,P|-5:295|13:236,1,80,8|0,0:0|0:0,0:0:0:0:
