osu file format v14

[General]
AudioFilename: audio.mp3
AudioLeadIn: 0
PreviewTime: 41321
Countdown: 0
SampleSet: Soft
StackLeniency: 0.5
Mode: 0
LetterboxInBreaks: 0
WidescreenStoryboard: 1

[Editor]
Bookmarks: 68028
DistanceSpacing: 0.9
BeatDivisor: 4
GridSize: 32
TimelineZoom: 1.7

[Metadata]
Title:Kimi to Iu Shinwa (TV Size)
TitleUnicode:君という神話 (TV Size)
Artist:Maeda Jun x yanaginagi
ArtistUnicode:麻枝 准×やなぎなぎ
Creator:kanpakyin
Version:Normal
Source:神様になった日
Tags:The Day I Became a God kami sama ni natta hi Visual Art's VA key P.A.Works Aniplex anime pop j-pop jpop japanese MANYO op opening intro theme song
BeatmapID:2640241
BeatmapSetID:1255002

[Difficulty]
HPDrainRate:4
CircleSize:4
OverallDifficulty:4
ApproachRate:5
SliderMultiplier:1
SliderTickRate:1

[Events]
//Background and Video events
Video,50,"video.mp4"
0,0,"bg2.jpg",0,0
//Break Periods
//Storyboard Layer 0 (Background)
//Storyboard Layer 1 (Fail)
//Storyboard Layer 2 (Pass)
//Storyboard Layer 3 (Foreground)
//Storyboard Layer 4 (Overlay)
//Storyboard Sound Samples

[TimingPoints]
753,340.909090909091,4,2,1,45,1,0
11321,-100,4,1,1,45,0,0
11662,-100,4,2,2,60,0,0
12344,-100,4,2,2,40,0,0
12430,-100,4,2,2,60,0,0
13026,-100,4,2,2,25,0,0
13111,-100,4,2,2,60,0,0
14390,-100,4,2,2,25,0,0
14475,-100,4,2,2,60,0,0
16947,-100,4,2,2,35,0,0
17117,-100,4,2,2,40,0,0
17202,-100,4,2,2,60,0,0
17799,-100,4,2,2,30,0,0
17884,-100,4,2,2,60,0,0
19844,-100,4,2,2,30,0,0
19930,-100,4,2,2,60,0,0
20526,-100,4,2,2,30,0,0
20611,-100,4,2,2,60,0,0
21890,-100,4,2,2,30,0,0
21975,-100,4,2,2,60,0,0
22572,-100,4,2,1,60,0,0
22998,-100,4,2,1,5,0,0
23083,-100,4,2,1,60,0,0
23509,-100,4,2,1,5,0,0
23594,-100,4,2,1,60,0,0
23935,-100,4,2,2,60,0,0
24276,-100,4,2,2,60,0,0
24617,-100,4,2,1,60,0,0
24788,-100,4,1,1,45,0,0
25128,-100,4,2,2,45,0,0
25384,-100,4,2,3,65,0,0
29390,-100,4,2,3,45,0,0
29475,-100,4,2,3,65,0,0
30753,-100,4,2,2,65,0,0
30839,-100,4,2,3,65,0,0
33480,-100,4,2,2,35,0,0
33565,-100,4,2,3,65,0,0
34844,-100,4,2,3,45,0,0
34930,-100,4,2,3,65,0,0
36208,-100,4,2,2,50,0,0
36293,-100,4,2,3,65,0,0
38935,-100,4,2,3,40,0,0
39020,-100,4,1,1,40,0,0
39275,-100,4,2,3,65,0,0
39617,-100,4,1,1,40,0,0
39873,-100,4,2,3,65,0,0
40724,-100,4,1,1,35,0,0
40981,-100,4,1,1,50,0,0
41002,-100,4,2,1,65,0,0
41321,-100,4,2,1,50,0,0
41663,-100,4,2,2,70,0,0
41748,-100,4,2,3,70,0,0
45370,-100,4,2,3,70,0,0
46052,-100,4,2,3,70,0,0
47117,-100,4,2,3,40,0,0
47202,-100,4,2,3,70,0,0
47628,-100,4,2,2,40,0,0
47714,-100,4,2,3,70,0,0
51890,-100,4,2,3,45,0,0
51975,-100,4,2,3,70,0,0
52572,-100,4,2,2,50,0,0
52657,-100,4,2,3,70,0,0
55299,-100,4,2,2,35,0,0
55384,-100,4,2,3,70,0,0
58026,-100,4,2,2,50,0,0
58111,-100,4,2,3,70,0,0
62884,-100,4,2,3,50,0,0
63055,-100,4,2,3,70,0,0
63481,-100,4,2,3,50,0,0
63566,-100,4,2,3,70,0,0
68935,-100,4,2,2,50,0,0
69020,-100,4,2,3,70,0,0
74219,-100,4,1,1,40,0,0
74389,-100,4,2,2,60,0,0
74474,-100,4,2,3,70,0,1
79843,-100,4,2,2,50,0,1
79929,-100,4,2,3,70,0,1
85128,-100,4,2,3,70,0,0

[Colours]
Combo1 : 242,136,155
Combo2 : 148,135,207
Combo3 : 96,168,255
Combo4 : 218,166,160

[HitObjects]
87,291,923,5,2,0:0:0:0:
176,278,1264,2,0,L|229:269,1,50,0|0,0:0|0:0,0:0:0:0:
267,284,1605,2,0,P|245:238|263:183,1,100,2|0,0:0|0:0,0:0:0:0:
311,121,2287,5,2,0:0:0:0:
348,202,2628,2,0,L|409:211,1,50,0|2,0:0|0:0,0:0:0:0:
438,191,2968,2,0,P|458:146|446:92,1,100,2|0,0:0|0:0,0:0:0:0:
372,55,3650,5,2,0:0:0:0:
311,121,3991,1,0,0:0:0:0:
311,121,4162,1,2,0:0:0:0:
311,121,4332,2,0,L|206:107,1,100,0|2,0:0|0:0,0:0:0:0:
127,140,5014,6,0,P|125:165|140:198,1,50,2|0,0:0|0:0,0:0:0:0:
176,215,5355,2,0,L|238:202,1,50,0|2,0:0|0:0,0:0:0:0:
264,225,5696,2,0,P|278:271|250:322,1,100,0|2,0:0|0:0,0:0:0:0:
332,365,6378,5,2,0:0:0:0:
386,293,6718,2,0,L|397:231,1,50
374,203,7059,2,0,P|422:205|471:158,1,100,2|0,0:0|0:0,0:0:0:0:
391,118,7741,6,0,L|275:131,1,100,2|0,0:0|0:0,0:0:0:0:
257,158,8253,1,2,0:0:0:0:
254,203,8423,2,0,B|246:226|246:226|280:266|245:313,1,100,2|2,0:0|0:0,0:0:0:0:
172,273,9105,5,0,0:0:0:0:
113,341,9446,2,0,L|59:330,1,50,2|0,0:0|0:0,0:0:0:0:
33,364,9787,2,0,P|43:340|29:266,1,100,0|2,0:0|0:0,0:0:0:0:
100,211,10468,6,0,L|159:207,1,50,0|0,0:0|0:0,0:0:0:0:
179,242,10809,2,0,P|206:251|288:220,1,100,2|0,0:0|0:0,0:0:0:0:
307,202,11321,2,0,P|318:181|315:144,1,50,0|0,0:0|0:0,0:0:0:0:
298,115,11662,5,4,0:0:0:0:
208,127,12003,1,0,3:0:0:0:
145,190,12343,1,2,2:1:0:0:
157,279,12684,2,0,B|203:311|246:264|246:264|277:328|235:369,1,200,0|0,3:0|3:0,0:0:0:0:
331,251,13878,5,0,0:0:0:0:
331,251,14048,2,0,L|449:237,1,100,0|2,3:0|0:0,0:0:0:0:
508,194,14730,1,0,3:0:0:0:
508,103,15071,1,0,0:0:0:0:
453,31,15412,2,0,B|401:67|320:9|320:9|295:10|269:51,1,200,0|0,3:0|3:0,0:0:0:0:
146,63,16605,5,0,0:0:0:0:
146,63,16775,2,0,L|132:132,1,50,0|2,3:0|0:0,0:0:0:0:
108,147,17116,2,0,P|72:148|20:108,1,100,4|0,0:0|3:0,0:0:0:0:
61,30,17798,1,2,0:0:0:0:
146,63,18139,2,0,L|352:108,1,200,0|0,3:0|3:0,0:0:0:0:
400,227,19332,5,0,0:0:0:0:
424,264,19503,2,0,P|432:288|403:362,1,100,0|2,3:0|0:0,0:0:0:0:
340,298,20184,2,0,P|302:310|224:298,1,100,0|2,3:0|0:0,0:0:0:0:
283,224,20866,2,0,L|249:378,1,150,0|0,3:0|0:0,0:0:0:0:
205,367,21548,2,0,P|158:372|101:338,1,100,0|2,3:0|0:0,0:0:0:0:
75,266,22230,1,0,3:0:0:0:
131,195,22571,6,0,L|107:43,2,150,2|2|2,3:2|0:0|3:2,0:0:0:0:
209,238,23934,1,0,3:0:0:0:
285,189,24275,1,8,0:0:0:0:
209,140,24616,1,2,0:0:0:0:
209,238,24957,2,0,L|198:301,1,50,2|8,0:2|3:0,0:0:0:0:
167,318,25298,6,0,P|97:328|23:269,2,150,4|0|8,0:0|3:0|0:0,0:0:0:0:
251,349,26662,2,0,P|321:339|395:398,2,150,0|0|8,3:0|3:0|0:0,0:0:0:0:
235,260,28025,2,0,L|202:102,1,150,0|0,3:0|3:0,0:0:0:0:
291,91,28878,1,0,3:0:0:0:
291,91,29048,1,10,0:0:0:0:
366,140,29389,6,0,P|381:92|356:30,1,100,4|8,3:2|0:0,0:0:0:0:
291,91,30071,1,0,3:0:0:0:
290,181,30412,1,8,0:0:0:0:
366,228,30753,5,4,3:2:0:0:
366,228,30923,2,0,L|378:276,1,50,0|8,0:0|0:0,0:0:0:0:
350,312,31264,2,0,B|324:315|324:315|283:297|283:297|252:301,1,100,0|0,3:0|3:0,0:0:0:0:
222,269,31775,1,8,0:0:0:0:
265,190,32116,5,0,3:0:0:0:
302,164,32287,2,0,B|317:144|317:144|328:92|297:57,1,100,0|0,0:0|3:0,0:0:0:0:
223,38,32968,1,0,3:0:0:0:
223,38,33139,2,0,L|166:51,1,50,8|0,0:0|3:0,0:0:0:0:
138,76,33480,6,0,B|112:63|112:63|73:87|29:64,1,100,4|8,3:2|0:0,0:0:0:0:
15,40,33991,2,0,L|54:197,1,150,0|10,3:0|0:0,0:0:0:0:
91,266,34843,2,0,P|45:276|-7:245,2,100,4|8|0,3:2|0:0|3:0,0:0:0:0:
149,198,35866,5,8,0:0:0:0:
149,198,36037,1,0,3:0:0:0:
149,198,36207,2,0,B|194:221|199:300|148:333,2,150,4|0|8,3:2|3:0|0:0,0:0:0:0:
224,147,37571,2,0,L|343:167,1,100,0|10,3:0|0:0,0:0:0:0:
411,151,38253,2,0,P|426:122|413:52,1,100,2|10,0:0|0:0,0:0:0:0:
327,41,38934,6,0,L|174:68,1,150,4|0,3:2|3:0,0:0:0:0:
164,109,39616,2,0,P|121:112|58:81,1,100,0|8,0:0|0:0,0:0:0:0:
37,58,40128,1,0,3:0:0:0:
34,12,40298,2,0,L|2:173,1,150,0|0,3:0|0:0,0:0:0:0:
28,197,40980,2,0,P|34:243|5:294,1,100
63,362,41662,5,4,0:0:0:0:
111,280,42003,2,0,B|157:254|157:254|195:287|147:358,1,150,8|0,0:0|0:0,0:0:0:0:
192,370,42684,2,0,L|307:357,1,100,8|0,0:0|3:0,0:0:0:0:
365,306,43366,2,0,B|392:337|392:337|411:297|370:220|370:220|395:196|420:225,1,200,8|8,0:0|0:0,0:0:0:0:
478,163,44389,5,0,3:0:0:0:
428,87,44730,1,8,0:0:0:0:
354,138,45071,2,0,L|294:127,1,50,0|0,3:0|0:0,0:0:0:0:
282,168,45412,2,0,P|250:178|175:151,1,100,8|0,0:0|3:0,0:0:0:0:
166,74,46093,1,8,0:0:0:0:
246,34,46434,1,0,3:0:0:0:
318,89,46775,1,8,0:0:0:0:
282,168,47116,6,0,P|294:219|267:272,1,100,4|8,3:2|0:0,0:0:0:0:
243,292,47628,1,2,0:0:0:0:
197,293,47798,2,0,L|186:352,2,50,0|0|8,3:0|0:0|0:0,0:0:0:0:
109,313,48480,1,0,3:0:0:0:
49,245,48821,2,0,B|68:213|68:213|22:151|60:98|60:98|28:50,1,200,8|8,0:0|0:0,0:0:0:0:
116,21,49843,1,0,3:0:0:0:
166,95,50184,6,0,L|267:74,1,100,8|0,0:0|3:0,0:0:0:0:
255,164,50866,2,0,L|356:143,1,100,8|0,0:0|3:0,0:0:0:0:
436,178,51548,1,8,0:0:0:0:
489,105,51889,2,0,P|496:77|490:49,1,50,4|8,3:0|0:0,0:0:0:0:
464,22,52230,1,8,0:0:0:0:
419,17,52400,2,0,P|395:19|367:38,1,50,8|4,0:0|3:2,0:0:0:0:
359,74,52741,6,0,B|350:125|420:170|478:132,1,150,0|0,0:0|3:0,0:0:0:0:
487,226,53593,2,0,L|476:276,1,50,8|0,0:0|0:0,0:0:0:0:
493,316,53934,2,0,P|439:319|400:367,1,100,0|8,3:0|0:0,0:0:0:0:
337,291,54616,2,0,L|227:279,1,100,0|8,3:0|0:0,0:0:0:0:
169,339,55298,6,0,P|148:299|156:241,1,100,4|8,3:2|0:0,0:0:0:0:
237,280,55980,1,0,3:0:0:0:
169,339,56321,2,0,L|9:321,1,150,8|0,0:0|0:0,0:0:0:0:
3,280,57003,2,0,B|0:260|17:233|17:233|5:218|13:183,1,100,8|0,0:0|3:0,0:0:0:0:
88,133,57684,5,8,0:0:0:0:
88,133,57855,1,8,0:0:0:0:
88,133,58025,2,0,L|72:77,1,50,12|0,0:0|0:0,0:0:0:0:
109,56,58366,2,0,P|70:55|23:12,2,100,8|0|8,0:0|3:0|0:0,0:0:0:0:
192,22,59389,1,0,3:0:0:0:
231,102,59730,1,8,0:0:0:0:
315,133,60071,2,0,P|359:135|406:97,1,100,0|8,3:0|0:0,0:0:0:0:
330,49,60753,5,0,3:0:0:0:
247,85,61093,2,0,P|227:130|254:188,1,100,8|0,0:0|3:0,0:0:0:0:
310,235,61775,1,8,0:0:0:0:
367,165,62116,1,0,3:0:0:0:
409,244,62457,2,0,L|466:253,1,50,8|0,0:0|0:0,0:0:0:0:
482,289,62798,6,0,P|485:307|470:346,1,50,0|8,3:0|3:0,0:0:0:0:
435,356,63139,2,0,L|382:346,1,50,8|8,0:0|0:0,0:0:0:0:
344,363,63480,6,0,B|327:375|327:375|275:347|233:374,1,100,4|8,3:2|0:0,0:0:0:0:
174,316,64162,2,0,L|72:332,1,100,0|8,3:0|0:0,0:0:0:0:
11,268,64843,1,0,3:0:0:0:
64,195,65184,2,0,B|110:206|153:165|153:165|114:117|147:60,1,200,8|8,0:0|0:0,0:0:0:0:
220,113,66207,5,0,3:0:0:0:
303,80,66548,2,0,B|390:100|395:8|489:28,1,200,8|8,0:0|0:0,0:0:0:0:
457,112,67571,1,0,3:0:0:0:
426,196,67912,2,0,B|401:243|443:295|443:295|425:329|397:328,1,150,8|0,0:0|0:0,0:0:0:0:
376,350,68593,2,0,P|360:350|325:335,1,50,8|2,0:0|0:0,0:0:0:0:
307,297,68934,6,0,L|203:315,1,100,4|8,3:2|0:0,0:0:0:0:
122,284,69616,2,0,P|103:289|76:310,1,50,0|0,3:0|0:0,0:0:0:0:
67,350,69957,6,0,L|36:196,1,150,8|0,0:0|0:0,0:0:0:0:
67,168,70639,2,0,P|82:128|62:63,2,100,8|0|8,0:0|3:0|0:0,0:0:0:0:
132,230,71662,1,0,3:0:0:0:
217,203,72003,6,0,L|321:216,1,100,8|0,0:0|3:2,0:0:0:0:
384,156,72684,2,0,B|410:119|394:61|394:61|370:72|333:54,1,150,8|0,0:0|0:0,0:0:0:0:
304,38,73366,2,0,B|286:31|286:31|229:50|229:50|207:41,1,100,8|0,0:0|3:0,0:0:0:0:
179,75,73878,1,8,0:0:0:0:
134,82,74048,2,0,P|118:85|72:72,1,50,8|0,0:0|0:0,0:0:0:0:
52,110,74389,6,0,B|31:144|31:144|78:204|51:262,1,150,12|0,0:2|0:0,0:0:0:0:
92,273,75071,2,0,P|95:328|66:367,2,100,8|8|8,0:2|0:0|0:2,0:0:0:0:
161,218,76093,2,0,L|274:237,1,100,8|8,0:0|0:2,0:0:0:0:
324,296,76775,5,8,0:0:0:0:
411,274,77116,1,8,0:0:0:0:
437,187,77457,1,8,0:0:0:0:
368,126,77798,2,0,B|358:111|358:111|376:31,1,100,8|8,0:0|0:0,0:0:0:0:
462,6,78480,5,8,0:0:0:0:
512,80,78821,1,8,0:0:0:0:
456,150,79162,1,8,0:0:0:0:
373,113,79503,2,0,L|311:124,1,50,8|8,0:0|0:0,0:0:0:0:
297,158,79843,6,0,B|315:186|315:186|298:274,1,100,12|8,0:0|0:0,0:0:0:0:
226,301,80525,1,8,0:0:0:0:
156,243,80866,2,0,L|105:254,1,50,8|0,0:0|0:0,0:0:0:0:
78,218,81207,2,0,B|68:200|68:200|81:154|81:154|66:127|71:106,1,100,8|8,0:0|0:0,0:0:0:0:
160,128,81889,1,8,0:0:0:0:
202,48,82230,2,0,L|189:-16,2,50,8|0|8,0:0|0:0|0:0,0:0:0:0:
248,125,82912,5,8,0:0:0:0:
293,47,83253,2,0,L|408:70,1,100,8|8,0:0|0:0,0:0:0:0:
411,107,83764,1,0,0:0:0:0:
449,129,83934,2,0,P|476:127|502:114,2,50,8|0|8,0:0|0:0|0:0,0:0:0:0:
384,191,84616,1,8,0:0:0:0:
449,260,84957,5,8,0:0:0:0:
449,260,85128,1,8,0:0:0:0:
