osu file format v14

[General]
AudioFilename: audio.mp3
AudioLeadIn: 0
PreviewTime: 41321
Countdown: 0
SampleSet: Soft
StackLeniency: 0.4
Mode: 0
LetterboxInBreaks: 0
WidescreenStoryboard: 1

[Editor]
Bookmarks: 68028
DistanceSpacing: 1.2
BeatDivisor: 4
GridSize: 32
TimelineZoom: 3.499999

[Metadata]
Title:Kimi to Iu Shinwa (TV Size)
TitleUnicode:君という神話 (TV Size)
Artist:Maeda Jun x yanaginagi
ArtistUnicode:麻枝 准×やなぎなぎ
Creator:kanpakyin
Version:Hard
Source:神様になった日
Tags:The Day I Became a God kami sama ni natta hi Visual Art's VA key P.A.Works Aniplex anime pop j-pop jpop japanese MANYO op opening intro theme song
BeatmapID:2641416
BeatmapSetID:1255002

[Difficulty]
HPDrainRate:6
CircleSize:4
OverallDifficulty:6
ApproachRate:7.5
SliderMultiplier:1.4
SliderTickRate:1

[Events]
//Background and Video events
Video,50,"video.mp4"
0,0,"bg.jpg",0,0
//Break Periods
//Storyboard Layer 0 (Background)
//Storyboard Layer 1 (Fail)
//Storyboard Layer 2 (Pass)
//Storyboard Layer 3 (Foreground)
//Storyboard Layer 4 (Overlay)
//Storyboard Sound Samples

[TimingPoints]
753,340.909090909091,4,2,1,45,1,0
923,-133.333333333333,4,2,1,45,0,0
11321,-133.333333333333,4,1,1,45,0,0
11662,-100,4,2,2,60,0,0
12344,-100,4,2,2,40,0,0
12430,-100,4,2,2,60,0,0
13026,-100,4,2,2,25,0,0
13111,-100,4,2,2,60,0,0
14390,-100,4,2,2,25,0,0
14475,-100,4,2,2,60,0,0
15753,-100,4,2,2,25,0,0
15839,-100,4,2,2,60,0,0
16947,-100,4,2,2,35,0,0
17117,-100,4,2,2,40,0,0
17202,-100,4,2,2,60,0,0
17799,-100,4,2,2,30,0,0
17884,-100,4,2,2,60,0,0
18481,-100,4,2,2,30,0,0
18566,-100,4,2,2,60,0,0
19844,-100,4,2,2,30,0,0
19930,-100,4,2,2,60,0,0
20526,-100,4,2,2,30,0,0
20611,-100,4,2,2,60,0,0
21208,-100,4,2,2,30,0,0
21293,-100,4,2,2,60,0,0
21890,-100,4,2,2,30,0,0
21975,-100,4,2,2,60,0,0
22572,-100,4,2,1,60,0,0
22913,-100,4,2,2,60,0,0
23083,-100,4,2,1,60,0,0
23594,-100,4,2,1,60,0,0
23935,-100,4,2,2,60,0,0
24106,-100,4,2,1,60,0,0
24276,-100,4,2,2,60,0,0
24617,-100,4,2,1,60,0,0
24788,-100,4,1,1,45,0,0
25128,-100,4,2,2,45,0,0
25384,-100,4,2,3,65,0,0
29390,-100,4,2,3,45,0,0
29475,-100,4,2,3,65,0,0
30753,-100,4,2,2,65,0,0
30839,-100,4,2,3,65,0,0
33480,-100,4,2,2,35,0,0
33565,-100,4,2,3,65,0,0
34844,-100,4,2,3,45,0,0
34930,-100,4,2,3,65,0,0
36208,-100,4,2,2,50,0,0
36293,-100,4,2,3,65,0,0
38935,-100,4,2,3,40,0,0
39020,-100,4,1,1,40,0,0
39297,-100,4,2,3,65,0,0
39617,-100,4,1,1,40,0,0
39873,-100,4,2,3,65,0,0
40469,-100,4,1,1,35,0,0
40980,-200,4,1,1,35,0,0
40981,-200,4,1,1,50,0,0
41002,-200,4,2,1,65,0,0
41321,-200,4,2,1,50,0,0
41662,-100,4,2,1,50,0,0
41663,-100,4,2,2,70,0,0
41748,-100,4,2,3,70,0,0
47117,-100,4,2,3,40,0,0
47202,-100,4,2,3,70,0,0
47628,-100,4,2,2,40,0,0
47714,-100,4,2,3,70,0,0
51890,-100,4,2,3,45,0,0
51975,-100,4,2,3,70,0,0
52572,-100,4,2,2,50,0,0
52657,-100,4,2,3,70,0,0
55299,-100,4,2,2,35,0,0
55384,-100,4,2,3,70,0,0
58026,-100,4,2,2,50,0,0
58111,-100,4,2,3,70,0,0
62884,-100,4,2,3,50,0,0
63055,-100,4,2,3,70,0,0
63481,-100,4,2,3,50,0,0
63566,-100,4,2,3,70,0,0
68935,-100,4,2,2,50,0,0
69020,-100,4,2,3,70,0,0
74389,-100,4,2,2,60,0,1
74475,-100,4,2,3,70,0,1
79843,-100,4,2,2,50,0,1
79930,-100,4,2,3,70,0,1
85128,-100,4,2,3,70,0,0

[Colours]
Combo1 : 242,136,155
Combo2 : 148,135,207
Combo3 : 96,168,255
Combo4 : 218,166,160

[HitObjects]
82,190,923,6,0,L|24:180,2,52.5000020027161,2|0|0,0:0|0:0|0:0,0:0:0:0:
131,121,1434,1,0,0:0:0:0:
206,158,1605,2,0,P|220:207|186:274,1,105.000004005432,2|0,0:0|0:0,0:0:0:0:
34,260,2287,5,2,0:0:0:0:
47,343,2457,1,0,0:0:0:0:
121,380,2628,2,0,P|144:378|178:365,1,52.5000020027161,0|2,0:0|0:0,0:0:0:0:
245,327,2968,2,0,B|284:314|327:341|327:341|348:334|352:319,1,105.000004005432,2|0,0:0|0:0,0:0:0:0:
438,192,3650,5,2,0:0:0:0:
438,192,3821,1,0,0:0:0:0:
438,192,3991,2,0,L|376:200,1,52.5000020027161,0|2,0:0|0:0,0:0:0:0:
284,125,4332,2,0,P|261:99|259:31,1,105.000004005432,0|2,0:0|0:0,0:0:0:0:
485,124,5014,5,2,0:0:0:0:
449,200,5184,1,0,0:0:0:0:
414,276,5355,2,0,L|432:332,1,52.5000020027161,0|2,0:0|0:0,0:0:0:0:
362,206,5696,2,0,B|326:225|275:202|275:202|253:221,1,105.000004005432,0|2,0:0|0:0,0:0:0:0:
188,60,6378,5,2,0:0:0:0:
204,132,6548,1,0,0:0:0:0:
142,170,6718,1,0,0:0:0:0:
93,122,6889,1,0,0:0:0:0:
115,54,7059,2,0,B|93:43|93:43|48:67|8:44,1,105.000004005432,2|0,0:0|0:0,0:0:0:0:
64,209,7741,6,0,L|49:268,1,52.5000020027161,0|2,0:0|0:0,0:0:0:0:
133,279,8082,2,0,L|141:334,1,52.5000020027161,0|2,0:0|0:0,0:0:0:0:
300,367,8423,2,0,P|253:371|216:320,1,105.000004005432,2|2,0:0|0:0,0:0:0:0:
351,299,9105,5,0,0:0:0:0:
420,251,9275,1,0,0:0:0:0:
344,213,9446,2,0,L|284:225,1,52.5000020027161,2|0,0:0|0:0,0:0:0:0:
419,168,9787,2,0,B|437:132|412:95|412:95|410:66|439:57,1,105.000004005432,0|2,0:0|0:0,0:0:0:0:
269,145,10468,6,0,P|245:139|210:119,1,52.5000020027161,0|0,0:0|0:0,0:0:0:0:
194,46,10809,1,2,0:0:0:0:
140,110,10980,2,0,L|154:225,1,105.000004005432,2|0,0:0|0:0,0:0:0:0:
143,226,11406,1,0,0:0:0:0:
128,232,11491,2,0,P|104:232|60:211,1,52.5000020027161,0|4,0:0|0:0,0:0:0:0:
374,205,12003,6,0,L|341:373,2,140,0|2|0,3:0|2:1|3:0,0:0:0:0:
503,75,13025,1,2,0:0:0:0:
426,275,13366,2,0,P|360:285|296:237,1,140,0|0,3:0|0:0,0:0:0:0:
262,171,13878,5,0,0:0:0:0:
339,68,14048,2,0,L|176:89,1,140,0|2,3:0|0:0,0:0:0:0:
142,147,14559,1,0,0:0:0:0:
58,159,14730,2,0,P|26:157|-5:134,1,70,0|0,3:0|0:0,0:0:0:0:
53,80,15071,2,0,L|72:245,1,140,0|0,0:0|3:0,0:0:0:0:
136,270,15582,1,0,0:0:0:0:
92,341,15753,6,0,P|66:348|16:325,1,70,2|0,0:0|0:0,0:0:0:0:
136,270,16093,2,0,L|222:278,1,70,0|0,3:0|0:0,0:0:0:0:
281,312,16434,2,0,P|286:331|265:385,1,70
309,238,16775,5,0,3:0:0:0:
380,293,16946,1,2,0:0:0:0:
380,293,17031,1,2,0:0:0:0:
380,293,17116,2,0,B|420:304|446:258|503:274,1,105,4|0,0:0|0:0,0:0:0:0:
492,255,17457,2,0,L|505:178,1,70,0|0,3:0|0:0,0:0:0:0:
431,142,17798,1,2,0:0:0:0:
239,167,18139,6,0,P|185:171|87:141,1,140,0|2,3:0|2:3,0:0:0:0:
50,83,18650,1,0,0:0:0:0:
133,70,18821,1,0,3:0:0:0:
25,166,18991,2,0,L|40:248,1,70,0|0,0:0|0:0,0:0:0:0:
98,293,19332,5,0,0:0:0:0:
211,242,19503,2,0,L|171:379,1,140,0|2,3:0|0:0,0:0:0:0:
256,373,20014,1,0,0:0:0:0:
302,303,20184,2,0,L|382:316,1,70,0|0,3:0|0:0,0:0:0:0:
446,276,20525,1,2,0:0:0:0:
442,191,20696,1,0,0:0:0:0:
371,236,20866,2,0,B|336:190|368:144|368:144|362:122|338:111,1,140,0|2,3:0|0:0,0:0:0:0:
218,228,21548,5,0,3:0:0:0:
142,192,21718,1,0,0:0:0:0:
115,112,21889,1,2,0:0:0:0:
150,36,22059,1,0,0:0:0:0:
285,100,22230,2,0,L|408:83,1,105,0|0,3:0|0:0,0:0:0:0:
402,72,22571,6,0,B|412:47|412:47|403:-3,1,70,2|0,3:2|0:0,0:0:0:0:
470,114,22912,1,0,3:0:0:0:
470,114,23082,2,0,P|485:178|453:243,1,140,2|0,0:0|0:0,0:0:0:0:
380,283,23593,2,0,L|241:258,1,140,2|0,3:2|3:0,0:0:0:0:
183,197,24105,1,2,0:0:0:0:
175,315,24275,6,0,B|115:309|100:364|25:351,1,140,8|2,0:0|3:2,0:0:0:0:
22,270,24787,1,0,0:0:0:0:
22,270,24872,1,0,0:0:0:0:
22,270,24957,2,0,P|15:251|17:220,2,35,2|0|0,0:2|0:0|0:0,0:0:0:0:
74,168,25298,6,0,L|155:182,1,70,4|0,0:0|0:0,0:0:0:0:
225,164,25639,1,8,0:0:0:0:
197,243,25809,2,0,B|246:272|290:230|290:230|304:255|344:272,1,140,0|0,3:0|3:0,0:0:0:0:
378,140,26321,1,8,0:0:0:0:
378,140,26662,6,0,L|478:151,1,70,0|0,3:0|0:0,0:0:0:0:
484,72,27003,1,8,0:0:0:0:
318,79,27173,2,0,P|292:132|333:211,1,140,0|0,3:0|3:0,0:0:0:0:
403,281,27684,2,0,L|488:274,1,70,8|0,0:0|3:0,0:0:0:0:
359,350,28025,6,0,B|316:365|263:333|263:333|239:337|220:361,1,140,0|8,3:0|0:0,0:0:0:0:
178,282,28537,2,0,B|114:297|107:241|46:246,1,140,0|0,3:0|3:0,0:0:0:0:
169,201,29048,1,10,0:0:0:0:
169,201,29389,6,0,L|263:192,1,70,4|0,3:2|0:0,0:0:0:0:
312,152,29730,2,0,L|406:143,1,70,8|0,0:0|3:0,0:0:0:0:
495,260,30071,6,0,L|419:252,1,70,0|0,3:0|0:0,0:0:0:0:
358,303,30412,2,0,L|282:295,1,70,8|0,0:0|0:0,0:0:0:0:
157,308,30753,5,4,3:2:0:0:
157,308,30923,2,0,B|104:330|50:290|50:240,1,140,0|0,0:0|3:0,0:0:0:0:
106,184,31434,1,2,0:0:0:0:
175,230,31605,1,0,3:0:0:0:
157,308,31775,2,0,L|142:388,1,70,10|0,0:0|0:0,0:0:0:0:
51,247,32116,5,0,3:0:0:0:
51,247,32287,2,0,B|61:221|61:221|32:176|59:132|59:132|32:106,1,140,0|0,0:0|3:0,0:0:0:0:
125,176,32798,1,0,0:0:0:0:
200,139,32968,1,0,3:0:0:0:
219,57,33139,2,0,L|134:43,1,70,10|0,0:0|3:0,0:0:0:0:
279,115,33480,5,4,3:2:0:0:
279,115,33650,2,0,B|334:97|357:165|425:141,1,140,0|0,0:0|3:0,0:0:0:0:
484,104,34162,1,2,0:0:0:0:
464,22,34332,2,0,L|382:31,1,70,0|10,3:0|0:0,0:0:0:0:
349,133,34673,5,8,0:0:0:0:
345,150,34758,1,8,0:0:0:0:
342,167,34843,2,0,B|332:197|332:197|370:251|326:303,1,140,4|8,3:2|0:0,0:0:0:0:
262,246,35355,1,0,0:0:0:0:
392,352,35525,2,0,P|370:371|315:373,1,70,0|8,3:0|0:0,0:0:0:0:
317,375,35781,1,8,0:0:0:0:
303,370,35866,2,0,L|225:355,1,70,8|0,0:0|3:0,0:0:0:0:
330,297,36207,6,0,L|469:317,1,140,4|8,3:2|0:0,0:0:0:0:
441,236,36718,2,0,P|470:209|453:105,1,140,0|0,3:0|3:0,0:0:0:0:
334,177,37230,2,0,L|425:163,1,70,8|0,0:0|0:0,0:0:0:0:
266,135,37571,6,0,B|214:165|164:131|164:131|131:150|158:172,1,140,0|10,3:0|0:0,0:0:0:0:
216,69,38082,2,0,P|228:39|222:-1,1,70,0|2,3:0|0:0,0:0:0:0:
143,29,38423,1,0,3:0:0:0:
74,79,38593,2,0,P|35:73|-6:0,1,105,10|0,0:0|0:0,0:0:0:0:
8,12,38934,6,0,L|-6:90,1,70,4|0,3:2|0:0,0:0:0:0:
3,92,39190,1,0,0:0:0:0:
10,103,39275,2,0,L|23:198,1,70,0|0,0:0|3:0,0:0:0:0:
88,220,39616,1,0,0:0:0:0:
83,236,39701,1,0,0:0:0:0:
78,252,39787,2,0,L|91:330,1,70,0|8,0:0|0:0,0:0:0:0:
192,253,40128,1,0,3:0:0:0:
203,377,40298,6,0,P|217:378|240:372,1,35,0|0,3:0|0:0,0:0:0:0:
251,363,40468,2,0,P|265:345|270:318,2,35
345,337,40809,6,0,P|365:335|393:351,1,35
392,351,40980,2,0,L|377:242,1,105
440,190,41662,6,0,P|464:146|445:44,1,140,4|8,0:0|0:0,0:0:0:0:
376,91,42173,1,0,0:0:0:0:
294,109,42343,2,0,B|250:93|250:93|221:142|272:202,1,140,0|8,3:0|0:0,0:0:0:0:
184,225,42855,1,0,0:0:0:0:
115,177,43025,2,0,B|89:162|48:195|48:195|23:190|0:154,1,105,0|0,3:0|0:0,0:0:0:0:
10,166,43366,2,0,L|29:257,1,70,8|0,0:0|0:0,0:0:0:0:
115,176,43707,2,0,P|138:131|130:69,1,105,0|0,3:0|0:0,0:0:0:0:
121,61,44048,6,0,L|36:73,1,70,8|0,0:0|0:0,0:0:0:0:
10,166,44389,2,0,P|0:235|43:290,1,140,0|8,3:0|0:0,0:0:0:0:
113,330,44900,2,0,L|202:320,1,70,0|0,0:0|3:0,0:0:0:0:
258,357,45241,1,0,0:0:0:0:
170,237,45412,6,0,L|312:257,1,140,8|0,0:0|3:0,0:0:0:0:
357,325,45923,1,0,0:0:0:0:
439,339,46093,2,0,P|468:339|511:322,1,70,8|0,0:0|0:0,0:0:0:0:
387,247,46434,1,0,3:0:0:0:
357,325,46605,1,0,0:0:0:0:
248,209,46775,5,8,0:0:0:0:
328,184,46946,1,0,0:0:0:0:
387,247,47116,2,0,B|425:221|413:161|413:161|442:143|476:178,1,140,4|8,3:2|0:0,0:0:0:0:
432,79,47628,1,2,0:0:0:0:
432,79,47798,2,0,L|291:52,1,140,0|8,3:0|0:0,0:0:0:0:
232,110,48309,1,0,0:0:0:0:
149,93,48480,2,0,P|119:95|77:75,1,70,0|0,3:0|0:0,0:0:0:0:
196,29,48821,6,0,P|160:74|69:72,1,140,8|0,0:0|3:0,0:0:0:0:
41,242,49503,2,0,P|97:248|135:302,1,105,8|0,0:0|0:0,0:0:0:0:
137,297,49843,2,0,P|142:334|123:372,1,70,0|0,3:0|0:0,0:0:0:0:
211,247,50184,6,0,P|245:246|282:221,1,70,8|0,0:0|0:0,0:0:0:0:
238,103,50525,2,0,P|221:132|225:177,1,70,0|0,3:0|0:0,0:0:0:0:
352,197,50866,2,0,P|334:168|293:148,1,70,8|0,0:0|0:0,0:0:0:0:
275,228,51207,6,0,L|260:344,1,105,0|0,3:0|0:0,0:0:0:0:
245,339,51548,2,0,P|216:338|176:367,1,70,8|0,0:0|0:0,0:0:0:0:
127,233,51889,5,4,3:0:0:0:
127,233,52059,2,0,L|38:219,1,70,8|8,0:0|0:0,0:0:0:0:
42,202,52315,1,8,0:0:0:0:
39,177,52400,1,8,0:0:0:0:
45,153,52485,1,8,0:0:0:0:
60,133,52571,6,0,L|-9:140,1,70,4|0,3:2|0:0,0:0:0:0:
128,71,52912,1,8,0:0:0:0:
128,71,53082,2,0,B|170:68|170:68|225:89|225:89|288:83,1,140,0|0,0:0|0:0,0:0:0:0:
337,125,53593,2,0,P|347:74|330:32,1,70,8|0,0:0|0:0,0:0:0:0:
264,165,53934,6,0,B|268:201|235:229|235:229|270:258|247:311,1,140,0|8,3:0|0:0,0:0:0:0:
320,342,54446,1,0,0:0:0:0:
373,277,54616,2,0,L|525:257,1,140,0|8,3:0|0:0,0:0:0:0:
453,191,55128,1,0,0:0:0:0:
474,345,55298,6,0,P|405:334|374:256,1,140,4|8,3:2|0:0,0:0:0:0:
320,342,55809,2,0,L|237:331,1,70,0|0,0:0|3:0,0:0:0:0:
196,267,56150,1,0,0:0:0:0:
85,341,56321,2,0,B|45:354|45:354|6:303|45:240,1,140,8|0,0:0|3:0,0:0:0:0:
109,224,56832,1,0,0:0:0:0:
75,147,57003,2,0,L|-11:134,1,70,8|0,0:0|0:0,0:0:0:0:
161,149,57343,2,0,P|188:106|169:18,1,140,0|8,3:0|0:0,0:0:0:0:
112,81,57855,5,8,0:0:0:0:
112,81,57940,1,8,0:0:0:0:
112,81,58025,2,0,L|272:109,1,140,12|8,0:0|0:0,0:0:0:0:
320,152,58537,1,2,0:0:0:0:
431,56,58707,5,0,3:0:0:0:
403,134,58878,1,0,0:0:0:0:
375,213,59048,2,0,P|311:233|249:193,1,140,8|0,0:0|3:0,0:0:0:0:
116,0,59730,2,0,L|132:156,1,140,8|0,0:0|3:0,0:0:0:0:
105,219,60241,1,0,0:0:0:0:
43,276,60412,2,0,P|26:253|30:202,1,70,8|0,0:0|0:0,0:0:0:0:
190,203,60753,6,0,B|196:217|227:220|227:220|260:198|309:210,1,105,0|0,3:0|0:0,0:0:0:0:
300,216,61093,2,0,L|395:227,1,70,8|0,0:0|0:0,0:0:0:0:
476,130,61434,2,0,P|415:147|354:100,1,140,0|8,3:0|0:0,0:0:0:0:
411,40,61946,1,0,0:0:0:0:
327,32,62116,2,0,L|173:54,1,140,0|8,3:0|0:0,0:0:0:0:
413,146,62798,5,0,3:0:0:0:
398,276,62968,2,0,P|378:289|312:279,1,70,8|8,3:0|0:0,0:0:0:0:
349,214,63309,1,8,0:0:0:0:
467,228,63480,6,0,B|489:263|489:263|454:315|482:363,2,140,4|8|0,3:2|0:0|3:0,0:0:0:0:
349,214,64332,1,2,0:0:0:0:
376,333,64503,6,0,B|330:357|278:321|278:321|252:338|225:342,1,140,8|0,0:0|3:0,0:0:0:0:
165,309,65014,1,2,0:0:0:0:
138,229,65184,2,0,L|44:241,1,70,8|2,0:0|0:0,0:0:0:0:
218,170,65525,1,0,3:0:0:0:
219,254,65696,1,2,0:0:0:0:
135,142,65866,6,0,P|120:98|156:17,1,140,8|0,0:0|3:0,0:0:0:0:
241,22,66378,1,2,0:0:0:0:
201,94,66548,2,0,B|142:118|119:68|62:91,2,140,8|0|8,0:0|3:0|0:0,0:0:0:0:
324,26,67400,5,2,0:0:0:0:
287,101,67571,2,0,P|308:155|270:232,1,140,0|8,3:0|0:0,0:0:0:0:
219,384,68253,2,0,P|187:335|217:243,1,140,0|8,3:0|0:0,0:0:0:0:
276,226,68764,1,2,0:0:0:0:
133,217,68934,6,0,P|109:218|62:192,2,70,4|0|8,3:2|0:0|0:0,0:0:0:0:
206,175,69446,1,2,0:0:0:0:
202,258,69616,2,0,B|233:279|233:279|277:244|337:281,1,140,0|8,3:0|0:0,0:0:0:0:
386,338,70128,1,2,0:0:0:0:
467,319,70298,2,0,B|453:282|489:232|489:232|485:211|457:187,1,140,0|8,3:0|0:0,0:0:0:0:
437,113,70809,1,2,0:0:0:0:
354,95,70980,2,0,L|276:113,1,70,0|2,3:0|0:0,0:0:0:0:
276,26,71321,2,0,L|199:14,1,70,8|2,0:0|0:0,0:0:0:0:
169,90,71662,6,0,B|133:74|104:95|104:95|126:53|114:12,1,140,0|8,3:0|0:0,0:0:0:0:
48,190,72343,1,0,3:2:0:0:
48,190,72684,2,0,L|83:324,1,105,8|0,0:0|0:0,0:0:0:0:
81,308,73025,2,0,P|49:312|7:346,2,70,0|0|8,3:0|0:0|0:0,0:0:0:0:
220,203,73707,5,0,3:0:0:0:
270,320,73878,1,8,0:0:0:0:
352,253,74048,1,8,0:0:0:0:
329,381,74218,5,0,0:0:0:0:
329,381,74304,1,0,0:0:0:0:
329,381,74389,2,0,B|356:358|391:375|391:375|413:328|471:329,1,140,12|8,0:2|0:0,0:0:0:0:
502,268,74900,1,0,0:0:0:0:
477,187,75071,2,0,B|418:199|404:130|334:144,1,140,8|8,0:2|0:0,0:0:0:0:
265,131,75582,1,0,0:0:0:0:
240,211,75753,6,0,P|272:217|323:191,1,70,8|0,0:2|0:0,0:0:0:0:
265,131,76093,1,8,0:0:0:0:
183,151,76264,1,0,0:0:0:0:
163,232,76434,1,8,0:2:0:0:
224,289,76605,1,0,0:0:0:0:
306,205,76775,6,0,B|301:251|340:278|340:278|363:263|415:275,1,140,8|8,0:0|0:0,0:0:0:0:
451,332,77287,1,0,0:0:0:0:
329,358,77457,2,0,L|246:350,1,70,8|0,0:0|0:0,0:0:0:0:
146,314,77798,2,0,L|47:325,1,70,8|0,0:0|0:0,0:0:0:0:
24,206,78139,6,0,P|49:229|83:239,1,70,8|0,0:0|0:0,0:0:0:0:
80,81,78480,2,0,P|47:91|21:115,1,70,8|0,0:0|0:0,0:0:0:0:
161,192,78821,2,0,P|168:157|160:124,1,70,8|0,0:0|0:0,0:0:0:0:
88,160,79162,1,8,0:0:0:0:
88,160,79503,5,8,0:0:0:0:
152,273,79673,1,8,0:0:0:0:
246,212,79843,2,0,B|291:240|334:202|334:202|387:211|385:242,2,140,12|8|8,0:0|0:0|0:0,0:0:0:0:
199,140,80696,1,0,0:0:0:0:
153,69,80866,6,0,L|80:85,1,70,8|0,0:0|0:0,0:0:0:0:
83,168,81207,2,0,P|51:164|18:138,1,70,8|0,0:0|0:0,0:0:0:0:
84,83,81548,1,8,0:0:0:0:
160,282,81889,2,0,B|113:309|70:279|70:279|37:290|44:321,1,140,8|8,0:0|0:0,0:0:0:0:
199,140,82571,1,8,0:0:0:0:
270,358,82912,6,0,L|429:341,1,140,8|8,0:0|0:0,0:0:0:0:
465,280,83423,1,0,0:0:0:0:
492,355,83593,2,0,P|457:361|385:283,1,140,8|8,0:0|0:0,0:0:0:0:
413,215,84105,1,0,0:0:0:0:
496,204,84275,2,0,B|506:168|506:168|494:123,1,70,8|0,0:0|0:0,0:0:0:0:
413,215,84616,2,0,L|272:201,1,140,8|8,0:0|0:0,0:0:0:0:
433,95,85128,5,8,0:0:0:0:
