osu file format v14

[General]
AudioFilename: audio.mp3
AudioLeadIn: 0
PreviewTime: 41321
Countdown: 0
SampleSet: Normal
StackLeniency: 0.5
Mode: 0
LetterboxInBreaks: 0
WidescreenStoryboard: 1

[Editor]
Bookmarks: 68028
DistanceSpacing: 1.1
BeatDivisor: 4
GridSize: 32
TimelineZoom: 1.7

[Metadata]
Title:Kimi to Iu Shinwa (TV Size)
TitleUnicode:君という神話 (TV Size)
Artist:Maeda Jun x yanaginagi
ArtistUnicode:麻枝 准×やなぎなぎ
Creator:kanpakyin
Version:Easy
Source:神様になった日
Tags:The Day I Became a God kami sama ni natta hi Visual Art's VA key P.A.Works Aniplex anime pop j-pop jpop japanese MANYO op opening intro theme song
BeatmapID:2619281
BeatmapSetID:1255002

[Difficulty]
HPDrainRate:3
CircleSize:3.5
OverallDifficulty:3
ApproachRate:4
SliderMultiplier:0.8
SliderTickRate:1

[Events]
//Background and Video events
Video,50,"video.mp4"
0,0,"bg2.jpg",0,0
//Break Periods
//Storyboard Layer 0 (Background)
//Storyboard Layer 1 (Fail)
//Storyboard Layer 2 (Pass)
//Storyboard Layer 3 (Foreground)
//Storyboard Layer 4 (Overlay)
//Storyboard Sound Samples

[TimingPoints]
753,340.909090909091,4,2,1,45,1,0
11662,-100,4,2,2,60,0,0
12343,-100,4,2,2,40,0,0
12429,-100,4,2,2,60,0,0
13025,-100,4,2,2,25,0,0
13110,-100,4,2,2,60,0,0
14389,-100,4,2,2,25,0,0
14474,-100,4,2,2,60,0,0
16946,-100,4,2,2,35,0,0
17116,-100,4,2,2,40,0,0
17201,-100,4,2,2,60,0,0
17798,-100,4,2,2,30,0,0
17883,-100,4,2,2,60,0,0
19843,-100,4,2,2,30,0,0
19929,-100,4,2,2,60,0,0
20525,-100,4,2,2,30,0,0
20610,-100,4,2,2,60,0,0
21889,-100,4,2,2,30,0,0
21974,-100,4,2,2,60,0,0
22571,-100,4,2,1,60,0,0
22997,-100,4,2,1,5,0,0
23082,-100,4,2,1,60,0,0
23508,-100,4,2,1,5,0,0
23593,-100,4,2,1,60,0,0
23934,-100,4,2,2,60,0,0
24616,-100,4,2,1,60,0,0
24787,-100,4,1,1,45,0,0
25127,-100,4,2,2,45,0,0
25383,-100,4,2,3,65,0,0
29389,-100,4,2,3,45,0,0
29474,-100,4,2,3,65,0,0
30752,-100,4,2,2,65,0,0
30838,-100,4,2,3,65,0,0
33480,-100,4,2,2,35,0,0
33565,-100,4,2,3,65,0,0
34843,-100,4,2,3,45,0,0
34929,-100,4,2,3,65,0,0
36207,-100,4,2,2,50,0,0
36292,-100,4,2,3,65,0,0
38934,-100,4,2,3,40,0,0
39019,-100,4,2,1,40,0,0
39296,-100,4,2,3,65,0,0
39616,-100,4,1,1,40,0,0
39872,-100,4,2,3,65,0,0
40468,-100,4,1,1,35,0,0
40980,-100,4,1,1,50,0,0
41001,-100,4,2,1,65,0,0
41662,-100,4,2,2,70,0,0
41747,-100,4,2,3,70,0,0
47116,-100,4,2,3,40,0,0
47201,-100,4,2,3,70,0,0
52571,-100,4,2,2,50,0,0
52656,-100,4,2,3,70,0,0
55298,-100,4,2,2,35,0,0
55383,-100,4,2,3,70,0,0
58025,-100,4,2,2,50,0,0
58110,-100,4,2,3,70,0,0
63480,-100,4,2,3,50,0,0
63565,-100,4,2,3,70,0,0
74389,-100,4,2,2,60,0,0
74474,-100,4,2,3,70,0,1
79843,-100,4,2,2,50,0,1
79929,-100,4,2,3,70,0,1
85128,-100,4,2,3,70,0,0

[Colours]
Combo1 : 242,136,155
Combo2 : 148,135,207
Combo3 : 96,168,255
Combo4 : 218,166,160

[HitObjects]
86,291,923,6,0,B|127:313|127:313|157:263|130:204,1,160,2|2,0:0|0:0,0:0:0:0:
83,129,1946,1,0,0:0:0:0:
171,129,2287,2,0,L|336:157,1,160,2|2,0:0|0:0,0:0:0:0:
412,127,3309,1,0,0:0:0:0:
444,45,3650,5,2,0:0:0:0:
392,304,4673,1,2,0:0:0:0:
314,263,5014,2,0,B|282:252|282:252|183:272,2,120,2|2|2,0:0|0:0|0:0,0:0:0:0:
388,215,6378,6,0,L|472:230,1,80,2|0,0:0|0:0,0:0:0:0:
488,314,7059,2,0,P|485:345|454:384,1,80,2|0,0:0|0:0,0:0:0:0:
400,313,7741,6,0,L|231:329,1,160,0|2,0:0|0:0,0:0:0:0:
189,256,8764,1,2,0:0:0:0:
103,236,9105,2,0,P|65:238|17:263,2,80,0|2|0,0:0|0:0|0:0,0:0:0:0:
159,168,10128,1,2,0:0:0:0:
140,81,10468,2,0,L|302:96,1,160,0|0,0:0|0:0,0:0:0:0:
362,212,11662,5,4,0:0:0:0:
303,277,12003,2,0,B|256:274|256:274|200:297|200:297|136:289,2,160,0|0|0,3:0|3:0|3:0,0:0:0:0:
459,357,14048,2,0,B|488:311|453:255|453:255|467:220|505:241,1,160,0|0,3:0|3:0,0:0:0:0:
399,87,15412,1,0,3:0:0:0:
335,251,16093,2,0,P|259:267|189:218,1,160,0|0,3:0|3:0,0:0:0:0:
197,136,17116,6,0,L|103:159,1,80,4|0,0:0|3:0,0:0:0:0:
53,95,17798,1,2,0:0:0:0:
102,21,18139,2,0,L|265:50,1,160,0|0,3:0|3:0,0:0:0:0:
407,144,19503,6,0,P|431:225|391:300,1,160,0|0,3:0|3:0,0:0:0:0:
314,306,20525,2,0,L|224:295,1,80,2|0,0:0|3:0,0:0:0:0:
177,228,21207,1,0,0:0:0:0:
123,158,21548,2,0,B|77:179|73:211|73:211|108:252|91:305,1,160,0|0,3:0|3:0,0:0:0:0:
158,350,22571,6,0,L|292:331,1,120,2|2,3:2|0:0,0:0:0:0:
394,274,23593,2,0,B|397:234|430:207|430:207|390:171|400:117,1,160,2|8,3:2|0:0,0:0:0:0:
424,50,24616,1,2,3:2:0:0:
339,73,24957,1,2,0:2:0:0:
318,158,25298,6,0,L|144:139,1,160,4|0,0:0|0:0,0:0:0:0:
83,187,26321,1,8,0:0:0:0:
68,273,26662,2,0,P|68:308|95:349,1,80,0|8,3:0|0:0,0:0:0:0:
156,287,27343,2,0,B|214:265|214:265|237:301|201:360,1,160,0|0,0:0|3:0,0:0:0:0:
290,364,28366,2,0,L|381:353,1,80,8|2,0:0|0:0,0:0:0:0:
410,276,29048,1,10,0:0:0:0:
487,316,29389,6,0,P|499:278|486:231,1,80,4|8,3:2|0:0,0:0:0:0:
418,188,30071,2,0,P|395:189|341:167,1,80,0|8,3:0|0:2,0:0:0:0:
402,103,30752,5,4,3:2:0:0:
487,125,31093,2,0,L|503:288,1,160,8|8,0:0|0:0,0:0:0:0:
414,279,32116,6,0,B|386:314|391:360|391:360|351:342|312:358,1,160,0|0,3:0|0:0,0:0:0:0:
254,295,33139,2,0,P|210:307|169:307,1,80,8|4,0:0|3:2,0:0:0:0:
106,253,33821,1,8,0:0:0:0:
137,170,34162,2,0,B|168:128|155:81|155:81|118:58|129:12,1,160,2|4,0:0|3:2,0:0:0:0:
243,157,35525,1,0,3:0:0:0:
166,315,36207,6,0,P|109:326|55:292,2,120,4|0|8,3:2|3:0|0:0,0:0:0:0:
197,232,37571,2,0,L|176:112,2,120,0|0|10,3:0|3:0|0:0,0:0:0:0:
249,303,38934,6,0,P|324:302|394:368,1,160,4|0,3:2|0:0,0:0:0:0:
472,378,39957,1,8,0:0:0:0:
487,291,40298,2,0,L|464:203,1,80,0|0,3:0|0:0,0:0:0:0:
487,128,40980,1,0,0:0:0:0:
369,235,41662,6,0,L|195:204,1,160,4|0,0:0|0:0,0:0:0:0:
164,132,42684,1,8,0:0:0:0:
225,69,43025,2,0,L|382:97,1,160,0|0,3:0|0:0,0:0:0:0:
412,180,44048,1,8,0:0:0:0:
475,240,44389,6,0,P|480:283|461:322,1,80,0|8,3:0|0:0,0:0:0:0:
392,266,45071,2,0,P|362:288|314:295,1,80,0|8,3:0|0:0,0:0:0:0:
322,207,45753,1,0,3:0:0:0:
242,244,46093,1,8,0:0:0:0:
242,332,46434,6,0,B|147:314|147:314|114:339|77:331,1,160,0|4,3:0|3:2,0:0:0:0:
23,271,47457,1,8,0:0:0:0:
46,186,47798,2,0,L|27:94,1,80,0|8,3:0|0:0,0:0:0:0:
117,114,48480,2,0,L|102:32,2,80,0|8|0,3:0|0:0|0:0,0:0:0:0:
192,159,49503,1,8,0:0:0:0:
343,69,50184,6,0,L|331:148,1,80,8|0,0:0|3:0,0:0:0:0:
418,158,50866,2,0,L|436:249,1,80,8|0,0:0|3:0,0:0:0:0:
507,284,51548,2,0,P|445:320|364:286,1,160,8|8,0:0|0:0,0:0:0:0:
311,359,52571,6,0,L|139:335,1,160,4|0,3:2|0:0,0:0:0:0:
67,360,53593,1,8,0:0:0:0:
24,189,54275,2,0,B|86:195|102:127|177:137,1,160,8|8,0:0|0:0,0:0:0:0:
246,181,55298,1,4,3:2:0:0:
291,106,55639,2,0,P|301:73|291:23,1,80,8|0,0:0|3:0,0:0:0:0:
213,65,56321,5,8,0:0:0:0:
334,192,57003,1,8,0:0:0:0:
414,226,57343,2,0,B|444:261|434:322|434:322|396:323|368:337,1,160,0|12,3:0|0:0,0:0:0:0:
290,350,58366,2,0,L|128:332,1,160,8|8,0:0|0:0,0:0:0:0:
53,289,59389,1,0,3:0:0:0:
20,207,59730,2,0,P|12:168|26:120,1,80,8|0,0:0|3:0,0:0:0:0:
99,169,60412,6,0,B|132:145|132:145|192:181|256:148,1,160,8|8,0:0|0:0,0:0:0:0:
282,72,61434,1,0,3:0:0:0:
369,82,61775,1,8,0:0:0:0:
384,168,62116,1,0,3:0:0:0:
309,215,62457,2,0,B|296:256|296:256|339:319|291:371,1,160,8|8,0:0|0:0,0:0:0:0:
226,311,63480,5,4,3:2:0:0:
146,153,64162,1,0,3:0:0:0:
217,101,64503,2,0,L|380:137,1,160,8|8,0:0|0:0,0:0:0:0:
408,308,65866,6,0,P|348:324|261:272,1,160,8|8,0:0|0:0,0:0:0:0:
159,138,67230,6,0,P|222:137|294:197,1,160,8|8,0:0|0:0,0:0:0:0:
266,280,68253,1,0,3:0:0:0:
190,325,68593,6,0,B|109:323|110:369|37:360,1,160,8|8,0:0|0:0,0:0:0:0:
61,275,69616,1,0,3:0:0:0:
34,191,69957,6,0,L|20:108,1,80,8|0,0:0|3:0,0:0:0:0:
108,123,70639,2,0,L|140:38,1,80,8|0,0:0|3:0,0:0:0:0:
207,100,71321,2,0,B|241:75|241:75|318:79|351:118,1,160,8|8,0:0|0:0,0:0:0:0:
432,87,72343,1,0,3:2:0:0:
410,172,72684,2,0,L|375:329,1,160,8|8,0:0|0:0,0:0:0:0:
199,346,74048,5,8,0:0:0:0:
145,276,74389,2,0,L|63:265,2,80,12|8|8,0:2|0:0|0:2,0:0:0:0:
232,266,75412,2,0,P|263:188|228:108,1,160,8|8,0:0|0:0,0:0:0:0:
175,57,76434,1,8,0:2:0:0:
259,33,76775,6,0,L|428:55,1,160,8|8,0:0|0:0,0:0:0:0:
473,216,78139,6,0,L|314:195,1,160,8|8,0:0|0:0,0:0:0:0:
247,252,79162,1,8,0:0:0:0:
159,256,79503,6,0,P|124:253|79:231,1,80,8|12,0:0|0:0,0:0:0:0:
143,169,80184,2,0,B|157:134|157:134|126:71|126:71|141:36|172:31,1,160,8|8,0:0|0:0,0:0:0:0:
242,67,81207,1,8,0:0:0:0:
329,71,81548,2,0,L|417:54,2,80,8|8|8,0:0|0:0|0:0,0:0:0:0:
407,228,82912,5,8,0:0:0:0:
368,307,83253,1,8,0:0:0:0:
320,232,83593,2,0,L|145:261,1,160,8|8,0:0|0:0,0:0:0:0:
134,174,84616,1,8,0:0:0:0:
49,198,84957,6,0,P|36:194|4:174,1,40,8|8,0:0|0:0,0:0:0:0:
