osu file format v14

[General]
AudioFilename: audio.mp3
AudioLeadIn: 0
PreviewTime: 41109
Countdown: 0
SampleSet: Soft
StackLeniency: 0.7
Mode: 0
LetterboxInBreaks: 0
WidescreenStoryboard: 0

[Editor]
Bookmarks: 46995,68813
DistanceSpacing: 1
BeatDivisor: 4
GridSize: 32
TimelineZoom: 1.1

[Metadata]
Title:Kimi to Iu Shinwa (TV Size)
TitleUnicode:君という神話 (TV Size)
Artist:Maeda Jun x yanaginagi
ArtistUnicode:麻枝 准×やなぎなぎ
Creator:NexusQI
Version:Willow
Source:神様になった日
Tags:kamisama kami sama ni natta hi the day I became a god pop jpop j-pop anime japanese nexus op opening
BeatmapID:2641658
BeatmapSetID:1271182

[Difficulty]
HPDrainRate:6
CircleSize:4
OverallDifficulty:8.5
ApproachRate:9.2
SliderMultiplier:1.8
SliderTickRate:1

[Events]
//Background and Video events
0,0,"Hina.(Kamisama.ni.Natta.hi).full.2936950.jpg",0,0
Video,70,"video.mp4"
//Break Periods
//Storyboard Layer 0 (Background)
//Storyboard Layer 1 (Fail)
//Storyboard Layer 2 (Pass)
//Storyboard Layer 3 (Foreground)
//Storyboard Layer 4 (Overlay)
//Storyboard Sound Samples

[TimingPoints]
712,340.909090909091,4,2,1,50,1,0
712,-142.857142857143,4,2,1,50,0,0
11621,-133.333333333333,4,2,1,55,0,0
12899,-133.333333333333,4,2,1,5,0,0
12984,-133.333333333333,4,2,1,55,0,0
18354,-133.333333333333,4,2,1,5,0,0
18439,-133.333333333333,4,2,1,55,0,0
22530,-117.647058823529,4,2,1,60,0,0
22785,-117.647058823529,4,2,1,5,0,0
22871,-117.647058823529,4,2,1,60,0,0
25258,-105.263157894737,4,2,1,65,0,0
41621,-95.2380952380952,4,2,1,75,0,0
42899,-95.2380952380952,4,2,1,5,0,0
42984,-95.2380952380952,4,2,1,75,0,0
44263,-95.2380952380952,4,2,1,5,0,0
44348,-95.2380952380952,4,2,1,75,0,0
45626,-95.2380952380952,4,2,1,5,0,0
45711,-95.2380952380952,4,2,1,75,0,0
48694,-95.2380952380952,4,2,1,5,0,0
48779,-95.2380952380952,4,2,1,75,0,0
50058,-95.2380952380952,4,2,1,5,0,0
50143,-95.2380952380952,4,2,1,75,0,0
51422,-95.2380952380952,4,2,1,5,0,0
51507,-95.2380952380952,4,2,1,75,0,0
53808,-95.2380952380952,4,2,1,5,0,0
53893,-95.2380952380952,4,2,1,75,0,0
55172,-95.2380952380952,4,2,1,5,0,0
55257,-95.2380952380952,4,2,1,75,0,0
56535,-95.2380952380952,4,2,1,5,0,0
56620,-95.2380952380952,4,2,1,75,0,0
59604,-95.2380952380952,4,2,1,5,0,0
59689,-95.2380952380952,4,2,1,75,0,0
60967,-95.2380952380952,4,2,1,5,0,0
61052,-95.2380952380952,4,2,1,75,0,0
62325,-95.2380952380952,4,2,1,5,0,0
62410,-95.2380952380952,4,2,1,75,0,0
72899,-95.2380952380952,4,2,1,5,0,0
72984,-95.2380952380952,4,2,1,75,0,0
74348,-90.9090909090909,4,2,1,80,0,1
75967,-90.9090909090909,4,2,1,5,0,1
76052,-90.9090909090909,4,2,1,80,0,1
77331,-90.9090909090909,4,2,1,5,0,1
77416,-90.9090909090909,4,2,1,80,0,1
78694,-90.9090909090909,4,2,1,5,0,1
78779,-90.9090909090909,4,2,1,80,0,1
80058,-90.9090909090909,4,2,1,5,0,1
80143,-90.9090909090909,4,2,1,80,0,1
81422,-90.9090909090909,4,2,1,5,0,1
81507,-90.9090909090909,4,2,1,80,0,1
82444,-90.9090909090909,4,2,1,5,0,1
82529,-90.9090909090909,4,2,1,80,0,1
83808,-90.9090909090909,4,2,1,5,0,1
83893,-90.9090909090909,4,2,1,80,0,1
84149,-90.9090909090909,4,2,1,5,0,1
84234,-90.9090909090909,4,2,1,80,0,1
85087,-90.9090909090909,4,2,1,80,0,0

[Colours]
Combo1 : 243,248,97
Combo2 : 252,146,250
Combo3 : 14,136,182

[HitObjects]
65,36,712,6,0,B|21:30|21:30|38:40,1,62.9999980773926,2|2,0:3|0:0,0:0:0:0:
115,107,1052,2,0,L|204:97,1,62.9999980773926,2|2,0:0|0:0,0:0:0:0:
29,191,1393,1,2,0:0:0:0:
29,191,1564,2,0,L|98:185,1,62.9999980773926,2|0,0:0|0:0,0:0:0:0:
304,187,1905,6,0,B|289:198|280:222|280:222|296:168|266:131,1,125.999996154785,2|2,0:0|0:0,0:0:0:0:
467,173,2416,1,2,0:0:0:0:
394,202,2587,1,2,0:0:0:0:
357,132,2757,1,2,0:0:0:0:
502,298,2927,2,0,L|513:231,1,62.9999980773926,2|0,0:0|0:0,0:0:0:0:
367,367,3268,6,0,B|294:350|294:350|280:375|242:380,1,125.999996154785,2|2,0:0|0:0,0:0:0:0:
158,265,3780,2,0,L|168:343,1,62.9999980773926,2|2,0:0|0:0,0:0:0:0:
233,214,4121,1,2,0:0:0:0:
233,214,4291,2,0,L|240:129,1,62.9999980773926,2|0,0:0|0:0,0:0:0:0:
120,15,4632,6,0,B|69:22|69:22|53:42|53:42|-7:52,1,125.999996154785,2|2,0:0|0:0,0:0:0:0:
123,95,5143,2,0,L|196:85,1,62.9999980773926,2|2,0:0|0:0,0:0:0:0:
305,16,5484,1,2,0:0:0:0:
305,16,5655,2,0,P|274:-3|233:10,1,62.9999980773926,2|0,0:0|0:0,0:0:0:0:
258,153,5996,6,0,B|248:196|248:196|265:221|265:221|256:273,1,125.999996154785,2|2,0:0|0:0,0:0:0:0:
111,241,6507,2,0,P|142:243|171:231,1,62.9999980773926,2|2,0:0|0:0,0:0:0:0:
123,95,6848,1,2,0:0:0:0:
123,95,7018,2,0,L|129:177,1,62.9999980773926,2|0,0:0|0:0,0:0:0:0:
170,349,7359,6,0,B|102:334|102:334|82:367|43:361,1,125.999996154785,2|2,0:0|0:0,0:0:0:0:
46,156,7871,1,2,0:0:0:0:
0,221,8041,1,2,0:0:0:0:
32,293,8212,1,2,0:0:0:0:
173,252,8382,2,0,L|100:239,1,62.9999980773926,2|0,0:0|0:0,0:0:0:0:
281,94,8723,6,0,B|268:163|268:163|294:183|289:218,1,125.999996154785,2|2,0:0|0:0,0:0:0:0:
272,343,9234,2,0,B|306:352|306:352|341:334,1,62.9999980773926,2|2,0:0|0:0,0:0:0:0:
418,358,9575,1,2,0:0:0:0:
418,358,9746,2,0,L|406:276,1,62.9999980773926,2|0,0:0|0:0,0:0:0:0:
487,163,10087,6,0,B|497:78|497:78|483:60|459:70,1,125.999996154785,2|2,0:0|0:0,0:0:0:0:
269,49,10598,1,2,0:0:0:0:
335,114,10768,1,2,0:0:0:0:
335,114,10939,6,0,L|404:109,2,41.9999987182618,2|2|2,0:0|0:0|0:0,0:0:0:0:
262,185,11280,5,8,0:0:0:0:
255,164,11365,1,8,0:0:0:0:
260,143,11450,1,8,0:0:0:0:
210,318,11621,6,0,B|171:296|144:308|144:308|128:350|82:351,2,135.000005149842,6|2|2,0:0|1:2|0:0,0:0:0:0:
305,97,12643,2,0,B|331:120|331:120|248:108,1,101.250003862381,2|0,1:2|0:0,0:0:0:0:
205,62,12984,2,0,B|110:72|110:72|149:97,2,135.000005149842,2|0|0,0:3|1:0|0:0,0:0:0:0:
201,145,13837,1,2,0:0:0:0:
279,19,14007,2,0,P|310:0|360:7,1,67.5000025749208,2|0,1:2|0:0,0:0:0:0:
512,2,14348,6,0,B|498:53|498:53|514:78|514:78|503:133,1,135.000005149842,2|2,0:0|1:2,0:0:0:0:
327,215,15030,2,0,B|406:202|406:202|425:235|472:231,1,135.000005149842,2|2,0:0|1:2,0:0:0:0:
177,36,15712,2,0,P|129:-3|56:22,2,135.000005149842,2|0|0,0:3|1:2|0:0,0:0:0:0:
177,36,16564,1,2,0:0:0:0:
119,138,16734,2,0,B|98:106|98:106|120:61,1,67.5000025749208,2|0,1:2|0:0,0:0:0:0:
242,226,17075,6,0,B|188:233|188:233|168:256|168:256|112:265,2,135.000005149842,6|2|2,0:0|1:2|0:0,0:0:0:0:
330,334,18098,2,0,L|443:312,1,101.250003862381,2|0,1:2|0:0,0:0:0:0:
510,290,18439,2,0,B|543:325|519:386|519:386|492:349,2,135.000005149842,2|0|0,0:3|1:0|0:0,0:0:0:0:
510,290,19291,1,2,0:0:0:0:
445,230,19462,2,0,B|425:196|425:196|442:165,1,67.5000025749208,2|0,1:2|0:0,0:0:0:0:
512,0,19802,6,0,B|491:37|451:33|451:33|427:2|383:11,1,135.000005149842,2|0,0:0|1:2,0:0:0:0:
237,237,20484,1,2,0:0:0:0:
300,179,20655,2,0,B|319:146|319:146|304:119,1,67.5000025749208,2|0,0:0|1:2,0:0:0:0:
118,22,20996,5,2,0:0:0:0:
187,70,21166,2,0,B|242:64|242:64|264:40|264:40|327:31,1,135.000005149842,2|0,0:3|1:2,0:0:0:0:
187,70,21677,1,2,0:0:0:0:
126,125,21848,2,0,L|35:115,1,67.5000025749208,2|2,0:0|0:0,0:0:0:0:
254,194,22189,2,0,L|163:184,1,67.5000025749208,2|2,1:2|0:0,0:0:0:0:
10,384,22530,6,0,B|2:309|2:309|20:288|48:304,1,114.750002188683,6|0,1:2|0:0,0:0:0:0:
113,324,22871,1,0,1:2:0:0:
8,191,23041,1,2,0:2:0:0:
185,382,23212,2,0,L|194:298,1,76.5000014591217,0|0,1:0|0:0,0:0:0:0:
291,151,23552,2,0,B|315:181|315:181|295:220,1,76.5000014591217,2|0,1:2|0:0,0:0:0:0:
112,250,23893,5,0,1:0:0:0:
193,100,24064,1,2,0:2:0:0:
8,191,24234,2,0,L|101:178,1,76.5000014591217,8|0,0:0|0:0,0:0:0:0:
275,52,24575,1,2,1:2:0:0:
196,189,24746,1,8,0:0:0:0:
182,219,24831,1,8,0:0:0:0:
195,246,24916,1,8,1:2:0:0:
220,267,25001,1,8,0:0:0:0:
255,264,25087,1,4,0:3:0:0:
410,112,25257,5,6,1:2:0:0:
351,260,25427,2,0,L|332:155,1,85.4999977169037,2|8,0:0|0:0,0:0:0:0:
502,31,25768,2,0,B|520:48|520:48|451:40,1,85.4999977169037,2|0,1:2|0:0,0:0:0:0:
314,20,26109,1,2,1:2:0:0:
492,192,26280,2,0,B|520:156|520:156|496:124,1,85.4999977169037,10|0,0:0|0:0,0:0:0:0:
394,340,26621,5,2,1:2:0:0:
511,275,26791,2,0,L|425:264,1,85.4999977169037,2|8,0:0|0:0,0:0:0:0:
213,165,27132,2,0,B|249:137|249:137|289:152,1,85.4999977169037,2|0,1:2|0:0,0:0:0:0:
401,183,27473,1,2,1:2:0:0:
312,80,27643,1,10,0:0:0:0:
312,80,27814,1,2,1:2:0:0:
206,293,27984,5,2,1:2:0:0:
309,213,28155,2,0,B|331:229|331:229|269:223,1,85.4999977169037,2|8,0:0|0:0,0:0:0:0:
128,341,28496,2,0,B|102:302|102:302|125:261,1,85.4999977169037,2|0,1:2|0:0,0:0:0:0:
168,121,28837,1,2,1:2:0:0:
22,203,29007,2,0,L|126:189,1,85.4999977169037,10|0,0:0|0:0,0:0:0:0:
262,56,29348,5,6,1:2:0:0:
190,206,29518,1,2,0:0:0:0:
330,18,29689,2,0,B|359:54|359:54|332:100,1,85.4999977169037,10|0,0:0|1:2,0:0:0:0:
110,57,30030,2,0,B|91:74|91:74|153:66,1,85.4999977169037,2|0,1:2|0:0,0:0:0:0:
363,172,30371,2,0,L|248:159,1,85.4999977169037,10|0,0:0|1:0,0:0:0:0:
495,42,30712,5,6,1:2:0:0:
452,191,30882,2,0,L|437:92,1,85.4999977169037,2|8,0:0|0:0,0:0:0:0:
422,351,31223,2,0,L|407:252,1,85.4999977169037,2|0,1:2|0:0,0:0:0:0:
363,172,31564,1,2,1:2:0:0:
285,307,31734,2,0,B|270:326|270:326|343:311,1,85.4999977169037,10|0,0:0|0:0,0:0:0:0:
165,133,32075,5,2,1:2:0:0:
216,271,32246,2,0,L|224:185,1,85.4999977169037,2|8,0:0|0:0,0:0:0:0:
94,45,32587,2,0,B|69:81|69:81|93:124,1,85.4999977169037,2|0,1:2|0:0,0:0:0:0:
149,216,32927,1,2,1:2:0:0:
231,37,33098,1,10,0:0:0:0:
231,37,33268,1,2,1:2:0:0:
59,205,33439,5,6,1:2:0:0:
241,119,33609,2,0,B|180:111|180:111|208:133,1,85.4999977169037,2|8,0:0|0:0,0:0:0:0:
375,199,33950,2,0,L|275:186,1,85.4999977169037,2|0,1:2|0:0,0:0:0:0:
454,139,34291,1,2,1:2:0:0:
319,270,34462,2,0,L|219:257,1,85.4999977169037,10|8,0:0|0:0,0:0:0:0:
195,238,34717,5,8,0:0:0:0:
195,238,34802,2,0,B|170:274|170:274|197:319,1,85.4999977169037,6|0,1:2|0:0,0:0:0:0:
263,129,35143,1,8,0:0:0:0:
120,173,35314,1,2,0:0:0:0:
319,270,35484,1,6,1:2:0:0:
209,71,35655,1,8,0:0:0:0:
209,71,35740,1,8,0:0:0:0:
209,71,35825,1,8,0:0:0:0:
127,264,35996,1,0,1:0:0:0:
339,115,36166,6,0,B|442:98|442:98|461:133|500:132,1,170.999995433807,6|8,1:2|0:0,0:0:0:0:
319,270,36677,2,0,B|291:230|291:230|314:179,1,85.4999977169037,2|0,1:2|0:0,0:0:0:0:
366,26,37018,1,0,1:0:0:0:
476,228,37189,2,0,L|365:215,1,85.4999977169037,10|0,0:2|0:0,0:0:0:0:
184,92,37530,6,0,B|79:99|79:99|48:125|81:161,1,170.999995433807,2|8,1:2|0:0,0:0:0:0:
276,36,38041,2,0,L|264:121,1,85.4999977169037,2|0,1:2|0:0,0:0:0:0:
232,257,38382,1,0,1:0:0:0:
412,110,38552,2,0,B|349:99|349:99|379:125,1,85.4999977169037,10|0,0:2|0:0,0:0:0:0:
493,349,38893,5,6,1:2:0:0:
413,198,39064,1,8,0:0:0:0:
413,198,39149,1,8,0:0:0:0:
413,198,39234,1,8,0:0:0:0:
260,342,39405,1,2,1:2:0:0:
481,259,39575,1,10,0:2:0:0:
481,259,39660,1,8,0:0:0:0:
481,259,39746,1,8,0:0:0:0:
230,159,39916,1,8,0:0:0:0:
418,320,40087,1,0,1:0:0:0:
479,64,40257,5,6,1:2:0:0:
318,179,40427,1,8,0:0:0:0:
338,225,40513,1,8,0:0:0:0:
388,226,40598,1,8,0:0:0:0:
411,181,40683,1,8,0:0:0:0:
380,141,40768,2,0,L|373:202,1,42.7499988584519,10|8,0:2|0:0,0:0:0:0:
356,384,40939,5,10,1:2:0:0:
0,96,41621,5,4,1:2:0:0:
172,214,41791,2,0,B|191:234|191:234|94:221,1,94.499997116089,2|8,0:0|0:2,0:0:0:0:
186,0,42132,1,2,0:0:0:0:
49,274,42302,2,0,B|17:232|17:232|44:189,1,94.499997116089,2|0,1:2|0:0,0:0:0:0:
280,59,42643,2,0,B|365:44|365:44|378:72|411:79,1,141.749995674133,10|0,0:2|0:0,0:0:0:0:
305,138,42984,6,0,P|252:141|203:98,1,94.499997116089,0|0,1:2|0:0,0:0:0:0:
509,14,43325,2,0,L|504:123,1,94.499997116089,10|0,0:2|0:0,0:0:0:0:
435,267,43666,2,0,L|439:154,1,94.499997116089,0|0,1:2|0:0,0:0:0:0:
179,298,44007,2,0,B|204:272|203:234|203:234|216:272|258:289,1,141.749995674133,10|0,0:2|0:0,0:0:0:0:
130,365,44348,6,0,P|96:313|112:261,1,94.499997116089,0|0,1:2|0:0,0:0:0:0:
221,87,44689,1,10,0:2:0:0:
62,205,44859,1,10,0:0:0:0:
62,205,44944,1,8,0:0:0:0:
62,205,45030,2,0,B|125:196|125:196|89:184,1,94.499997116089,2|0,1:2|0:0,0:0:0:0:
368,42,45371,2,0,B|273:31|273:31|327:65,1,141.749995674133,10|0,0:2|0:0,0:0:0:0:
453,94,45712,6,0,L|446:-5,1,94.499997116089,0|0,1:2|0:0,0:0:0:0:
236,256,46052,2,0,B|277:228|277:228|334:251,1,94.499997116089,10|0,0:2|0:0,0:0:0:0:
502,374,46393,2,0,L|384:364,1,94.499997116089,2|0,1:2|0:0,0:0:0:0:
208,360,46734,1,10,0:2:0:0:
459,185,46905,5,10,0:0:0:0:
459,185,46990,1,8,0:0:0:0:
459,185,47075,1,4,1:2:0:0:
407,366,47246,2,0,P|384:317|400:265,1,94.499997116089,2|8,0:0|0:2,0:0:0:0:
500,102,47587,1,2,0:0:0:0:
270,211,47757,2,0,L|386:201,1,94.499997116089,2|0,1:2|0:0,0:0:0:0:
107,288,48098,2,0,L|214:278,1,94.499997116089,10|0,0:2|0:0,0:0:0:0:
32,25,48439,6,0,B|43:118|43:118|65:135|90:112,1,141.749995674133,0|0,1:2|0:0,0:0:0:0:
134,51,48780,1,10,0:2:0:0:
331,144,48950,1,10,0:0:0:0:
331,144,49035,1,8,0:0:0:0:
331,144,49121,1,0,1:2:0:0:
66,218,49291,1,2,0:0:0:0:
229,36,49462,2,0,B|247:17|247:17|238:91,1,94.499997116089,10|0,0:2|0:0,0:0:0:0:
145,368,49802,6,0,B|200:363|200:363|224:339|224:339|276:335,1,141.749995674133,4|0,1:2|0:0,0:0:0:0:
348,377,50143,1,10,0:2:0:0:
165,192,50314,1,8,0:0:0:0:
165,192,50399,1,8,0:0:0:0:
165,192,50484,2,0,P|143:231|159:284,1,94.499997116089,2|0,1:2|0:0,0:0:0:0:
403,231,50825,2,0,B|423:213|423:213|338:225,1,94.499997116089,10|0,0:2|0:0,0:0:0:0:
79,103,51166,6,0,B|43:76|43:76|163:95,1,141.749995674133,2|0,1:2|0:0,0:0:0:0:
218,29,51507,2,0,L|230:123,1,94.499997116089,10|0,0:2|0:0,0:0:0:0:
84,335,51848,5,0,1:2:0:0:
103,293,51933,1,8,0:0:0:0:
146,276,52018,1,8,0:0:0:0:
189,293,52104,1,8,0:0:0:0:
222,326,52189,1,10,0:2:0:0:
262,311,52274,1,8,0:0:0:0:
281,270,52359,1,10,0:0:0:0:
267,226,52444,1,8,0:0:0:0:
229,204,52530,5,4,1:2:0:0:
432,355,52700,2,0,B|386:374|386:374|332:339,1,94.499997116089,2|8,0:0|0:2,0:0:0:0:
494,135,53041,1,2,0:0:0:0:
395,285,53212,2,0,L|410:183,1,94.499997116089,2|0,1:2|0:0,0:0:0:0:
413,14,53552,2,0,B|340:18|340:18|328:63|279:67,1,141.749995674133,10|0,0:2|0:0,0:0:0:0:
186,11,53893,6,0,B|169:-6|169:-6|252:9,1,94.499997116089,0|0,1:2|0:0,0:0:0:0:
393,92,54234,1,10,0:2:0:0:
180,215,54405,1,8,0:0:0:0:
180,215,54490,1,8,0:0:0:0:
180,215,54575,1,2,1:2:0:0:
337,20,54746,1,0,0:0:0:0:
286,289,54916,2,0,B|245:233|283:180|283:180|315:207,1,141.749995674133,10|0,0:2|0:0,0:0:0:0:
440,237,55257,6,0,B|401:268|401:268|332:244,1,94.499997116089,4|0,1:2|0:0,0:0:0:0:
221,97,55598,2,0,L|100:108,1,94.499997116089,10|0,0:2|0:0,0:0:0:0:
0,196,55939,2,0,L|117:185,1,94.499997116089,0|0,1:2|0:0,0:0:0:0:
285,16,56280,2,0,B|382:26|382:26|409:47|384:77,1,141.749995674133,10|0,0:2|0:0,0:0:0:0:
325,197,56621,6,0,P|305:151|335:92,1,94.499997116089,0|0,1:2|0:0,0:0:0:0:
489,3,56962,2,0,L|476:116,1,94.499997116089,10|0,0:2|0:0,0:0:0:0:
458,279,57302,1,2,1:2:0:0:
397,146,57473,1,0,0:0:0:0:
293,356,57643,1,10,0:2:0:0:
478,96,57814,5,10,0:2:0:0:
499,125,57899,1,8,0:2:0:0:
486,160,57984,1,4,1:2:0:0:
187,39,58155,2,0,B|166:21|166:21|239:31,1,94.499997116089,2|8,0:0|0:2,0:0:0:0:
416,44,58496,1,2,0:0:0:0:
232,205,58666,2,0,B|204:161|204:161|235:116,1,94.499997116089,2|0,1:2|0:0,0:0:0:0:
486,160,59007,2,0,L|381:165,1,94.499997116089,10|0,0:2|0:0,0:0:0:0:
170,283,59348,6,0,B|210:317|251:308|251:308|274:276|317:286,1,141.749995674133,0|0,1:2|0:0,0:0:0:0:
375,316,59689,1,10,0:2:0:0:
298,170,59859,1,10,0:0:0:0:
298,170,59944,1,8,0:0:0:0:
298,170,60030,1,0,1:2:0:0:
239,384,60200,1,2,0:0:0:0:
367,111,60371,2,0,B|397:147|397:147|374:209,1,94.499997116089,10|0,0:2|0:0,0:0:0:0:
125,9,60712,6,0,B|74:-11|29:24|29:24|79:44,1,141.749995674133,4|0,1:2|0:0,0:0:0:0:
143,84,61052,1,10,0:2:0:0:
13,261,61223,1,8,0:0:0:0:
13,261,61308,1,8,0:0:0:0:
13,261,61393,2,0,P|-9:208|15:160,1,94.499997116089,2|0,1:2|0:0,0:0:0:0:
175,339,61734,2,0,L|54:331,1,94.499997116089,10|0,0:2|0:0,0:0:0:0:
420,206,62075,6,0,B|364:213|364:213|344:237|344:237|282:247,1,141.749995674133,2|0,1:2|0:0,0:0:0:0:
197,173,62416,2,0,L|305:159,1,94.499997116089,10|0,0:2|0:0,0:0:0:0:
417,126,62757,1,0,1:2:0:0:
259,52,62927,1,8,0:2:0:0:
406,295,63098,1,2,1:2:0:0:
482,0,63268,5,10,0:2:0:0:
512,35,63354,1,8,0:0:0:0:
500,79,63439,1,4,1:2:0:0:
259,52,63609,2,0,L|356:46,1,94.499997116089,2|8,3:2|0:2,0:0:0:0:
143,210,63950,1,2,3:2:0:0:
164,45,64121,2,0,B|173:18|173:18|188:95,1,94.499997116089,2|0,1:2|3:0,0:0:0:0:
240,286,64462,1,10,0:2:0:0:
309,212,64632,1,0,3:0:0:0:
33,384,64802,6,0,P|12:333|32:278,1,94.499997116089,0|0,1:2|3:0,0:0:0:0:
91,174,65143,1,10,0:2:0:0:
155,325,65314,2,0,B|174:347|174:347|101:337,1,94.499997116089,2|0,3:2|1:2,0:0:0:0:
328,384,65655,1,2,3:2:0:0:
231,206,65825,2,0,B|260:243|260:243|229:308,1,94.499997116089,10|0,0:2|3:0,0:0:0:0:
34,101,66166,6,0,L|130:94,1,94.499997116089,0|0,1:2|3:0,0:0:0:0:
278,19,66507,2,0,L|157:27,1,94.499997116089,10|0,0:2|3:0,0:0:0:0:
344,111,66848,1,2,1:2:0:0:
405,8,67018,1,2,3:2:0:0:
350,237,67189,2,0,L|228:220,1,94.499997116089,10|0,0:2|3:0,0:0:0:0:
486,39,67530,6,0,B|515:78|515:78|486:135,1,94.499997116089,0|0,1:2|3:0,0:0:0:0:
430,306,67871,1,10,0:2:0:0:
507,229,68041,2,0,P|463:198|406:206,1,94.499997116089,2|0,3:2|1:2,0:0:0:0:
348,92,68382,1,2,3:2:0:0:
274,292,68552,2,0,B|257:312|257:312|348:295,1,94.499997116089,10|0,0:2|3:0,0:0:0:0:
180,46,68893,6,0,P|159:92|193:151,1,94.499997116089,4|0,1:2|3:0,0:0:0:0:
274,292,69234,1,10,0:2:0:0:
342,218,69405,1,0,3:0:0:0:
500,338,69575,1,2,1:2:0:0:
437,161,69746,1,2,3:2:0:0:
437,161,69831,1,2,0:2:0:0:
437,161,69916,2,0,B|461:197|461:197|430:263,1,94.499997116089,10|0,0:2|3:0,0:0:0:0:
274,68,70257,5,0,1:2:0:0:
368,20,70427,1,0,3:0:0:0:
156,147,70598,2,0,L|141:41,1,94.499997116089,10|0,0:2|3:0,0:0:0:0:
250,295,70939,2,0,L|232:178,1,94.499997116089,2|0,1:2|3:0,0:0:0:0:
36,314,71280,2,0,P|63:287|135:287,1,94.499997116089,10|0,0:2|3:0,0:0:0:0:
351,373,71621,5,0,1:2:0:0:
370,248,71791,1,0,3:0:0:0:
492,268,71962,1,10,0:2:0:0:
476,384,72132,1,0,3:0:0:0:
443,182,72302,2,0,B|434:109|434:109|414:144,1,94.499997116089,2|0,1:2|3:0,0:0:0:0:
235,278,72643,2,0,B|294:271|294:271|317:253|317:253|380:247,1,141.749995674133,10|0,0:2|0:0,0:0:0:0:
267,356,72984,6,0,P|223:364|167:321,1,94.499997116089,4|0,1:2|0:0,0:0:0:0:
261,116,73325,2,0,B|288:153|288:153|251:220,1,94.499997116089,8|0,0:2|0:0,0:0:0:0:
181,70,73666,1,0,1:0:0:0:
99,272,73837,1,8,0:0:0:0:
263,25,74007,1,10,0:0:0:0:
410,299,74177,5,10,0:0:0:0:
375,331,74263,1,8,0:0:0:0:
333,310,74348,1,12,0:2:0:0:
483,75,74518,2,0,L|476:182,1,99.0000030212403,2|8,0:0|0:0,0:0:0:0:
512,355,74859,1,2,0:2:0:0:
325,141,75030,2,0,B|388:131|388:131|366:158,1,99.0000030212403,10|0,0:0|0:0,0:0:0:0:
190,310,75371,1,10,0:0:0:0:
306,226,75541,1,2,0:2:0:0:
23,384,75712,6,0,B|-21:326|16:273|16:273|41:308,1,148.50000453186,14|0,0:0|0:0,0:0:0:0:
107,348,76052,2,0,L|115:246,1,99.0000030212403,10|0,0:0|0:0,0:0:0:0:
176,7,76393,1,10,0:0:0:0:
0,186,76564,1,2,0:2:0:0:
270,95,76734,2,0,B|196:86|196:86|246:120,1,99.0000030212403,10|0,0:0|0:0,0:0:0:0:
312,351,77075,6,0,B|373:341|373:341|392:320|392:320|478:310,1,148.50000453186,12|0,0:0|0:0,0:0:0:0:
512,366,77416,1,10,0:0:0:0:
388,208,77587,1,2,0:2:0:0:
186,382,77757,1,10,0:0:0:0:
330,268,77927,1,2,0:2:0:0:
125,98,78098,1,10,0:0:0:0:
252,261,78268,1,2,0:2:0:0:
162,23,78439,6,0,P|97:15|41:91,1,148.50000453186,14|0,0:0|0:0,0:0:0:0:
1,135,78780,2,0,L|14:243,1,99.0000030212403,10|0,0:0|0:0,0:0:0:0:
217,133,79121,1,10,0:0:0:0:
95,265,79291,1,2,0:2:0:0:
304,170,79462,1,10,0:0:0:0:
12,233,79632,1,10,0:2:0:0:
304,170,79802,6,0,B|390:156|390:156|400:191|448:197,1,148.50000453186,12|0,0:0|0:0,0:0:0:0:
492,138,80143,1,10,0:0:0:0:
386,266,80314,1,2,0:2:0:0:
433,78,80484,1,10,0:0:0:0:
221,210,80655,1,2,0:2:0:0:
498,16,80825,2,0,B|517:-8|517:-8|506:73,1,99.0000030212403,10|0,0:0|0:0,0:0:0:0:
455,299,81166,6,0,B|426:260|385:264|385:264|351:309|294:285,1,148.50000453186,12|0,0:0|0:0,0:0:0:0:
259,355,81507,2,0,P|316:385|376:376,1,99.0000030212403,10|0,0:0|0:0,0:0:0:0:
78,279,81848,2,0,B|49:263|49:263|135:252,1,99.0000030212403,10|0,0:0|0:0,0:0:0:0:
273,53,82189,2,0,B|177:39|177:39|136:57|169:96,1,148.50000453186,10|0,0:0|0:0,0:0:0:0:
251,149,82530,6,0,B|326:141|326:141|352:108|352:108|447:98,1,198.000006042481,14|8,0:0|0:0,0:0:0:0:
439,374,83041,1,2,0:2:0:0:
471,257,83212,1,10,0:0:0:0:
501,143,83382,1,2,0:2:0:0:
353,294,83552,2,0,L|187:279,1,148.50000453186,10|0,0:0|0:0,0:0:0:0:
81,351,83893,6,0,L|239:366,1,148.50000453186,14|0,0:0|0:0,0:0:0:0:
312,369,84234,5,10,0:2:0:0:
247,218,84405,1,2,0:2:0:0:
215,144,84575,5,10,0:2:0:0:
129,279,84746,1,2,0:2:0:0:
81,351,84916,5,10,0:2:0:0:
254,74,85087,1,10,0:2:0:0:
