osu file format v14

[General]
AudioFilename: audio.mp3
AudioLeadIn: 0
PreviewTime: 40579
Countdown: 0
SampleSet: Soft
StackLeniency: 0.7
Mode: 0
LetterboxInBreaks: 0
WidescreenStoryboard: 0

[Editor]
DistanceSpacing: 1.8
BeatDivisor: 4
GridSize: 32
TimelineZoom: 2.4

[Metadata]
Title:Kimi to Iu Shinwa (TV Size)
TitleUnicode:君という神話 (TV Size)
Artist:Maeda Jun x yanaginagi
ArtistUnicode:麻枝 准×やなぎなぎ
Creator:Kagayaki
Version:Normal
Source:神様になった日
Tags:KamiNatta The Day I Became a God kami sama ni natta hi Visual Art's VA key P.A.Works Aniplex anime pop j-pop jpop japanese MANYO op opening intro theme song Shizuku Kazato Asa
BeatmapID:2688712
BeatmapSetID:1295083

[Difficulty]
HPDrainRate:4
CircleSize:3.8
OverallDifficulty:4
ApproachRate:5.5
SliderMultiplier:1.2
SliderTickRate:1

[Events]
//Background and Video events
0,0,"bg.jpg",0,0
//Break Periods
//Storyboard Layer 0 (Background)
//Storyboard Layer 1 (Fail)
//Storyboard Layer 2 (Pass)
//Storyboard Layer 3 (Foreground)
//Storyboard Layer 4 (Overlay)
//Storyboard Sound Samples

[TimingPoints]
182,340.909090909091,4,2,1,40,1,0
182,-125,4,2,1,40,0,0
10409,-125,4,2,1,45,0,0
10750,-125,4,2,1,55,0,0
11091,-111.111111111111,4,2,1,45,0,0
12113,-111.111111111111,4,2,1,50,0,0
12454,-111.111111111111,4,2,1,50,0,0
13477,-111.111111111111,4,2,1,50,0,0
14841,-111.111111111111,4,2,1,50,0,0
15096,-111.111111111111,4,2,1,5,0,0
15182,-111.111111111111,4,2,1,50,0,0
16204,-111.111111111111,4,2,1,50,0,0
16545,-111.111111111111,4,2,1,50,0,0
17057,-111.111111111111,4,2,1,50,0,0
17568,-111.111111111111,4,2,1,50,0,0
17909,-111.111111111111,4,2,1,50,0,0
18932,-111.111111111111,4,2,1,50,0,0
20636,-111.111111111111,4,2,1,50,0,0
21318,-111.111111111111,4,2,1,50,0,0
22000,-111.111111111111,4,2,1,60,0,0
24216,-111.111111111111,4,2,1,75,0,0
24727,-100,4,2,1,70,0,0
28818,-100,4,2,1,70,0,0
30182,-100,4,2,1,70,0,0
38363,-100,4,2,1,70,0,0
39045,-100,4,2,1,70,0,0
41091,-90.9090909090909,4,2,1,70,0,1
42710,-90.9090909090909,4,2,1,5,0,1
42795,-90.9090909090909,4,2,1,70,0,1
43392,-90.9090909090909,4,2,1,5,0,1
43477,-90.9090909090909,4,2,1,70,0,1
44074,-90.9090909090909,4,2,1,5,0,1
44159,-90.9090909090909,4,2,1,70,0,1
45437,-90.9090909090909,4,2,1,5,0,1
45522,-90.9090909090909,4,2,1,70,0,1
48164,-90.9090909090909,4,2,1,5,0,1
48250,-90.9090909090909,4,2,1,70,0,1
49528,-90.9090909090909,4,2,1,5,0,1
49613,-90.9090909090909,4,2,1,70,0,1
51318,-90.9090909090909,4,2,1,70,0,1
53619,-90.9090909090909,4,2,1,5,0,1
53704,-90.9090909090909,4,2,1,70,0,1
54301,-90.9090909090909,4,2,1,5,0,1
54386,-90.9090909090909,4,2,1,70,0,1
54983,-90.9090909090909,4,2,1,5,0,1
55068,-90.9090909090909,4,2,1,70,0,1
56346,-90.9090909090909,4,2,1,5,0,1
56432,-90.9090909090909,4,2,1,70,0,1
59074,-90.9090909090909,4,2,1,5,0,1
59159,-90.9090909090909,4,2,1,70,0,1
60437,-90.9090909090909,4,2,1,5,0,1
60522,-90.9090909090909,4,2,1,70,0,1
61801,-90.9090909090909,4,2,1,5,0,1
61886,-90.9090909090909,4,2,1,70,0,1
62227,-90.9090909090909,4,2,1,70,0,0
62909,-90.9090909090909,4,2,1,70,0,1
64187,-90.9090909090909,4,2,1,5,0,1
64272,-90.9090909090909,4,2,1,70,0,1
64528,-90.9090909090909,4,2,1,5,0,1
64613,-90.9090909090909,4,2,1,70,0,1
65551,-90.9090909090909,4,2,1,5,0,1
65636,-90.9090909090909,4,2,1,70,0,1
65892,-90.9090909090909,4,2,1,5,0,1
65977,-90.9090909090909,4,2,1,70,0,1
66914,-90.9090909090909,4,2,1,5,0,1
67000,-90.9090909090909,4,2,1,70,0,1
67255,-90.9090909090909,4,2,1,5,0,1
67341,-90.9090909090909,4,2,1,70,0,1
68278,-90.9090909090909,4,2,1,5,0,1
68363,-90.9090909090909,4,2,1,70,0,1
68619,-90.9090909090909,4,2,1,5,0,1
68704,-90.9090909090909,4,2,1,70,0,1
69642,-90.9090909090909,4,2,1,5,0,1
69727,-90.9090909090909,4,2,1,70,0,1
71346,-90.9090909090909,4,2,1,5,0,1
71432,-90.9090909090909,4,2,1,70,0,1
72710,-90.9090909090909,4,2,1,5,0,1
72795,-90.9090909090909,4,2,1,70,0,1
73136,-90.9090909090909,4,2,1,70,0,0
73818,-83.3333333333333,4,2,1,70,0,1
74074,-83.3333333333333,4,2,1,5,0,1
74159,-83.3333333333333,4,2,1,70,0,1
83363,-83.3333333333333,4,2,1,70,0,0
83619,-83.3333333333333,4,2,1,5,0,0
83704,-83.3333333333333,4,2,1,70,0,0

[Colours]
Combo1 : 255,255,153
Combo2 : 250,250,250
Combo3 : 76,171,255

[HitObjects]
52,270,352,6,0,P|101:255|153:286,1,96,2|2,0:0|0:0,0:0:0:0:
166,311,863,2,0,B|222:301|222:301|255:314|255:314|325:302,1,144,2|2,0:0|0:0,0:0:0:0:
397,335,1716,2,0,L|374:221,1,96,2|2,0:0|0:0,0:0:0:0:
372,193,2227,2,0,B|316:203|316:203|283:190|283:190|213:202,1,144,2|2,0:0|0:0,0:0:0:0:
136,210,3079,6,0,B|113:166|113:166|124:108,1,96,2|2,0:0|0:0,0:0:0:0:
128,72,3591,2,0,L|51:57,2,72,2|2|2,0:0|0:0|0:0,0:0:0:0:
221,48,4443,2,0,L|206:149,2,96,2|2|2,0:0|0:0|0:0,0:0:0:0:
313,22,5466,1,2,0:0:0:0:
395,71,5807,6,0,P|410:118|385:167,1,96,2|2,0:0|0:0,0:0:0:0:
355,190,6318,2,0,B|311:159|311:159|203:182,1,144,2|2,0:0|0:0,0:0:0:0:
129,154,7170,2,0,L|147:251,1,96,2|2,0:0|0:0,0:0:0:0:
157,295,7682,2,0,B|201:264|201:264|309:287,1,144,2|2,0:0|0:0,0:0:0:0:
368,336,8534,6,0,P|385:296|371:237,1,96,2|2,0:0|0:0,0:0:0:0:
358,201,9045,2,0,L|450:187,2,72,2|2|2,0:0|0:0|0:0,0:0:0:0:
271,159,9897,2,0,L|174:170,1,96,2|2,0:0|0:0,0:0:0:0:
127,176,10409,2,0,B|111:216|111:216|132:266,1,96,2|8,0:3|0:0,0:0:0:0:
216,332,11091,6,0,L|342:322,1,107.999996704102,6|2,0:0|1:2,0:0:0:0:
405,252,11772,1,2,3:2:0:0:
312,196,12113,2,0,L|186:206,1,107.999996704102,2|0,1:2|3:0,0:0:0:0:
110,258,12795,2,0,B|88:208|88:208|108:138,1,107.999996704102,0|0,1:0|3:0,0:0:0:0:
121,105,13307,1,2,0:0:0:0:
121,105,13477,1,2,1:2:0:0:
229,99,13818,6,0,L|204:205,2,107.999996704102,2|2|2,3:2|1:2|3:2,0:0:0:0:
332,67,14841,1,2,1:2:0:0:
389,158,15182,2,0,L|495:183,2,107.999996704102,0|0|0,3:0|1:0|0:3,0:0:0:0:
335,166,16034,1,2,0:0:0:0:
335,166,16204,1,2,1:2:0:0:
359,271,16545,6,0,P|373:324|340:370,1,107.999996704102,2|2,3:2|1:2,0:0:0:0:
238,383,17227,1,2,3:2:0:0:
137,343,17568,2,0,P|123:290|156:244,1,107.999996704102,2|0,1:2|3:0,0:0:0:0:
184,144,18250,2,0,B|129:151|129:151|124:148|124:148|60:158,1,107.999996704102,0|0,1:0|3:0,0:0:0:0:
36,120,18761,1,2,0:0:0:0:
36,120,18932,1,2,1:2:0:0:
96,30,19272,6,0,P|145:16|207:54,1,107.999996704102,2|0,3:2|1:0,0:0:0:0:
285,98,19954,1,2,3:2:0:0:
285,98,20125,2,0,P|332:120|384:106,1,107.999996704102,2|2,0:0|0:0,0:0:0:0:
432,81,20636,2,0,L|424:210,1,107.999996704102,0|0,3:0|1:0,0:0:0:0:
423,242,21147,1,2,0:0:0:0:
423,242,21318,1,2,3:2:0:0:
323,199,21659,1,2,1:2:0:0:
276,296,22000,6,0,L|385:343,2,107.999996704102,6|0|0,1:2|1:0|1:0,0:0:0:0:
170,275,23022,2,0,P|163:224|213:189,1,107.999996704102,2|0,1:2|1:0,0:0:0:0:
257,192,23534,1,2,0:0:0:0:
257,192,23704,1,8,1:2:0:0:
254,84,24045,2,0,L|129:63,1,107.999996704102,2|10,1:2|0:0,0:0:0:0:
43,126,24727,6,0,B|10:173|10:173|27:255,1,120,6|8,1:2|0:0,0:0:0:0:
41,291,25238,2,0,B|95:299|95:299|105:306|105:306|173:315,1,120,2|2,1:2|1:2,0:0:0:0:
216,326,25750,1,10,0:0:0:0:
275,221,26091,2,0,B|221:213|221:213|211:206|211:206|143:197,1,120,2|8,1:2|0:0,0:0:0:0:
100,181,26602,2,0,P|87:122|126:68,1,120,2|2,1:2|1:2,0:0:0:0:
172,49,27113,1,10,0:0:0:0:
271,115,27454,2,0,L|395:138,1,120,2|8,1:2|0:0,0:0:0:0:
439,102,27966,2,0,L|412:228,1,120,2|2,1:2|1:2,0:0:0:0:
403,278,28477,1,10,0:0:0:0:
292,231,28818,5,6,1:2:0:0:
310,349,29159,1,10,0:0:0:0:
192,367,29500,1,2,1:2:0:0:
174,249,29841,1,10,0:0:0:0:
292,231,30182,6,0,P|310:177|261:120,1,120,6|8,1:2|0:0,0:0:0:0:
219,114,30693,2,0,P|170:141|88:112,1,120,2|2,1:2|1:2,0:0:0:0:
68,85,31204,1,10,0:0:0:0:
17,193,31545,2,0,B|-5:243|-5:243|30:322,1,120,2|8,1:2|0:0,0:0:0:0:
77,326,32057,2,0,L|203:306,1,120,2|2,1:2|1:2,0:0:0:0:
254,318,32568,1,10,0:0:0:0:
372,335,32909,6,0,L|345:202,1,120,6|8,1:2|0:0,0:0:0:0:
295,188,33420,2,0,L|421:168,1,120,2|2,1:2|1:2,0:0:0:0:
465,137,33932,1,10,0:0:0:0:
376,57,34272,2,0,P|319:38|257:81,1,120,6|0,1:2|1:0,0:0:0:0:
222,103,34784,1,2,0:0:0:0:
222,103,34954,2,0,P|169:128|114:109,1,120,6|8,1:2|0:0,0:0:0:0:
32,197,35636,6,0,L|66:326,1,120,6|8,1:2|0:0,0:0:0:0:
107,352,36147,2,0,B|177:327|177:327|219:381|299:349,1,180,0|10,1:0|3:2,0:0:0:0:
382,311,37000,2,0,B|398:262|398:262|371:193,1,120,2|8,1:2|0:0,0:0:0:0:
322,164,37511,2,0,B|222:141|256:230|154:208,1,180,2|10,1:2|0:0,0:0:0:0:
42,178,38363,6,0,L|55:267,2,90,14|8|10,0:0|0:0|0:0,0:0:0:0:
77,129,39045,2,0,B|131:122|131:122|135:114|135:114|219:102,1,120,10|8,0:0|0:0,0:0:0:0:
307,137,39727,6,0,L|293:47,2,90,14|8|10,0:0|0:0|0:0,0:0:0:0:
315,196,40409,1,10,0:0:0:0:
69,301,41091,6,0,P|135:283|196:329,1,132.00000402832,6|8,1:2|0:0,0:0:0:0:
236,357,41602,1,2,0:0:0:0:
236,357,41772,1,2,1:2:0:0:
346,285,42113,2,0,L|332:147,2,132.00000402832,8|0|10,0:0|1:0|0:0,0:0:0:0:
230,220,43136,1,0,1:0:0:0:
314,118,43477,2,0,B|377:111|377:111|385:104|385:104|450:97,2,132.00000402832,10|0|10,0:0|1:0|0:0,0:0:0:0:
207,39,44500,1,0,1:0:0:0:
125,142,44841,2,0,B|102:180|102:180|143:224|119:282,2,132.00000402832,10|0|10,0:0|1:0|0:0,0:0:0:0:
230,220,45863,1,2,1:2:0:0:
314,118,46204,5,10,0:0:0:0:
207,39,46545,2,0,B|151:50|151:50|139:43|139:43|56:57,1,132.00000402832,4|8,1:2|0:0,0:0:0:0:
25,65,47057,1,2,0:0:0:0:
25,65,47227,1,2,1:2:0:0:
43,195,47568,2,0,L|64:325,2,132.00000402832,8|0|10,0:0|1:0|0:0,0:0:0:0:
173,219,48591,2,0,L|303:198,2,132.00000402832,0|8|4,1:0|0:0|1:2,0:0:0:0:
118,98,49613,5,10,0:0:0:0:
248,79,49954,1,2,1:2:0:0:
267,209,50295,1,10,0:0:0:0:
137,234,50636,1,2,1:2:0:0:
212,342,50977,2,0,P|274:325|329:357,1,132.00000402832,10|4,0:0|0:3,0:0:0:0:
429,270,51659,5,10,0:0:0:0:
429,270,51829,1,10,0:0:0:0:
429,270,52000,2,0,B|446:203|446:203|412:130,1,132.00000402832,4|8,1:2|0:0,0:0:0:0:
395,97,52511,1,2,0:0:0:0:
395,97,52682,1,0,1:0:0:0:
278,151,53022,2,0,B|250:176|250:176|262:120|223:79,1,132.00000402832,10|0,0:0|1:0,0:0:0:0:
109,142,53704,2,0,B|118:209|118:209|122:214|122:214|132:277,1,132.00000402832,10|0,0:0|1:0,0:0:0:0:
244,340,54386,2,0,B|303:308|303:308|392:332,1,132.00000402832,10|4,0:0|1:2,0:0:0:0:
315,200,55068,2,0,B|256:232|256:232|167:208,1,132.00000402832,10|0,0:0|1:0,0:0:0:0:
96,124,55750,2,0,L|62:271,2,132.00000402832,10|0|10,0:0|1:0|0:0,0:0:0:0:
197,39,56772,1,2,1:2:0:0:
287,134,57113,5,10,0:0:0:0:
389,51,57454,2,0,P|460:55|499:109,1,132.00000402832,4|8,1:2|0:0,0:0:0:0:
510,230,58136,1,2,1:2:0:0:
412,318,58477,2,0,L|256:289,1,132.00000402832,10|0,0:0|1:0,0:0:0:0:
157,335,59159,2,0,L|182:206,1,132.00000402832,10|0,0:0|1:0,0:0:0:0:
66,141,59841,2,0,L|42:271,2,132.00000402832,10|4|10,0:0|1:2|0:0,0:0:0:0:
165,54,60863,1,2,1:2:0:0:
293,83,61204,1,10,0:0:0:0:
311,213,61545,1,2,1:2:0:0:
216,305,61886,2,0,B|156:294|156:294|145:285|145:285|80:274,1,132.00000402832,14|0,0:0|1:0,0:0:0:0:
68,145,62568,5,10,0:0:0:0:
182,79,62909,2,0,B|227:57|227:57|275:66|297:102,1,132.00000402832,4|8,1:2|0:0,0:0:0:0:
337,149,63420,1,2,0:0:0:0:
337,149,63591,1,2,1:2:0:0:
469,148,63932,2,0,L|484:17,2,132.00000402832,10|0|10,0:0|1:0|0:0,0:0:0:0:
455,279,64954,1,0,1:0:0:0:
350,197,65295,2,0,L|365:66,2,132.00000402832,10|0|10,0:0|1:0|0:0,0:0:0:0:
336,328,66318,1,0,1:0:0:0:
231,246,66659,2,0,L|246:115,2,132.00000402832,10|0|10,0:0|1:0|0:0,0:0:0:0:
217,377,67681,1,2,1:2:0:0:
112,295,68022,2,0,L|127:164,2,132.00000402832,10|4|10,0:0|1:2|0:0,0:0:0:0:
217,377,69045,1,0,1:0:0:0:
332,313,69386,6,0,P|397:300|447:360,2,132.00000402832,10|0|10,0:0|1:0|0:0,0:0:0:0:
243,215,70409,1,2,1:2:0:0:
350,138,70750,2,0,B|384:98|371:55|371:55|328:18,1,132.00000402832,10|0,0:0|1:0,0:0:0:0:
207,12,71432,1,10,0:0:0:0:
261,131,71772,1,2,1:2:0:0:
130,110,72113,1,10,0:0:0:0:
186,229,72454,2,0,L|345:258,2,132.00000402832,0|8|0,1:0|0:0|1:0,0:0:0:0:
79,307,73477,5,10,0:0:0:0:
204,331,73818,2,0,L|345:356,1,143.999995605469,4|10,1:2|0:0,0:0:0:0:
385,323,74329,1,2,0:0:0:0:
385,323,74500,1,10,0:0:0:0:
358,181,74841,1,10,0:0:0:0:
220,215,75182,1,14,0:0:0:0:
277,83,75522,2,0,P|342:47|430:80,1,143.999995605469,10|10,0:0|0:0,0:0:0:0:
482,183,76204,5,10,0:0:0:0:
355,251,76545,1,12,0:0:0:0:
243,160,76886,2,0,B|175:152|175:152|165:144|165:144|75:135,1,143.999995605469,10|8,0:0|0:0,0:0:0:0:
7,246,77568,1,10,0:0:0:0:
112,343,77909,1,14,0:0:0:0:
243,283,78250,2,0,B|311:291|311:291|321:299|321:299|411:308,1,143.999995605469,10|10,0:0|0:0,0:0:0:0:
489,206,78932,5,8,0:0:0:0:
489,206,79102,1,8,0:0:0:0:
489,206,79272,2,0,P|461:142|368:149,1,143.999995605469,12|10,0:0|0:0,0:0:0:0:
266,200,79954,1,10,0:0:0:0:
138,132,80295,2,0,B|146:71|146:71|161:57|161:57|170:-13,2,143.999995605469,10|10|10,0:0|0:0|0:0,0:0:0:0:
41,239,81318,1,10,0:0:0:0:
152,330,81659,2,0,P|215:306|280:349,1,143.999995605469,10|14,0:0|0:0,0:0:0:0:
300,200,82341,2,0,P|237:224|172:181,1,143.999995605469,10|10,0:0|0:0,0:0:0:0:
131,49,83022,1,10,0:0:0:0:
11,129,83363,6,0,L|42:274,2,143.999995605469,10|12|0,0:0|0:0|1:0,0:0:0:0:
131,49,84386,5,8,0:0:0:0:
131,49,84557,1,8,0:0:0:0:
