osu file format v14

[General]
AudioFilename: audio.mp3
AudioLeadIn: 0
PreviewTime: 15
Countdown: 0
SampleSet: Soft
StackLeniency: 0.7
Mode: 0
LetterboxInBreaks: 0
WidescreenStoryboard: 1

[Editor]
Bookmarks: 5805,64270
DistanceSpacing: 1.1
BeatDivisor: 4
GridSize: 32
TimelineZoom: 1

[Metadata]
Title:Kimi to Iu Shinwa (TV Size)
TitleUnicode:君という神話 (TV Size)
Artist:Maeda Jun x yanaginagi
ArtistUnicode:麻枝 准×やなぎなぎ
Creator:Fushimi Rio
Version:Normal
Source:神様になった日
Tags:kamisama ni natta hi the day i became a god pop jpop j-pop anime opening japanese manyo Another Flower Kagayaki keksik Liferunner Setu
BeatmapID:3185636
BeatmapSetID:1549271

[Difficulty]
HPDrainRate:3
CircleSize:3
OverallDifficulty:4
ApproachRate:5.5
SliderMultiplier:0.8
SliderTickRate:1

[Events]
//Background and Video events
0,0,"bg.jpg",0,0
//Break Periods
//Storyboard Layer 0 (Background)
//Storyboard Layer 1 (Fail)
//Storyboard Layer 2 (Pass)
//Storyboard Layer 3 (Foreground)
//Storyboard Layer 4 (Overlay)
//Storyboard Sound Samples

[TimingPoints]
180,340.909090909091,4,2,0,45,1,0
24214,-100,4,2,0,60,0,0
41089,-100,4,2,0,70,0,1
60861,-100,4,2,0,70,0,0
73816,-100,4,2,0,70,0,1
84555,-100,4,2,0,70,0,0

[Colours]
Combo1 : 128,128,255
Combo2 : 255,128,128
Combo3 : 255,255,128

[HitObjects]
59,139,350,6,0,P|56:178|68:216,1,80,2|0,0:0|0:0,0:0:0:0:
99,248,861,2,0,P|152:223|212:223,1,120,2|0,0:0|0:0,0:0:0:0:
296,196,1714,2,0,P|299:235|287:273,1,80,2|0,0:0|0:0,0:0:0:0:
309,311,2225,1,2,0:0:0:0:
347,332,2395,2,0,P|386:328|425:337,1,80,2|0,0:0|0:0,0:0:0:0:
491,278,3077,6,0,P|494:239|482:201,1,80,2|0,0:0|0:0,0:0:0:0:
500,160,3588,2,0,P|447:135|387:135,1,120,2|0,0:0|0:0,0:0:0:0:
306,98,4441,2,0,P|283:130|275:169,1,80,2|0,0:0|0:0,0:0:0:0:
239,195,4952,2,0,P|272:243|324:273,1,120,2|2,0:0|0:0,0:0:0:0:
309,360,5805,6,0,P|270:357|232:369,1,80,2|0,0:0|0:0,0:0:0:0:
195,343,6316,2,0,P|142:368|82:368,1,120,2|0,0:0|0:0,0:0:0:0:
14,310,7169,2,0,P|46:287|85:279,1,80,2|0,0:0|0:0,0:0:0:0:
129,274,7680,1,2,0:0:0:0:
150,236,7850,2,0,P|146:197|155:158,1,80,2|0,0:0|0:0,0:0:0:0:
232,114,8532,6,0,P|271:117|309:105,1,80,2|0,0:0|0:0,0:0:0:0:
350,123,9043,2,0,P|375:70|375:10,1,120,2|0,0:0|0:0,0:0:0:0:
470,20,9895,2,0,L|470:111,1,80,2|0,0:0|0:0,0:0:0:0:
470,144,10407,1,2,0:0:0:0:
470,232,10748,1,0,1:0:0:0:
470,320,11089,6,0,P|439:347|401:361,2,80,4|0|0,0:0|1:0|0:0,0:0:0:0:
470,232,12111,1,0,1:0:0:0:
406,171,12452,2,0,L|318:150,1,80,0|0,3:0|3:0,0:0:0:0:
285,75,13134,2,0,L|197:54,1,80,0|2,3:0|3:2,0:0:0:0:
128,97,13816,6,0,P|119:57|126:17,2,80,0|0|0,3:0|3:0|3:0,0:0:0:0:
204,141,14838,1,0,3:0:0:0:
197,228,15179,2,0,L|285:207,1,80,0|0,3:0|3:0,0:0:0:0:
318,132,15861,2,0,L|406:111,1,80,2|0,3:2|1:0,0:0:0:0:
469,161,16543,5,4,0:0:0:0:
512,237,16884,1,0,1:0:0:0:
435,280,17225,1,0,0:0:0:0:
392,204,17566,1,0,1:0:0:0:
322,257,17907,2,0,L|244:275,1,80,0|0,3:0|3:0,0:0:0:0:
222,189,18589,2,0,L|299:170,1,80,2|0,3:2|3:0,0:0:0:0:
330,137,19100,1,0,0:0:0:0:
338,93,19270,6,0,P|298:86|259:95,1,80,2|0,0:0|3:0,0:0:0:0:
173,114,19952,2,0,P|134:102|104:77,1,80,2|0,0:0|3:0,0:0:0:0:
26,119,20634,2,0,P|34:157|28:197,1,80,2|0,3:2|3:0,0:0:0:0:
104,244,21316,2,0,P|133:216|170:202,1,80,0|0,3:0|1:0,0:0:0:0:
180,290,21998,5,4,0:0:0:0:
261,325,22339,1,0,3:0:0:0:
343,293,22680,1,0,3:0:0:0:
378,212,23021,1,0,3:0:0:0:
346,131,23362,1,0,3:0:0:0:
380,51,23702,1,0,1:0:0:0:
462,20,24043,2,0,B|512:63|512:63|512:119,1,120,0|0,3:0|3:0,0:0:0:0:
486,153,24725,6,0,L|486:203,1,40,4|0,0:0|0:0,0:0:0:0:
445,271,25236,2,0,P|393:250|362:249,1,80,0|0,1:0|0:0,0:0:0:0:
326,259,25748,1,0,1:0:0:0:
241,213,26089,6,0,L|241:263,1,40,2|0,0:0|0:0,0:0:0:0:
158,283,26600,2,0,P|102:275|75:260,1,80,0|0,1:0|0:0,0:0:0:0:
48,234,27112,1,2,1:2:0:0:
40,190,27282,1,2,0:0:0:0:
48,146,27452,6,0,L|48:106,1,40,2|0,0:0|0:0,0:0:0:0:
136,144,27964,2,0,P|192:136|219:121,1,80,0|0,1:0|0:0,0:0:0:0:
246,95,28476,1,0,1:0:0:0:
300,26,28816,5,4,0:0:0:0:
382,56,29157,1,0,1:0:0:0:
378,143,29498,1,4,0:0:0:0:
294,167,29839,1,2,1:2:0:0:
318,251,30180,6,0,L|318:301,1,40,4|0,0:0|0:0,0:0:0:0:
393,335,30691,2,0,P|445:314|476:313,1,80,0|0,1:0|0:0,0:0:0:0:
512,323,31202,1,0,1:0:0:0:
512,235,31543,6,0,L|512:195,1,40,2|0,0:0|0:0,0:0:0:0:
471,116,32055,2,0,P|419:95|388:94,1,80,0|2,1:0|0:0,0:0:0:0:
352,104,32567,1,2,1:2:0:0:
310,91,32736,1,2,0:0:0:0:
279,59,32907,6,0,L|279:19,1,40,2|0,0:0|0:0,0:0:0:0:
191,59,33418,2,0,P|139:80|108:81,1,80,0|0,1:0|0:0,0:0:0:0:
72,71,33929,1,0,1:0:0:0:
72,159,34270,6,0,B|47:190|47:190|70:222,1,80,4|0,0:0|1:0,0:0:0:0:
108,245,34782,1,0,0:0:0:0:
151,241,34952,2,0,P|167:187|165:156,1,80,4|0,1:0|1:0,0:0:0:0:
250,137,35634,6,0,P|288:178|315:192,1,80,4|0,0:0|1:0,0:0:0:0:
352,197,36145,2,0,B|395:187|395:187|433:122,1,120,0|0,3:0|1:0,0:0:0:0:
453,36,36998,6,0,P|399:19|368:21,1,80,2|0,0:0|1:0,0:0:0:0:
335,38,37509,2,0,L|239:38,1,80,0|0,0:0|3:0,0:0:0:0:
214,56,38020,1,0,1:0:0:0:
146,0,38361,5,4,1:0:0:0:
62,27,38702,2,0,L|11:27,2,40,0|0|0,1:0|3:0|3:0,0:0:0:0:
127,86,39384,1,0,1:0:0:0:
119,173,39725,2,0,P|182:150|213:96,1,120,4|0,0:0|3:0,0:0:0:0:
212,64,40407,5,4,1:0:0:0:
344,152,41089,6,0,L|434:152,1,80,4|0,0:0|1:0,0:0:0:0:
458,172,41600,1,0,0:0:0:0:
475,207,41770,2,0,P|481:226|483:246,1,40,0|0,3:0|0:0,0:0:0:0:
467,282,42111,2,0,P|450:335|452:366,1,80,0|0,1:0|3:0,0:0:0:0:
366,312,42793,2,0,L|275:312,1,80,0|0,1:0|3:0,0:0:0:0:
201,336,43475,6,0,P|184:282|186:251,1,80,0|0,1:0|3:0,0:0:0:0:
100,306,44157,2,0,L|9:306,1,80,0|0,1:0|3:0,0:0:0:0:
34,218,44839,2,0,P|34:175|82:116,1,120,4|0,1:0|0:0,0:0:0:0:
123,109,45520,1,4,1:2:0:0:
200,151,45861,1,0,1:0:0:0:
242,73,46202,1,4,1:0:0:0:
325,45,46543,6,0,P|379:57|405:74,1,80,4|0,0:0|1:0,0:0:0:0:
422,108,47055,1,0,0:0:0:0:
433,150,47225,2,0,L|448:236,1,80,0|0,3:0|1:0,0:0:0:0:
353,203,47907,2,0,L|368:289,1,80,0|0,3:0|1:0,0:0:0:0:
273,256,48589,2,0,L|288:342,1,80,0|0,3:0|1:0,0:0:0:0:
213,383,49270,5,4,0:1:0:0:
128,359,49611,1,0,1:0:0:0:
43,334,49952,1,4,1:0:0:0:
68,249,50293,1,0,1:0:0:0:
93,164,50634,2,0,L|3:142,1,80,4|0,0:0|1:0,0:0:0:0:
38,59,51316,2,0,L|115:77,1,80,4|0,1:0|1:0,0:0:0:0:
158,87,51827,1,0,3:0:0:0:
201,81,51998,6,0,P|234:59|259:28,1,80,4|0,0:0|1:0,0:0:0:0:
301,15,52509,1,0,0:0:0:0:
344,23,52680,2,0,P|358:36|370:52,1,40,0|0,3:0|0:0,0:0:0:0:
373,92,53021,2,0,P|426:108|457:106,1,80,0|0,1:3|3:0,0:0:0:0:
505,181,53702,2,0,P|451:197|420:195,1,80,0|0,1:0|3:0,0:0:0:0:
349,236,54384,6,0,P|309:234|271:220,1,80,0|0,1:0|3:0,0:0:0:0:
182,242,55066,2,0,P|203:275|234:300,1,80,0|0,1:0|3:0,0:0:0:0:
188,376,55748,2,0,B|116:376|116:376|84:339,1,120,4|0,1:0|0:0,0:0:0:0:
58,305,56430,1,0,1:0:0:0:
10,231,56770,1,4,1:0:0:0:
50,153,57111,1,0,1:0:0:0:
137,148,57452,6,0,P|191:135|217:118,1,80,4|0,0:0|1:0,0:0:0:0:
234,85,57964,1,0,0:0:0:0:
276,73,58134,2,0,L|362:58,1,80,0|0,3:0|1:0,0:0:0:0:
380,143,58816,2,0,L|458:156,2,80,0|0|0,3:0|1:0|3:0,0:0:0:0:
293,157,59839,1,0,1:0:0:0:
323,239,60180,6,0,P|321:278|307:316,1,80,4|0,0:1|1:0,0:0:0:0:
213,294,60861,2,0,P|214:254|228:216,1,80,0|0,0:0|1:0,0:0:0:0:
132,221,61543,1,4,1:0:0:0:
55,264,61884,1,0,1:0:0:0:
12,187,62225,1,4,1:2:0:0:
89,144,62566,1,0,1:0:0:0:
142,73,62907,6,0,P|177:91|216:97,1,80,4|0,0:0|1:0,0:0:0:0:
260,92,63418,1,0,0:0:0:0:
298,69,63589,2,0,L|353:11,2,80,0|0|0,3:0|1:0|3:0,0:0:0:0:
325,152,64611,2,0,L|402:170,1,80,0|0,1:0|3:0,0:0:0:0:
461,104,65293,2,0,L|438:27,1,80,0|0,1:0|3:0,0:0:0:0:
354,54,65975,2,0,L|277:76,1,80,0|0,1:0|3:0,0:0:0:0:
302,161,66657,2,0,L|324:237,1,80,0|0,1:0|3:0,0:0:0:0:
409,213,67339,2,0,L|485:190,1,80,0|0,1:0|3:0,0:0:0:0:
503,103,68020,6,0,L|445:48,1,80,4|4,1:0|0:0,0:0:0:0:
363,77,68702,2,0,L|345:155,1,80,0|0,1:0|3:0,0:0:0:0:
409,213,69384,6,0,P|444:231|483:237,2,80,0|0|0,1:0|3:0|1:0,0:0:0:0:
325,240,70407,1,0,3:0:0:0:
281,316,70748,1,0,1:0:0:0:
194,331,71089,6,0,L|101:315,1,80,0|0,3:0|1:0,0:0:0:0:
78,237,71770,2,0,L|-15:221,1,80,0|0,3:0|1:0,0:0:0:0:
35,143,72452,1,4,0:0:0:0:
15,57,72793,1,0,1:0:0:0:
97,33,73134,2,0,L|118:0,2,40,4|0|0,1:0|1:0|1:0,0:0:0:0:
117,119,73816,6,0,P|135:153|141:193,1,80,4|0,0:0|1:0,0:0:0:0:
136,237,74327,1,0,0:0:0:0:
113,275,74498,2,0,L|55:330,2,80,0|0|0,1:0|1:0|1:0,0:0:0:0:
198,296,75520,2,0,L|253:354,1,80,0|0,1:0|1:0,0:0:0:0:
316,293,76202,2,0,L|374:238,1,80,0|4,1:0|0:0,0:0:0:0:
313,175,76884,2,0,L|258:117,1,80,0|0,1:0|1:0,0:0:0:0:
195,178,77566,2,0,L|137:233,1,80,0|0,1:0|1:0,0:0:0:0:
212,279,78248,2,0,L|288:301,1,80,0|0,1:0|1:0,0:0:0:0:
290,214,78930,6,0,L|278:161,2,40,4|0|4,1:0|1:0|0:0,0:0:0:0:
375,237,79611,2,0,L|451:259,1,80,0|0,1:0|1:0,0:0:0:0:
462,171,80293,6,0,P|444:135|436:96,1,80,0|0,1:0|1:0,0:0:0:0:
357,135,80975,2,0,P|333:171|294:195,2,80,0|0|0,1:0|1:0|1:0,0:0:0:0:
358,46,81998,2,0,P|326:22|288:10,1,80,4|0,0:0|1:0,0:0:0:0:
214,58,82680,2,0,P|209:97|217:136,1,80,0|0,1:0|1:0,0:0:0:0:
146,187,83361,1,4,1:0:0:0:
59,170,83702,1,0,1:0:0:0:
38,84,84043,2,0,L|-4:76,2,40,0|0|4,1:0|1:0|1:0,0:0:0:0:
66,50,84555,5,0,1:0:0:0:
