osu file format v14

[General]
AudioFilename: audio.mp3
AudioLeadIn: 0
PreviewTime: 54555
Countdown: 0
SampleSet: Normal
StackLeniency: 0.7
Mode: 0
LetterboxInBreaks: 0
WidescreenStoryboard: 0

[Editor]
Bookmarks: 36841,51984
DistanceSpacing: 1.1
BeatDivisor: 4
GridSize: 4
TimelineZoom: 1

[Metadata]
Title:Muteki no Soldier
TitleUnicode:無敵のSoldier
Artist:Maeda Jun x Yanaginagi
ArtistUnicode:麻枝 准×やなぎなぎ
Creator:Janpai
Version:Easy
Source:
Tags:cut version 終わりの惑星の Owari no Hoshi no Love Song Sotarks Milan-
BeatmapID:984402
BeatmapSetID:459506

[Difficulty]
HPDrainRate:2
CircleSize:3
OverallDifficulty:3
ApproachRate:3.5
SliderMultiplier:0.8
SliderTickRate:1

[Events]
//Background and Video events
0,0,"BG.jpg",0,0
//Break Periods
//Storyboard Layer 0 (Background)
//Storyboard Layer 1 (Fail)
//Storyboard Layer 2 (Pass)
//Storyboard Layer 3 (Foreground)
//Storyboard Sound Samples

[TimingPoints]
270,285.714285714286,4,1,1,40,1,0
8127,-100,4,1,1,50,0,0
18555,-100,4,1,1,40,0,0
55127,-100,4,1,1,60,0,1
73412,-100,4,1,1,50,0,0

[Colours]
Combo1 : 44,153,211
Combo2 : 225,134,249
Combo3 : 228,126,129
Combo4 : 183,111,255

[HitObjects]
176,102,270,6,0,B|258:87|258:87|322:109|322:109|379:80|462:83,2,280,6|0|0,0:0|0:0|0:0,0:0:0:0:
96,139,2555,2,0,B|89:225|89:225|55:273|55:273|133:254|187:299,2,280,6|0|0,0:0|0:0|0:0,0:0:0:0:
176,102,4841,2,0,P|297:148|254:277,2,280,6|0|0,0:0|0:0|0:0,0:0:0:0:
97,60,7127,6,0,P|89:99|95:138,1,80,6|2,0:0|0:0,0:0:0:0:
129,220,7698,2,0,P|71:223|22:183,2,120,0|8|8,0:0|0:0|0:0,0:0:0:0:
188,154,8841,2,0,L|270:151,1,80,2|2,0:0|0:0,0:0:0:0:
336,95,9412,6,0,L|415:97,1,80,6|10,0:0|0:0,0:0:0:0:
486,150,9984,2,0,P|502:90|470:30,2,120,2|2|8,0:0|0:0|0:0,0:0:0:0:
409,193,11127,2,0,P|400:236|411:283,1,80,2|8,0:0|0:0,0:0:0:0:
445,349,11698,6,0,L|325:356,1,120,6|2,0:0|0:0,0:0:0:0:
237,356,12412,1,2,0:0:0:0:
148,356,12698,2,0,P|114:339|96:254,1,120,2|8,0:0|0:0,0:0:0:0:
153,200,13412,2,0,P|162:162|154:123,1,80,2|8,0:0|0:0,0:0:0:0:
96,56,13984,6,0,P|136:38|182:39,1,80,6|8,0:0|0:0,0:0:0:0:
242,89,14555,2,0,L|380:73,2,120,2|2|8,0:0|0:0|0:0,0:0:0:0:
173,144,15698,2,0,P|153:183|154:226,1,80,2|8,0:0|0:0,0:0:0:0:
161,306,16270,6,0,L|281:295,1,120,6|2,0:0|0:0,0:0:0:0:
365,319,16984,1,2,0:0:0:0:
437,268,17270,2,0,B|442:207|442:207|423:145,1,120,2|8,0:0|0:0,0:0:0:0:
372,79,17984,2,0,P|339:65|280:59,1,80,2|8,0:0|0:0,0:0:0:0:
208,68,18555,6,0,L|187:197,1,120,6|2,0:0|0:0,0:0:0:0:
254,245,19270,1,2,0:0:0:0:
208,320,19555,2,0,L|84:309,1,120,2|8,0:0|0:0,0:0:0:0:
43,233,20270,2,0,P|45:196|59:149,1,80,2|8,0:0|0:0,0:0:0:0:
114,88,20841,6,0,L|238:81,1,120,2|2,0:0|0:0,0:0:0:0:
308,34,21555,1,0,0:0:0:0:
377,88,21841,2,0,B|387:128|387:128|376:210,1,120,2|8,0:0|0:0,0:0:0:0:
342,287,22555,2,0,L|255:282,1,80,2|8,0:0|0:0,0:0:0:0:
173,280,23127,6,0,P|138:272|91:193,1,120,6|2,0:0|0:0,0:0:0:0:
88,118,23841,1,0,0:0:0:0:
140,48,24127,2,0,B|196:32|196:72|268:48,1,120,2|8,0:0|0:0,0:0:0:0:
343,30,24841,2,0,L|340:119,1,80,2|8,0:0|0:0,0:0:0:0:
352,197,25412,6,0,P|412:176|479:190,1,120,2|2,0:0|0:0,0:0:0:0:
499,267,26127,1,0,0:0:0:0:
452,341,26412,2,0,B|414:350|414:350|319:340,1,120,2|8,0:0|0:0,0:0:0:0:
270,279,27127,2,0,P|232:264|184:264,1,80,8|8,0:0|0:0,0:0:0:0:
107,284,27698,6,0,L|92:119,1,160,6|2,0:0|0:0,0:0:0:0:
155,63,28555,1,8,0:0:0:0:
223,118,28841,2,0,P|257:123|301:114,1,80,2|8,0:0|0:0,0:0:0:0:
362,50,29412,2,0,P|396:45|440:54,1,80,2|8,0:0|0:0,0:0:0:0:
496,124,29984,5,6,0:0:0:0:
423,173,30270,2,0,B|411:229|411:229|423:269|423:269|407:337,1,160,8|8,0:0|0:0,0:0:0:0:
325,356,31127,1,2,0:0:0:0:
259,297,31412,2,0,P|207:268|119:303,1,160,8|8,0:0|0:0,0:0:0:0:
41,345,32270,6,0,L|20:103,1,240,6|8,0:0|0:0,0:0:0:0:
84,45,33412,2,0,P|127:31|198:170,1,240,2|8,0:0|0:0,0:0:0:0:
173,252,34555,6,0,L|265:247,1,80,2|8,0:0|0:0,0:0:0:0:
341,242,35127,2,0,B|356:183|356:183|339:110,2,120,2|2|8,0:0|0:0|0:0,0:0:0:0:
306,322,36270,2,0,P|345:328|391:313,1,80,2|8,0:0|0:0,0:0:0:0:
459,272,36841,5,6,0:0:0:0:
461,183,37127,2,0,P|424:112|344:107,1,160,8|8,0:0|0:0,0:0:0:0:
295,172,37984,1,2,0:0:0:0:
255,250,38270,2,0,B|176:269|176:269|94:258,1,160,8|8,0:0|0:0,0:0:0:0:
44,188,39127,5,6,0:0:0:0:
89,112,39412,2,0,L|251:108,1,160,8|8,0:0|0:0,0:0:0:0:
329,145,40270,1,0,0:0:0:0:
380,216,40555,2,0,P|411:170|380:74,1,160,8|8,0:0|0:0,0:0:0:0:
312,23,41412,5,6,0:0:0:0:
259,94,41698,2,0,P|219:106|99:105,1,160,8|8,0:0|0:0,0:0:0:0:
35,47,42555,1,2,0:0:0:0:
15,132,42841,2,0,L|29:297,1,160,8|8,0:0|0:0,0:0:0:0:
92,352,43698,6,0,L|174:343,1,80,6|8,0:0|0:0,0:0:0:0:
259,334,44270,2,0,B|318:337|318:337|380:316,2,120,2|2|8,0:0|0:0|0:0,0:0:0:0:
204,265,45412,2,0,L|201:170,1,80,8|8,0:0|0:0,0:0:0:0:
242,106,45984,5,6,0:0:0:0:
299,172,46270,2,0,B|376:144|376:200|464:172,1,160,8|8,0:0|0:0,0:0:0:0:
494,95,47127,1,2,0:0:0:0:
431,32,47412,2,0,P|383:10|282:46,1,160,8|8,0:0|0:0,0:0:0:0:
263,127,48270,5,6,0:0:0:0:
192,75,48555,2,0,B|144:69|144:69|31:86,1,160,8|8,0:0|0:0,0:0:0:0:
1,167,49412,1,2,0:0:0:0:
47,241,49698,2,0,B|95:247|95:247|208:230,1,160,8|8,0:0|0:0,0:0:0:0:
256,158,50555,5,6,0:0:0:0:
334,197,50841,2,0,L|343:366,1,160,8|8,0:0|0:0,0:0:0:0:
429,367,51698,1,2,0:0:0:0:
482,296,51984,2,0,L|473:136,1,160,8|8,0:0|0:0,0:0:0:0:
446,52,52841,6,0,P|371:32|305:84,1,160,6|2,0:0|0:0,0:0:0:0:
273,158,53698,1,8,0:0:0:0:
192,121,53984,2,0,L|190:39,1,80,2|8,0:0|0:0,0:0:0:0:
102,45,54555,2,0,L|104:127,1,80,2|8,0:0|0:0,0:0:0:0:
101,213,55127,6,0,P|107:252|136:290,1,80,6|8,0:0|0:0,0:0:0:0:
216,300,55698,2,0,B|275:288|275:288|352:297,2,120,2|2|8,0:0|0:0|0:0,0:0:0:0:
161,369,56841,2,0,L|66:368,1,80,2|8,0:0|0:0,0:0:0:0:
36,290,57412,6,0,P|32:251|43:213,1,80,6|8,0:0|0:0,0:0:0:0:
128,190,57984,2,0,P|96:145|33:126,2,120,2|2|8,0:0|0:0|0:0,0:0:0:0:
141,277,59127,2,0,P|174:290|235:286,1,80,2|8,0:0|0:0,0:0:0:0:
279,227,59698,6,0,P|312:214|373:218,1,80,6|8,0:0|0:0,0:0:0:0:
443,224,60270,2,0,P|457:177|460:102,2,120,2|2|8,0:0|0:0|0:0,0:0:0:0:
389,293,61412,2,0,P|349:305|308:332,1,80,2|8,0:0|0:0,0:0:0:0:
234,357,61984,5,6,0:0:0:0:
145,354,62270,2,0,P|98:352|42:247,1,160,8|8,0:0|0:0,0:0:0:0:
75,185,63127,1,2,0:0:0:0:
148,232,63412,2,0,B|212:232|212:232|248:248|248:248|308:248,1,160,8|8,0:0|0:0,0:0:0:0:
374,193,64270,6,0,P|386:155|382:115,1,80,6|8,0:0|0:0,0:0:0:0:
336,40,64841,2,0,P|392:30|452:61,2,120,2|2|8,0:0|0:0|0:0,0:0:0:0:
267,95,65984,2,0,P|229:98|176:85,1,80,2|8,0:0|0:0,0:0:0:0:
104,63,66555,6,0,L|100:154,1,80,6|8,0:0|0:0,0:0:0:0:
139,222,67127,2,0,P|191:191|261:201,2,120,2|2|8,0:0|0:0|0:0,0:0:0:0:
84,291,68270,2,0,L|101:372,1,80,2|8,0:0|0:0,0:0:0:0:
188,365,68841,6,0,L|269:348,1,80,6|8,0:0|0:0,0:0:0:0:
348,316,69412,2,0,B|412:296|412:344|480:316,2,120,2|2|8,0:0|0:0|0:0,0:0:0:0:
277,262,70555,2,0,P|274:224|296:177,1,80,2|8,0:0|0:0,0:0:0:0:
353,124,71127,5,6,0:0:0:0:
425,74,71412,2,0,P|367:38|282:70,1,160,8|8,0:0|0:0,0:0:0:0:
210,112,72270,2,0,B|168:126|139:128|139:128|110:111|110:111|110:148|110:148|149:185|136:251,1,240,2|2,0:0|0:0,0:0:0:0:
164,320,73412,6,0,P|206:313|255:312,1,80,6|8,0:0|0:0,0:0:0:0:
331,308,73984,2,0,P|314:251|312:190,2,120,2|2|8,0:0|0:0|0:0,0:0:0:0:
409,348,75127,2,0,P|448:344|485:310,1,80,2|8,0:0|0:0,0:0:0:0:
487,231,75698,6,0,P|489:165|484:102,1,120,6|2,0:0|0:0,0:0:0:0:
423,48,76412,1,2,0:0:0:0:
370,118,76698,2,0,P|330:148|250:143,1,120,2|8,0:0|0:0,0:0:0:0:
214,74,77412,2,0,P|160:67|130:68,1,80,2|8,0:0|0:0,0:0:0:0:
61,117,77984,6,0,L|70:196,1,80,6|8,0:0|0:0,0:0:0:0:
146,241,78555,2,0,P|100:278|39:279,2,120,2|2|8,0:0|0:0|0:0,0:0:0:0:
199,171,79698,2,0,L|287:165,1,80,2|8,0:0|0:0,0:0:0:0:
356,123,80270,6,0,P|406:106|469:141,1,120,6|2,0:0|0:0,0:0:0:0:
494,216,80984,1,2,0:0:0:0:
464,299,81270,2,0,L|336:305,1,120,2|8,0:0|0:0,0:0:0:0:
266,262,81984,2,0,L|138:268,1,120,10|8,0:0|0:0,0:0:0:0:
