osu file format v14

[General]
AudioFilename: audio.mp3
AudioLeadIn: 0
PreviewTime: 75957
Countdown: 0
SampleSet: Soft
StackLeniency: 0
Mode: 0
LetterboxInBreaks: 0
WidescreenStoryboard: 1

[Editor]
Bookmarks: 37464,76724,121570
DistanceSpacing: 1
BeatDivisor: 4
GridSize: 32
TimelineZoom: 1.7

[Metadata]
Title:Sea,You Next
TitleUnicode:Sea,You Next
Artist:Maeda Jun
ArtistUnicode:麻枝准
Creator:kodama
Version:Umi
Source:Summer Pockets
Tags:visual novel vn video game galgame key visualarts サマーポケッツ bermei.inazawa bermei bgm background music ost original soundtrack instrumental piano classical 加藤うみ katou umi
BeatmapID:3513478
BeatmapSetID:1719266

[Difficulty]
HPDrainRate:3
CircleSize:7
OverallDifficulty:6
ApproachRate:6
SliderMultiplier:1.3
SliderTickRate:1

[Events]
//Background and Video events
0,0,"umi.jpeg",0,0
//Break Periods
//Storyboard Layer 0 (Background)
//Storyboard Layer 1 (Fail)
//Storyboard Layer 2 (Pass)
//Storyboard Layer 3 (Foreground)
//Storyboard Layer 4 (Overlay)
//Storyboard Sound Samples

[TimingPoints]
104,851.063829787234,4,2,1,15,1,0
1380,-100,4,2,1,25,0,0
1824,857.142857142857,4,2,1,40,1,0
1824,-153.846153846154,4,2,1,40,0,0
2252,-153.846153846154,4,2,1,25,0,0
2681,-153.846153846154,4,2,1,35,0,0
3109,-153.846153846154,4,2,1,30,0,0
3525,833.333333333333,4,2,1,30,1,0
3941,-100,4,2,1,20,0,0
4358,-100,4,2,1,25,0,0
4775,-100,4,2,1,30,0,0
5210,833.333333333333,4,2,1,40,1,0
5210,-153.846153846154,4,2,1,40,0,0
5626,-153.846153846154,4,2,1,25,0,0
6043,-153.846153846154,4,2,1,35,0,0
6440,845.070422535211,4,2,1,40,1,0
6440,-222.222222222222,4,2,1,40,0,0
6862,-100,4,2,1,15,0,0
7285,-100,4,2,1,35,0,0
7723,851.063829787234,4,2,1,30,1,0
8148,-100,4,2,1,25,0,0
8586,839.160839160839,4,2,1,40,1,0
8586,-153.846153846154,4,2,1,40,0,0
9005,-153.846153846154,4,2,1,25,0,0
9425,-153.846153846154,4,2,1,35,0,0
9833,851.063829787234,4,2,1,20,1,0
10258,-153.846153846154,4,2,1,30,0,0
10684,-153.846153846154,4,2,1,20,0,0
11109,-153.846153846154,4,2,1,30,0,0
11545,827.586206896552,4,2,1,35,1,0
11958,-153.846153846154,4,2,1,40,0,0
12372,-153.846153846154,4,2,1,20,0,0
12786,-153.846153846154,4,2,1,30,0,0
13200,-153.846153846154,4,2,1,35,0,0
13640,816.326530612245,4,2,1,40,1,0
14048,-100,4,2,1,20,0,0
14466,857.142857142857,4,2,1,40,1,0
14894,-100,4,2,1,25,0,0
15328,823.045267489712,4,2,1,40,1,0
15328,-153.846153846154,4,2,1,40,0,0
15739,-153.846153846154,4,2,1,25,0,0
16151,-153.846153846154,4,2,1,35,0,0
16564,-153.846153846154,4,2,1,30,0,0
16986,819.112627986348,4,2,1,35,1,0
16986,-153.846153846154,4,2,1,35,0,0
17395,-153.846153846154,4,2,1,20,0,0
17805,-153.846153846154,4,2,1,25,0,0
18214,-153.846153846154,4,2,1,30,0,0
18653,821.917808219178,4,2,1,40,1,0
18653,-153.846153846154,4,2,1,40,0,0
19063,-153.846153846154,4,2,1,25,0,0
19474,-153.846153846154,4,2,1,35,0,0
19886,851.063829787234,4,2,1,35,1,0
19886,-222.222222222222,4,2,1,40,0,0
20311,-100,4,2,1,15,0,0
20716,816.326530612245,4,2,1,35,1,0
21153,839.160839160839,4,2,1,30,1,0
21572,-100,4,2,1,25,0,0
22006,851.063829787234,4,2,1,40,1,0
22006,-153.846153846154,4,2,1,40,0,0
22431,-153.846153846154,4,2,1,25,0,0
22837,845.070422535211,4,2,1,35,1,0
22837,-222.222222222222,4,2,1,35,0,0
23259,-222.222222222222,4,2,1,20,0,0
23682,-144.685051607679,4,2,1,35,0,0
24091,821.917808219178,4,2,1,25,1,0
24496,839.160839160839,4,2,1,40,1,0
24496,-117.647058823529,4,2,1,40,0,0
24915,-117.647058823529,4,2,1,45,0,0
25376,875.912408759124,4,2,1,55,1,0
25813,-100,4,2,1,40,0,0
26280,857.142857142857,4,2,1,55,1,0
26708,-100,4,2,1,45,0,0
27260,681.818181818182,4,2,1,35,1,0
27260,-105.263157894737,4,2,1,35,0,0
27345,-105.263157894737,4,2,1,40,0,0
27402,1808.59080633007,4,2,1,55,1,1
27402,-31.4606840485572,4,2,1,55,0,1
29210,-31.4465408805031,4,2,1,15,0,1
32827,-31.4465408805031,4,2,1,5,0,1
34643,705.882352941176,4,2,1,5,1,1
35348,-100,4,2,1,5,0,0
35701,-100,4,2,1,15,0,0
36074,681.818181818182,4,2,1,20,1,0
36074,-285.714285714286,4,2,1,20,0,0
36414,-285.714285714286,4,2,1,15,0,0
36755,-375.842655843133,4,2,1,15,0,0
37112,705.882352941176,4,2,1,20,1,0
37464,-209.660856186702,4,2,1,30,0,0
38170,-209.660856186702,4,2,1,5,0,0
38191,705.882352941176,4,2,1,15,1,0
38543,-222.222222222222,4,2,1,20,0,0
39249,-285.714285714286,4,2,1,25,0,0
39955,-285.714285714286,4,2,1,15,0,0
40327,722.89156626506,4,2,1,30,1,0
41411,-100,4,2,1,20,0,0
41789,666.666666666666,4,2,1,25,1,0
42122,-100,4,2,1,15,0,0
42465,689.655172413792,4,2,1,20,1,0
42809,-100,4,2,1,25,0,0
43187,695.652173913043,4,2,1,30,1,0
43187,-222.222222222222,4,2,1,30,0,0
43882,-222.222222222222,4,2,1,15,0,0
44230,-222.222222222222,4,2,1,20,0,0
44926,-285.714285714286,4,2,1,25,0,0
45273,-285.714285714286,4,2,1,5,0,0
45666,701.754385964912,4,2,1,25,1,0
46016,-400,4,2,1,40,0,0
46718,-400,4,2,1,5,0,0
47418,681.818181818182,4,2,1,40,1,0
47758,-400,4,2,1,30,0,0
48099,-400,4,2,1,35,0,0
48440,-400,4,2,1,30,0,0
48835,687.679083094556,4,2,1,25,1,0
48835,-285.714285714286,4,2,1,25,0,0
49178,-285.714285714286,4,2,1,15,0,0
49522,-285.714285714286,4,2,1,30,0,0
49866,-285.714285714286,4,2,1,25,0,0
50210,-285.714285714286,4,2,1,40,0,0
50554,679.886685552408,4,2,1,35,1,0
50554,-285.714285714286,4,2,1,35,0,0
50893,-285.714285714286,4,2,1,20,0,0
51233,-285.714285714286,4,2,1,25,0,0
51598,710.059171597633,4,2,1,35,1,0
51953,-100,4,2,1,25,0,0
52290,705.882352941176,4,2,1,35,1,0
52290,-222.222222222222,4,2,1,35,0,0
52642,-222.222222222222,4,2,1,15,0,0
53002,689.655172413793,4,2,1,40,1,0
53346,-222.222222222222,4,2,1,35,0,0
53691,-222.222222222222,4,2,1,30,0,0
54036,-222.222222222222,4,2,1,25,0,0
54402,697.674418604651,4,2,1,40,1,0
54402,-153.846153846154,4,2,1,40,0,0
54750,-153.846153846154,4,2,1,15,0,0
55099,-152.831492549137,4,2,1,25,0,0
55438,670.391061452514,4,2,1,15,1,0
55773,-222.222222222222,4,2,1,35,0,0
56108,-222.222222222222,4,2,1,30,0,0
56443,-222.222222222222,4,2,1,25,0,0
56787,676.056338028169,4,2,1,20,1,0
57138,687.679083094556,4,2,1,45,1,0
57138,-153.846153846154,4,2,1,45,0,0
57481,-153.846153846154,4,2,1,25,0,0
57825,-153.846153846154,4,2,1,35,0,0
58169,-153.846153846154,4,2,1,30,0,0
58523,693.64161849711,4,2,1,35,1,0
58869,-153.846153846154,4,2,1,30,0,0
59216,-153.846153846154,4,2,1,25,0,0
59566,685.714285714286,4,2,1,20,1,0
59908,-148.465581931281,4,2,1,40,0,0
60233,701.754385964913,4,2,1,20,1,0
60583,-181.818181818182,4,2,1,35,0,0
60934,-181.818181818182,4,2,1,15,0,0
61288,683.760683760684,4,2,1,50,1,0
61629,-181.818181818182,4,2,1,45,0,0
61971,-181.818181818182,4,2,1,40,0,0
62329,705.882352941176,4,2,1,45,1,0
62681,-153.846153846154,4,2,1,40,0,0
63034,-153.846153846154,4,2,1,45,0,0
63387,-222.222222222222,4,2,1,50,0,0
63742,725.075528700906,4,2,1,45,1,0
64104,-222.222222222222,4,2,1,30,0,0
64467,-222.222222222222,4,2,1,15,0,0
64829,-222.222222222222,4,2,1,20,0,0
65200,701.754385964912,4,2,1,25,1,0
65550,693.64161849711,4,2,1,30,1,0
65550,-666.666666666667,4,2,1,30,0,0
66243,-666.666666666667,4,2,1,15,0,0
66937,725.075528700907,4,2,1,35,1,0
67299,-666.666666666667,4,2,1,20,0,0
67662,-666.666666666667,4,2,1,25,0,0
67982,659.340659340659,4,2,1,30,1,0
68337,697.674418604651,4,2,1,35,1,0
68337,-400,4,2,1,35,0,0
69034,-400,4,2,1,30,0,0
69359,705.882352941176,4,2,1,30,1,0
69711,-500,4,2,1,35,0,0
70417,-500,4,2,1,10,0,0
71111,687.679083094556,4,2,1,15,1,0
71454,-100,4,2,1,20,0,0
71780,687.679083094556,4,2,1,25,1,0
72123,-100,4,2,1,30,0,0
72485,677.966101694915,4,2,1,35,1,0
72485,-181.818181818182,4,2,1,35,0,0
72823,-181.818181818182,4,2,1,15,0,0
73162,-299.146169402982,4,2,1,25,0,0
73506,701.754385964912,4,2,1,10,1,0
73863,707.964601769911,4,2,1,35,1,0
73863,-666.666666666667,4,2,1,35,0,0
74570,-666.666666666667,4,2,1,5,0,0
75986,-666.666666666667,4,2,1,15,0,0
76340,-666.666666666667,4,2,1,30,0,0
76724,699.708454810495,4,2,1,60,1,0
76724,-117.647058823529,4,2,1,60,0,0
77073,-117.647058823529,4,2,1,45,0,0
77423,-117.647058823529,4,2,1,55,0,0
77773,-117.647058823529,4,2,1,45,0,0
78473,-117.647058823529,4,2,1,40,0,0
78823,-117.647058823529,4,2,1,35,0,0
79172,-185.978999419257,4,2,1,45,0,0
79532,677.966101694915,4,2,1,45,1,0
79870,-123.712461200138,4,2,1,60,0,0
80237,655.737704918033,4,2,1,45,1,0
80564,-139.448549542025,4,2,1,50,0,0
80933,677.966101694916,4,2,1,35,1,0
81271,-213.704481910474,4,2,1,40,0,0
81630,677.966101694916,4,2,1,25,1,0
81968,-222.222222222222,4,2,1,30,0,0
82322,683.760683760684,4,2,1,60,1,0
82322,-117.647058823529,4,2,1,60,0,0
82663,-117.647058823529,4,2,1,45,0,0
83005,-117.647058823529,4,2,1,55,0,0
83362,691.64265129683,4,2,1,45,1,0
84053,-117.647058823529,4,2,1,35,0,0
84399,-117.647058823529,4,2,1,40,0,0
84745,-146.329918116021,4,2,1,45,0,0
85115,691.64265129683,4,2,1,45,1,0
85460,-222.222222222222,4,2,1,30,0,0
85806,-222.222222222222,4,2,1,15,0,0
86152,-165.635037643543,4,2,1,40,0,0
86514,693.64161849711,4,2,1,25,1,0
86860,-117.647058823529,4,2,1,50,0,0
87207,-117.647058823529,4,2,1,35,0,0
87554,-117.647058823529,4,2,1,60,0,0
87923,689.655172413793,4,2,1,45,1,0
87923,-666.666666666667,4,2,1,45,0,0
88267,-666.666666666667,4,2,1,25,0,0
88612,-666.666666666667,4,2,1,30,0,0
88940,703.812316715542,4,2,1,15,1,0
89291,-666.666666666667,4,2,1,45,0,0
89643,-666.666666666667,4,2,1,35,0,0
89995,-634.653308404891,4,2,1,30,0,0
90347,-666.666666666667,4,2,1,15,0,0
90705,701.754385964912,4,2,1,50,1,0
90705,-666.666666666667,4,2,1,50,0,0
91055,-666.666666666667,4,2,1,35,0,0
91406,-666.666666666667,4,2,1,45,0,0
91754,685.714285714286,4,2,1,15,1,0
92097,-666.666666666667,4,2,1,45,0,0
92440,-666.666666666667,4,2,1,50,0,0
92783,-666.666666666667,4,2,1,45,0,0
93146,695.652173913043,4,2,1,35,1,0
93493,-666.666666666667,4,2,1,45,0,0
93841,-666.666666666667,4,2,1,50,0,0
94193,699.708454810495,4,2,1,35,1,0
94542,-153.846153846154,4,2,1,40,0,0
94892,-153.846153846154,4,2,1,25,0,0
95242,-153.846153846154,4,2,1,35,0,0
95592,-153.846153846154,4,2,1,45,0,0
95942,-153.846153846154,4,2,1,25,0,0
96303,703.812316715542,4,2,1,30,1,0
96303,-666.666666666667,4,2,1,30,0,0
96654,-666.666666666667,4,2,1,35,0,0
97006,-666.666666666667,4,2,1,40,0,0
97345,707.964601769912,4,2,1,45,1,0
97698,-666.666666666667,4,2,1,40,0,0
98052,-666.666666666667,4,2,1,30,0,0
98406,-666.666666666667,4,2,1,40,0,0
98760,-666.666666666667,4,2,1,50,0,0
99117,695.652173913043,4,2,1,60,1,0
99117,-117.647058823529,4,2,1,60,0,0
99464,-117.647058823529,4,2,1,45,0,0
99812,-117.647058823529,4,2,1,55,0,0
100160,-117.647058823529,4,2,1,45,0,0
100856,-117.647058823529,4,2,1,40,0,0
101203,-117.647058823529,4,2,1,35,0,0
101551,-137.967630744394,4,2,1,45,0,0
101911,699.708454810496,4,2,1,45,1,0
102260,-222.222222222222,4,2,1,30,0,0
102610,-222.222222222222,4,2,1,15,0,0
102960,-153.846153846154,4,2,1,40,0,0
103310,-153.846153846154,4,2,1,25,0,0
103642,731.707317073171,4,2,1,50,1,0
103642,-117.647058823529,4,2,1,50,0,0
104007,-117.647058823529,4,2,1,35,0,0
104365,701.754385964912,4,2,1,60,1,0
104715,-117.647058823529,4,2,1,60,0,0
105066,-117.647058823529,4,2,1,45,0,0
105417,-117.647058823529,4,2,1,55,0,0
105768,-117.647058823529,4,2,1,45,0,0
106460,701.754385964912,4,2,1,35,1,0
106810,-117.647058823529,4,2,1,40,0,0
107161,-174.405291209858,4,2,1,45,0,0
107523,681.818181818182,4,2,1,45,1,0
107863,-245.667183952303,4,2,1,30,0,0
108224,681.818181818182,4,2,1,15,1,0
108564,-157.060508488807,4,2,1,40,0,0
108930,689.655172413793,4,2,1,25,1,0
109274,-117.647058823529,4,2,1,50,0,0
109619,-117.647058823529,4,2,1,35,0,0
109964,-117.647058823529,4,2,1,60,0,0
110339,693.641618497109,4,2,1,45,1,0
110339,-666.666666666667,4,2,1,45,0,0
110685,-666.666666666667,4,2,1,25,0,0
111032,-666.666666666667,4,2,1,30,0,0
111379,-666.666666666667,4,2,1,35,0,0
111729,714.285714285714,4,2,1,25,1,0
111729,-1000,4,2,1,25,0,0
112086,-1000,4,2,1,15,0,0
112443,-1000,4,2,1,25,0,0
112800,-1000,4,2,1,15,0,0
113152,695.652173913043,4,2,1,50,1,0
113152,-666.666666666667,4,2,1,50,0,0
113499,-666.666666666667,4,2,1,30,0,0
113847,-666.666666666667,4,2,1,35,0,0
114195,-666.666666666667,4,2,1,40,0,0
114543,699.708454810496,4,2,1,45,1,0
114892,-100,4,2,1,50,0,0
115242,-100,4,2,1,45,0,0
115592,-100,4,2,1,35,0,0
115954,705.882352941176,4,2,1,45,1,0
115954,-666.666666666667,4,2,1,45,0,0
116306,-666.666666666667,4,2,1,50,0,0
116631,707.964601769911,4,2,1,35,1,0
116984,-166.874127644541,4,2,1,40,0,0
117348,707.964601769911,4,2,1,25,1,0
117701,-153.846153846154,4,2,1,35,0,0
118055,-153.846153846154,4,2,1,45,0,0
118409,-153.846153846154,4,2,1,15,0,0
118765,697.674418604651,4,2,1,30,1,0
118765,-666.666666666667,4,2,1,30,0,0
119113,-666.666666666667,4,2,1,35,0,0
119462,-666.666666666667,4,2,1,40,0,0
119811,-666.666666666667,4,2,1,45,0,0
120164,674.157303370787,4,2,1,40,1,0
120501,-100,4,2,1,35,0,0
120855,718.562874251497,4,2,1,35,1,0
121214,-162.677139249209,4,2,1,40,0,0
121570,697.674418604651,4,2,1,45,1,0
121570,-100,4,2,1,45,0,0
121918,-100,4,2,1,40,0,0
122267,-181.818181818182,4,2,1,45,0,0
122616,-181.818181818182,4,2,1,25,0,0
122960,697.674418604651,4,2,1,45,1,0
123308,-181.818181818182,4,2,1,50,0,0
123657,-181.818181818182,4,2,1,35,0,0
124005,722.89156626506,4,2,1,40,1,0
124005,-181.818181818182,4,2,1,40,0,0
124366,-100,4,2,1,50,0,0
124727,-100,4,2,1,40,0,0
125089,-165.016908935074,4,2,1,45,0,0
125427,710.059171597633,4,2,1,35,1,0
125782,-181.818181818182,4,2,1,45,0,0
126137,-181.818181818182,4,2,1,50,0,0
126462,720.72072072072,4,2,1,35,1,0
126822,-181.818181818182,4,2,1,40,0,0
127185,707.964601769911,4,2,1,45,1,0
127538,-100,4,2,1,40,0,0
127892,-181.818181818182,4,2,1,45,0,0
128246,-181.818181818182,4,2,1,35,0,0
128600,-181.818181818182,4,2,1,45,0,0
128952,666.666666666666,4,2,1,50,1,0
129285,-181.818181818182,4,2,1,35,0,0
129638,703.812316715542,4,2,1,40,1,0
129638,-181.818181818182,4,2,1,40,0,0
129989,-100,4,2,1,35,0,0
130321,707.964601769911,4,2,1,40,1,0
130674,-186.053075360649,4,2,1,45,0,0
131038,703.812316715542,4,2,1,25,1,0
131389,-181.818181818182,4,2,1,30,0,0
131741,-181.818181818182,4,2,1,45,0,0
132075,727.272727272727,4,2,1,60,1,0
132075,-53.0971751412429,4,2,1,60,0,0
132800,699.708454810495,4,2,1,45,1,0
132800,-53.0971751412429,4,2,1,45,0,0
133149,-53.0971751412429,4,2,1,35,0,0
133499,-53.9428571428571,4,2,1,60,0,0
134199,-53.9428571428571,4,2,1,45,0,0
134549,-53.9428571428571,4,2,1,35,0,0
134899,-57.1428571428571,4,2,1,25,0,0
135248,-57.1428571428571,4,2,1,45,0,0
135606,703.812316715542,4,2,1,50,1,0
135957,-100,4,2,1,35,0,0
136309,-222.222222222222,4,2,1,45,0,0
136661,-222.222222222222,4,2,1,25,0,0
137013,-222.222222222222,4,2,1,50,0,0
137365,-222.222222222222,4,2,1,35,0,0
137717,-666.666666666667,4,2,1,45,0,0
138245,-666.666666666667,4,2,1,5,0,0
138411,697.674418604651,4,2,1,35,1,0
138411,-153.846153846154,4,2,1,35,0,0
138759,-153.846153846154,4,2,1,40,0,0
139110,648.648648648649,4,2,1,50,1,0
139434,-100,4,2,1,35,0,0
139740,759.493670886076,4,2,1,40,1,0
139740,-100,4,2,1,40,0,0
139835,645.161290322581,4,2,1,40,1,0
140157,-100,4,2,1,30,0,0
140514,810.81081081081,4,2,1,45,1,0
140881,810.810810810811,4,2,1,35,1,0
141286,606.060606060606,4,2,1,45,1,0
141286,-222.222222222222,4,2,1,45,0,0
141437,-222.222222222222,4,2,1,15,0,0
141589,-222.222222222222,4,2,1,35,0,0
141985,789.473684210526,4,2,1,40,1,0
142379,-100,4,2,1,30,0,0
142767,697.674418604651,4,2,1,25,1,0
142767,-222.222222222222,4,2,1,25,0,0
142854,-222.222222222222,4,2,1,29,0,0
142941,-222.222222222222,4,2,1,32,0,0
143032,-222.222222222222,4,2,1,36,0,0
143120,697.674418604651,4,2,1,40,1,0
143120,-197.98407996123,4,2,1,40,0,0
143817,-208.333333333333,4,2,1,5,0,0

[Colours]
Combo1 : 223,172,240
Combo2 : 222,233,235
Combo3 : 191,241,249
Combo4 : 148,170,248
Combo5 : 74,106,236

[HitObjects]
46,0,955,5,0,0:0:0:0:
88,22,1380,5,2,0:0:0:0:
117,91,1824,6,0,P|87:97|58:95,2,42.2499980659486,4|0|0,0:0|0:0|0:0,0:0:0:0:
1,90,3109,1,2,0:0:0:0:
4,93,3525,5,2,0:0:0:0:
33,133,3941,1,0,0:0:0:0:
53,188,4358,1,2,0:0:0:0:
96,162,4775,1,0,0:0:0:0:
191,178,5210,22,0,P|197:198|204:232,2,42.2499980659486,2|0|0,0:0|0:0|0:0,0:0:0:0:
202,228,6440,2,0,P|202:213|203:198,1,29.2499991073609,2|0,0:0|0:0,0:0:0:0:
310,151,7285,1,2,0:0:0:0:
366,143,7723,1,2,0:0:0:0:
411,164,8148,1,0,0:0:0:0:
431,192,8586,6,0,P|449:183|471:176,2,42.2499980659486,2|0|0,0:0|0:0|0:0,0:0:0:0:
428,195,9833,1,0,0:0:0:0:
458,90,10258,2,0,P|454:110|449:131,1,42.2499980659486,2|0,0:0|0:0,0:0:0:0:
355,81,11109,1,2,0:0:0:0:
390,47,11545,1,0,0:0:0:0:
477,27,11958,6,0,P|458:36|438:44,2,42.2499980659486,2|0|0,0:0|0:0|0:0,0:0:0:0:
480,138,13200,1,2,0:0:0:0:
482,142,13640,5,2,0:0:0:0:
449,100,14048,1,0,0:0:0:0:
425,209,14466,1,2,0:0:0:0:
377,222,14894,1,2,0:0:0:0:
313,217,15328,22,0,P|323:199|334:178,2,42.2499980659486,4|0|0,0:0|0:0|0:0,0:0:0:0:
310,220,16562,1,2,0:0:0:0:
186,149,16986,2,0,P|197:168|205:189,1,42.2499980659486,2|0,0:0|0:0,0:0:0:0:
133,222,17805,2,0,P|153:226|174:228,1,42.2499980659486,2|0,0:0|0:0,0:0:0:0:
129,119,18653,6,0,P|133:143|139:174,2,42.2499980659486,2|0|0,0:0|0:0|0:0,0:0:0:0:
133,170,19886,2,0,P|121:160|109:152,1,29.2499991073609,2|0,0:0|0:0,0:0:0:0:
0,101,20716,1,2,0:0:0:0:
59,99,21153,1,2,0:0:0:0:
103,76,21572,1,0,0:0:0:0:
123,47,22006,6,0,P|105:35|81:14,1,42.2499980659486,2|0,0:0|0:0,0:0:0:0:
43,5,22837,2,0,P|48:18|54:31,1,29.2499991073609,2|0,0:0|0:0,0:0:0:0:
95,157,23682,6,0,P|84:138|76:118,1,43.5161399008636,2|0,0:0|0:0,0:0:0:0:
8,83,24496,2,0,P|28:105|53:126,1,55.2500010538101,2|2,0:0|0:0,0:0:0:0:
149,185,25376,21,2,0:0:0:0:
197,189,25813,1,0,0:0:0:0:
315,189,26280,5,2,0:0:0:0:
363,185,26708,1,0,0:0:0:0:
256,177,27260,38,0,B|254:167|258:167|256:177,1,15.4374995877743,0|0,0:0|0:0,0:0:0:0:
256,180,27402,2,0,B|232:132|237:105|257:97|274:100|296:133|311:173|308:219|308:219|321:211|357:174|375:143|369:110|363:64|349:77|347:85|337:99|311:117|311:117|331:97|357:53|360:33|362:18|349:11|334:17|307:33|289:43|274:56|265:64|252:77|237:95|223:114|211:133|204:152|198:176|197:201|196:228|196:228|183:236|183:236|165:223|145:220|125:217|110:225|110:225|110:238|104:224|100:219|105:215|125:217|145:220|167:225|180:242|180:242|174:249|174:249|205:252|217:265|227:283|226:297|221:329|221:329|228:317|229:304|244:295|244:295|250:306|257:313|257:313|267:314|276:316|294:330|294:330|313:334|321:345|324:357|321:367|321:367|333:352|331:333|326:309|318:288|302:263|263:235|234:228|194:205|173:193|139:160|119:121|102:53|115:22|136:4|165:8|209:28|193:179|193:179,1,1815.44640749642,4|0,0:0|0:0,0:0:0:0:
192,296,35701,5,0,0:0:0:0:
149,332,36074,2,0,P|147:320|145:309,1,22.7499993057251,2|0,0:0|0:0,0:0:0:0:
141,318,36755,2,0,P|142:327|143:336,1,18.1107702762748,2|0,0:0|0:0,0:0:0:0:
28,384,37465,6,0,P|54:374|89:366,1,63.8024688546221,4|0,0:0|0:0,0:0:0:0:
86,364,38543,1,2,0:0:0:0:
338,301,39249,2,0,P|349:316|370:338,1,45.4999986114502,2|0,0:0|0:0,0:0:0:0:
411,358,40327,5,2,0:0:0:0:
414,361,41411,1,0,0:0:0:0:
460,344,41789,1,2,0:0:0:0:
468,357,42122,1,0,0:0:0:0:
411,358,42465,1,2,0:0:0:0:
393,329,42809,1,0,0:0:0:0:
319,296,43187,6,0,P|346:305|388:313,1,58.4999982147217,2|0,0:0|0:0,0:0:0:0:
378,314,44230,1,2,0:0:0:0:
148,332,44926,2,0,P|136:331|125:328,1,22.7499993057251,2|0,0:0|0:0,0:0:0:0:
152,330,45666,1,2,0:0:0:0:
58,342,46016,22,0,P|82:347|107:355,1,48.75,2|0,0:0|0:0,0:0:0:0:
30,383,47418,1,2,0:0:0:0:
131,313,47758,1,0,0:0:0:0:
184,302,48099,1,2,0:0:0:0:
127,339,48440,1,2,0:0:0:0:
123,336,48835,6,0,P|133:334|145:333,1,22.7499993057251,0|0,0:0|0:0,0:0:0:0:
180,299,49522,1,2,0:0:0:0:
191,301,49866,1,2,0:0:0:0:
357,306,50210,5,2,0:0:0:0:
390,316,50554,2,0,P|391:331|393:343,2,22.7499993057251,0|2|2,0:0|0:0|0:0,0:0:0:0:
484,384,51598,5,2,0:0:0:0:
457,342,51953,1,0,0:0:0:0:
397,352,52290,2,0,P|397:337|400:322,1,29.2499991073609,2|0,0:0|0:0,0:0:0:0:
324,301,53002,21,2,0:0:0:0:
190,297,53346,1,2,0:0:0:0:
113,324,53691,1,2,0:0:0:0:
79,362,54036,1,0,0:0:0:0:
45,356,54402,6,0,P|60:344|84:329,1,42.2499980659486,2|0,0:0|0:0,0:0:0:0:
102,357,55099,2,0,P|113:345|133:330,1,41.3311412107626,2|0,0:0|0:0,0:0:0:0:
188,300,55773,5,2,0:0:0:0:
322,298,56108,1,2,0:0:0:0:
383,322,56443,1,2,0:0:0:0:
422,352,56787,1,0,0:0:0:0:
446,378,57138,6,0,P|436:348|431:323,1,42.2499980659486,2|0,0:0|0:0,0:0:0:0:
374,339,57825,1,2,0:0:0:0:
361,307,58169,1,2,0:0:0:0:
481,383,58523,21,2,0:0:0:0:
406,321,58869,1,0,0:0:0:0:
343,302,59216,1,0,0:0:0:0:
330,308,59566,1,0,0:0:0:0:
333,312,59908,6,0,P|349:325|367:335,1,41.5288927063095,2|0,0:0|0:0,0:0:0:0:
179,310,60583,2,0,P|160:321|142:328,1,35.7500010910034,2|0,0:0|0:0,0:0:0:0:
48,350,61288,5,2,0:0:0:0:
184,298,61629,1,2,0:0:0:0:
328,299,61971,1,2,0:0:0:0:
431,330,62329,1,0,0:0:0:0:
462,346,62681,6,0,P|441:359|420:369,1,42.2499980659486,2|0,0:0|0:0,0:0:0:0:
350,324,63387,2,0,P|365:321|379:317,1,29.2499991073609,2|0,0:0|0:0,0:0:0:0:
384,315,64104,21,2,0:0:0:0:
384,323,64467,5,0,0:0:0:0:
379,321,64829,5,0,0:0:0:0:
386,319,65200,5,2,0:0:0:0:
164,323,65550,2,0,P|163:313|161:304,2,19.4999994049072,2|0|2,0:0|0:0|0:0,0:0:0:0:
159,326,67299,21,0,0:0:0:0:
154,319,67662,5,0,0:0:0:0:
154,324,67982,5,2,0:0:0:0:
394,351,68337,2,0,P|396:334|399:318,1,32.5,2|0,0:0|0:0,0:0:0:0:
109,346,69711,2,0,P|106:331|103:318,1,26,2|0,0:0|0:0,0:0:0:0:
48,382,71111,5,2,0:0:0:0:
73,335,71454,1,0,0:0:0:0:
131,341,71780,1,0,0:0:0:0:
192,296,72123,1,2,0:0:0:0:
342,317,72485,22,0,P|358:313|377:311,1,35.7500010910034,2|0,0:0|0:0,0:0:0:0:
395,341,73162,2,0,P|405:340|417:340,1,22.0500901387583,2|0,0:0|0:0,0:0:0:0:
461,365,73863,6,0,B|476:364|494:376|494:388|488:390|482:384,1,48.7499985122681,2|0,0:0|0:0,0:0:0:0:
458,366,75986,5,0,0:0:0:0:
426,328,76340,5,2,0:0:0:0:
413,213,76724,22,0,P|438:196|473:182,2,55.2500010538101,4|0|0,0:0|0:0|0:0,0:0:0:0:
315,228,77773,1,2,0:0:0:0:
311,226,78123,5,2,0:0:0:0:
351,145,78473,1,0,0:0:0:0:
390,114,78823,1,0,0:0:0:0:
506,115,79172,2,0,P|502:98|497:80,1,36.1386219991855,2|0,0:0|0:0,0:0:0:0:
460,0,79870,6,0,P|467:28|475:55,1,57.0219970622554,2|0,0:0|0:0,0:0:0:0:
349,89,80564,2,0,P|359:111|374:135,1,52.4973171521515,2|0,0:0|0:0,0:0:0:0:
308,162,81271,2,0,P|316:174|327:188,1,32.2269689213971,2|0,0:0|0:0,0:0:0:0:
320,221,81968,1,2,0:0:0:0:
201,147,82322,6,0,P|172:162|134:177,2,55.2500010538101,2|0|0,0:0|0:0|0:0,0:0:0:0:
132,218,83362,1,2,0:0:0:0:
127,221,83707,21,2,0:0:0:0:
81,204,84053,1,0,0:0:0:0:
71,60,84399,1,2,0:0:0:0:
37,49,84745,2,0,P|40:72|44:96,1,47.5258813978106,2|0,0:0|0:0,0:0:0:0:
28,141,85460,6,0,P|23:124|20:109,1,29.2499991073609,2|0,0:0|0:0,0:0:0:0:
70,166,86152,2,0,P|81:184|93:200,1,41.1036343938153,2|0,0:0|0:0,0:0:0:0:
204,208,86860,2,0,P|179:196|151:177,1,55.2500010538101,2|0,0:0|0:0,0:0:0:0:
52,0,87554,1,2,0:0:0:0:
40,33,87923,6,0,P|38:28|34:24,2,9.74999970245362,4|0|0,0:0|0:0|0:0,0:0:0:0:
36,36,88940,1,0,0:0:0:0:
99,83,89291,5,2,0:0:0:0:
146,69,89643,1,0,0:0:0:0:
169,95,89995,2,0,P|169:100|168:105,1,10.2418120128946,2|0,0:0|0:0,0:0:0:0:
313,144,90705,22,0,P|315:139|319:135,2,9.74999970245362,2|0|0,0:0|0:0|0:0,0:0:0:0:
316,147,91754,1,0,0:0:0:0:
449,195,92097,5,2,0:0:0:0:
512,103,92440,1,0,0:0:0:0:
477,39,92783,1,2,0:0:0:0:
446,23,93146,1,2,0:0:0:0:
442,26,93493,6,0,P|444:32|447:38,1,9.74999970245362,0|0,0:0|0:0,0:0:0:0:
450,38,94193,1,2,0:0:0:0:
409,134,94542,2,0,P|389:127|351:119,1,42.2499980659486,2|0,0:0|0:0,0:0:0:0:
340,102,95242,1,2,0:0:0:0:
188,125,95592,1,2,0:0:0:0:
158,106,95942,5,0,0:0:0:0:
119,135,96303,2,0,P|121:139|125:142,2,9.74999970245362,2|0|0,0:0|0:0|0:0,0:0:0:0:
127,147,97345,21,0,0:0:0:0:
83,174,97698,1,0,0:0:0:0:
48,174,98052,1,0,0:0:0:0:
51,170,98406,5,0,0:0:0:0:
110,216,98760,5,2,0:0:0:0:
308,199,99117,6,0,P|332:193|377:187,2,55.2500010538101,4|0|0,0:0|0:0|0:0,0:0:0:0:
375,65,100160,1,2,0:0:0:0:
372,62,100508,21,2,0:0:0:0:
355,140,100856,1,0,0:0:0:0:
393,171,101203,1,0,0:0:0:0:
508,87,101551,2,0,P|486:94|461:100,1,48.7968057743211,2|0,0:0|0:0,0:0:0:0:
479,132,102260,6,0,P|464:130|449:128,1,29.2499991073609,2|0,0:0|0:0,0:0:0:0:
394,161,102960,2,0,P|412:170|432:178,1,42.2499980659486,2|0,0:0|0:0,0:0:0:0:
345,228,103642,2,0,P|321:203|295:169,1,55.2500010538101,2|0,0:0|0:0,0:0:0:0:
443,11,104365,1,2,0:0:0:0:
418,83,104715,6,0,P|416:56|412:29,2,55.2500010538101,4|0|0,0:0|0:0|0:0,0:0:0:0:
369,82,105768,1,2,0:0:0:0:
365,80,106119,5,2,0:0:0:0:
329,117,106460,1,0,0:0:0:0:
204,165,106810,1,2,0:0:0:0:
153,159,107161,2,0,P|151:142|147:121,1,38.4950993935167,2|0,0:0|0:0,0:0:0:0:
98,158,107863,22,0,P|109:166|121:174,1,28.0178514522437,2|0,0:0|0:0,0:0:0:0:
203,216,108564,2,0,P|181:214|159:210,1,44.4595909326941,2|0,0:0|0:0,0:0:0:0:
323,228,109274,2,0,P|350:216|386:196,1,55.2500010538101,2|0,0:0|0:0,0:0:0:0:
469,5,109964,1,2,0:0:0:0:
475,39,110339,6,0,P|470:38|465:35,3,9.74999970245362,4|0|0|0,0:0|0:0|0:0|0:0,0:0:0:0:
477,43,111729,2,0,P|475:45|474:48,3,6.5,0|0|0|0,0:0|0:0|0:0|0:0,0:0:0:0:
358,125,113152,6,0,P|356:120|356:115,2,9.74999970245362,2|0|0,0:0|0:0|0:0,0:0:0:0:
319,155,114195,1,0,0:0:0:0:
183,161,114543,5,2,0:0:0:0:
91,111,114892,1,0,0:0:0:0:
58,44,115242,1,2,0:0:0:0:
68,12,115592,1,2,0:0:0:0:
73,13,115954,22,0,P|76:17|79:24,1,9.74999970245362,0|0,0:0|0:0,0:0:0:0:
77,26,116631,1,2,0:0:0:0:
113,124,116984,2,0,P|132:130|152:132,1,40.0778591643786,2|0,0:0|0:0,0:0:0:0:
179,111,117701,1,2,0:0:0:0:
350,140,118055,2,0,P|371:137|392:130,1,42.2499980659486,2|0,0:0|0:0,0:0:0:0:
436,155,118765,6,0,P|438:160|441:165,2,9.74999970245362,2|0|0,0:0|0:0|0:0,0:0:0:0:
403,62,119811,1,0,0:0:0:0:
449,11,120164,1,0,0:0:0:0:
478,31,120501,1,0,0:0:0:0:
476,36,120855,5,2,0:0:0:0:
488,138,121214,2,0,P|468:135|449:131,1,39.6402433172745,2|0,0:0|0:0,0:0:0:0:
424,108,121918,1,2,0:0:0:0:
453,184,122267,2,0,P|435:179|418:173,1,35.7500010910034,2|0,0:0|0:0,0:0:0:0:
318,136,122960,5,0,0:0:0:0:
316,145,123308,21,0,0:0:0:0:
322,141,123657,5,2,0:0:0:0:
370,181,124005,2,0,P|351:174|324:161,1,35.7500010910034,2|0,0:0|0:0,0:0:0:0:
316,140,124727,1,2,0:0:0:0:
343,228,125089,2,0,P|326:220|311:210,1,36.8348110862881,2|0,0:0|0:0,0:0:0:0:
174,106,125782,5,0,0:0:0:0:
167,107,126137,5,0,0:0:0:0:
166,100,126462,21,2,0:0:0:0:
205,160,126822,2,0,P|191:147|176:132,1,35.7500010910034,2|0,0:0|0:0,0:0:0:0:
171,101,127538,1,2,0:0:0:0:
182,212,127892,2,0,P|169:198|159:184,1,35.7500010910034,2|0,0:0|0:0,0:0:0:0:
71,16,128600,5,0,0:0:0:0:
71,9,128952,5,0,0:0:0:0:
65,8,129285,5,2,0:0:0:0:
46,58,129638,2,0,P|39:41|34:23,1,35.7500010910034,2|0,0:0|0:0,0:0:0:0:
62,4,130321,1,2,0:0:0:0:
12,124,130674,2,0,P|7:106|4:89,1,35.9442831856195,2|0,0:0|0:0,0:0:0:0:
42,175,131389,21,0,0:0:0:0:
118,202,131741,5,0,0:0:0:0:
205,171,132075,38,0,B|184:125|146:99|119:87|115:88|112:90|109:119|132:115|134:119|134:123|122:173|125:166|125:166|157:190|187:188|187:188|168:204|144:204|141:218|143:242|139:243|135:241|158:213|179:211,1,361.4505593089,2|0,0:0|0:0,0:0:0:0:
307,171,133499,2,0,B|327:125|365:99|392:87|396:88|399:90|402:119|380:115|378:119|378:123|389:173|386:166|386:166|354:190|324:188|324:188|343:204|367:204|370:218|368:242|372:243|376:241|353:213|332:211,1,361.4505593089,4|0,0:0|0:0,0:0:0:0:
333,215,134899,5,0,0:0:0:0:
420,168,135248,1,0,0:0:0:0:
444,194,135606,5,2,0:0:0:0:
472,152,135957,1,0,0:0:0:0:
479,93,136309,2,0,P|474:76|466:57,1,29.2499991073609,2|0,0:0|0:0,0:0:0:0:
316,172,137013,21,2,0:0:0:0:
366,166,137365,1,0,0:0:0:0:
401,120,137717,22,0,P|408:118|416:117,1,14.6249995536804,2|0,0:0|0:0,0:0:0:0:
424,118,138411,6,0,P|404:115|376:108,2,42.2499980659486,2|0|0,0:0|0:0|0:0,0:0:0:0:
430,20,139434,1,2,0:0:0:0:
433,16,139835,5,2,0:0:0:0:
493,82,140157,5,0,0:0:0:0:
481,143,140514,21,2,0:0:0:0:
437,168,140881,5,2,0:0:0:0:
485,139,141286,6,0,P|476:135|467:129,2,14.6249995536804,2|0|0,0:0|0:0|0:0,0:0:0:0:
413,106,141985,5,2,0:0:0:0:
406,49,142379,21,0,0:0:0:0:
449,24,142767,54,0,P|454:22|461:21,3,7.31249977684022,0|0|0|0,0:0|0:0|0:0|0:0,0:0:0:0:
476,22,143120,2,0,P|262:19|50:0,1,426.718821785456,2|0,0:0|0:0,0:0:0:0:
