osu file format v14

[General]
AudioFilename: audio.mp3
AudioLeadIn: 0
PreviewTime: 32309
Countdown: 0
SampleSet: Soft
StackLeniency: 0
Mode: 0
LetterboxInBreaks: 0
WidescreenStoryboard: 0

[Editor]
Bookmarks: 2138,33432,49041,64484,94653,114061
DistanceSpacing: 1.3
BeatDivisor: 4
GridSize: 32
TimelineZoom: 1.38

[Metadata]
Title:Onaji Takami e
TitleUnicode:同じ高みへ
Artist:Maeda Jun
ArtistUnicode:麻枝准
Creator:kodama
Version:Nagisa
Source:CLANNAD
Tags:visual novel vn video game key to the same heights クラナド bgm background music ost original soundtrack deppyforce instrumental orchestral piano classical furukawa nagisa 古河渚 okazaki ushio 岡崎汐 toki o wo kizamu uta 時を刻む唄
BeatmapID:3411446
BeatmapSetID:1670295

[Difficulty]
HPDrainRate:4
CircleSize:7
OverallDifficulty:7
ApproachRate:7
SliderMultiplier:1.2
SliderTickRate:1

[Events]
//Background and Video events
0,0,"clannad.jpg",0,0
//Break Periods
//Storyboard Layer 0 (Background)
//Storyboard Layer 1 (Fail)
//Storyboard Layer 2 (Pass)
//Storyboard Layer 3 (Foreground)
//Storyboard Layer 4 (Overlay)
//Storyboard Sound Samples

[TimingPoints]
187,487.80487804878,4,2,1,35,1,0
187,-1000,4,2,1,35,0,0
308,-1000,4,2,1,5,0,0
1162,-1000,4,2,1,25,0,0
2138,-100,4,2,1,55,0,0
2625,-100,4,2,1,27,0,0
2869,-133.333333333333,4,2,1,45,0,0
3356,-133.333333333333,4,2,1,23,0,0
3601,-133.333333333333,4,2,1,55,0,0
3845,-133.333333333333,4,2,1,45,0,0
4089,-133.333333333333,4,2,1,35,0,0
4333,-133.333333333333,4,2,1,45,0,0
4577,-133.333333333333,4,2,1,40,0,0
4821,-133.333333333333,4,2,1,35,0,0
5065,-133.333333333333,4,2,1,45,0,0
5308,-133.333333333333,4,2,1,40,0,0
5552,-133.333333333333,4,2,1,35,0,0
5796,-133.333333333333,4,2,1,40,0,0
6040,-100,4,2,1,55,0,0
6527,-100,4,2,1,27,0,0
6772,-133.333333333333,4,2,1,45,0,0
7259,-133.333333333333,4,2,1,23,0,0
7504,-133.333333333333,4,2,1,55,0,0
7747,-133.333333333333,4,2,1,45,0,0
7991,-133.333333333333,4,2,1,35,0,0
8235,-133.333333333333,4,2,1,45,0,0
8479,-133.333333333333,4,2,1,40,0,0
8723,-133.333333333333,4,2,1,35,0,0
8967,-133.333333333333,4,2,1,45,0,0
9211,-133.333333333333,4,2,1,40,0,0
9455,-133.333333333333,4,2,1,35,0,0
9699,-133.333333333333,4,2,1,30,0,0
9943,-100,4,2,1,55,0,0
10430,-100,4,2,1,27,0,0
10674,-133.333333333333,4,2,1,45,0,0
11161,-133.333333333333,4,2,1,23,0,0
11406,-133.333333333333,4,2,1,55,0,0
11650,-133.333333333333,4,2,1,45,0,0
11894,-133.333333333333,4,2,1,35,0,0
12138,-133.333333333333,4,2,1,45,0,0
12382,-133.333333333333,4,2,1,40,0,0
12626,-133.333333333333,4,2,1,35,0,0
12869,-133.333333333333,4,2,1,45,0,0
13113,-133.333333333333,4,2,1,40,0,0
13357,-133.333333333333,4,2,1,35,0,0
13601,-133.333333333333,4,2,1,40,0,0
13845,-100,4,2,1,55,0,0
14332,-100,4,2,1,27,0,0
14577,-133.333333333333,4,2,1,45,0,0
15064,-133.333333333333,4,2,1,23,0,0
15308,-133.333333333333,4,2,1,55,0,0
15552,-133.333333333333,4,2,1,45,0,0
15796,-133.333333333333,4,2,1,35,0,0
16068,624.999999999999,4,2,1,45,1,0
16380,487.80487804878,4,2,1,30,1,0
16380,-1000,4,2,1,30,0,0
16501,-1000,4,2,1,5,0,0
17363,487.80487804878,4,2,1,55,1,0
17363,-100,4,2,1,55,0,0
17850,-100,4,2,1,27,0,0
18094,-133.333333333333,4,2,1,45,0,0
18581,-133.333333333333,4,2,1,23,0,0
18826,-133.333333333333,4,2,1,55,0,0
19070,-133.333333333333,4,2,1,45,0,0
19314,-133.333333333333,4,2,1,35,0,0
19558,-285.714285714286,4,2,1,45,0,0
20045,-285.714285714286,4,2,1,23,0,0
20289,-200,4,2,1,50,0,0
20411,-200,4,2,1,5,0,0
21020,-200,4,2,1,25,0,0
21265,-100,4,2,1,55,0,0
21752,-100,4,2,1,27,0,0
21997,-133.333333333333,4,2,1,45,0,0
22484,-133.333333333333,4,2,1,23,0,0
22728,-133.333333333333,4,2,1,50,0,0
22972,-100,4,2,1,55,0,0
23215,-100,4,2,1,27,0,0
23460,-400,4,2,1,55,0,0
23947,-400,4,2,1,27,0,0
24192,-285.714285714286,4,2,1,45,0,0
24435,-285.714285714286,4,2,1,23,0,0
24680,-200,4,2,1,50,0,0
24923,-200,4,2,1,25,0,0
25167,-100,4,2,1,55,0,0
25654,-100,4,2,1,27,0,0
25899,-133.333333333333,4,2,1,45,0,0
26386,-133.333333333333,4,2,1,23,0,0
26631,-133.333333333333,4,2,1,55,0,0
26875,-133.333333333333,4,2,1,45,0,0
27119,-133.333333333333,4,2,1,35,0,0
27362,-285.714285714286,4,2,1,40,0,0
27849,-285.714285714286,4,2,1,20,0,0
28094,-200,4,2,1,45,0,0
28337,-200,4,2,1,23,0,0
28582,-133.333333333333,4,2,1,50,0,0
28947,-133.333333333333,4,2,1,5,0,0
29070,-100,4,2,1,55,0,0
29557,-100,4,2,1,27,0,0
29802,-100,4,2,1,55,0,0
30289,-100,4,2,1,27,0,0
30533,-100,4,2,1,65,0,0
30777,-100,4,2,1,55,0,0
31050,582.524271844659,4,2,1,45,1,0
31339,624.999999999999,4,2,1,35,1,0
31653,697.674418604651,4,2,1,25,1,0
32352,529.801324503312,4,2,1,40,1,0
32352,-997,4,2,1,40,0,0
32887,542.986425339366,4,2,1,50,1,0
33432,487.80487804878,4,2,1,75,1,1
33432,-66.6666666666667,4,2,1,75,0,1
33919,-66.6666666666667,4,2,1,50,0,1
34163,-66.6666666666667,4,2,1,70,0,1
34406,-66.6666666666667,4,2,1,45,0,1
34651,-66.6666666666667,4,2,1,50,0,1
34895,-66.6666666666667,4,2,1,70,0,1
35382,-66.6666666666667,4,2,1,50,0,1
35627,-66.6666666666667,4,2,1,55,0,1
35871,-66.6666666666667,4,2,1,50,0,1
36114,-66.6666666666667,4,2,1,45,0,1
36358,-66.6666666666667,4,2,1,50,0,1
36480,-66.6666666666667,4,2,1,45,0,1
36602,-66.6666666666667,4,2,1,40,0,1
36846,-200,4,2,1,60,0,1
37211,-200,4,2,1,5,0,1
37334,-66.6666666666667,4,2,1,75,0,1
37821,-66.6666666666667,4,2,1,50,0,1
38066,-66.6666666666667,4,2,1,70,0,1
38309,-66.6666666666667,4,2,1,45,0,1
38553,-66.6666666666667,4,2,1,50,0,1
38797,-66.6666666666667,4,2,1,80,0,1
39041,-57.1428571428571,4,2,1,75,0,1
39528,-57.1428571428571,4,2,1,55,0,1
39773,-57.1428571428571,4,2,1,50,0,1
40017,-57.1428571428571,4,2,1,45,0,1
40261,-57.1428571428571,4,2,1,60,0,1
40383,-57.1428571428571,4,2,1,45,0,1
40505,-57.1428571428571,4,2,1,40,0,1
40749,-285.714285714286,4,2,1,55,0,1
41114,-285.714285714286,4,2,1,5,0,1
41236,-66.6666666666667,4,2,1,75,0,1
41723,-66.6666666666667,4,2,1,50,0,1
41968,-66.6666666666667,4,2,1,70,0,1
42211,-66.6666666666667,4,2,1,45,0,1
42456,-66.6666666666667,4,2,1,50,0,1
42700,-66.6666666666667,4,2,1,70,0,1
43187,-66.6666666666667,4,2,1,50,0,1
43431,-66.6666666666667,4,2,1,45,0,1
43675,-66.6666666666667,4,2,1,50,0,1
43919,-66.6666666666667,4,2,1,55,0,1
44163,-285.714285714286,4,2,1,50,0,1
44406,-285.714285714286,4,2,1,30,0,1
44651,-200,4,2,1,60,0,1
45016,-200,4,2,1,5,0,1
45139,-66.6666666666667,4,2,1,75,0,1
45261,-66.6666666666667,4,2,1,5,0,1
45870,-66.6666666666667,4,2,1,70,0,1
45992,-66.6666666666667,4,2,1,5,0,1
46602,-66.6666666666667,4,2,1,60,0,1
46846,-66.6666666666667,4,2,1,45,0,1
47090,-66.6666666666667,4,2,1,55,0,1
47334,-66.6666666666667,4,2,1,45,0,1
47578,-66.6666666666667,4,2,1,50,0,1
47822,-66.6666666666667,4,2,1,55,0,1
48066,-200,4,2,1,45,0,1
48309,-200,4,2,1,23,0,1
48553,-133.333333333333,4,2,1,50,0,1
48918,-133.333333333333,4,2,1,5,0,1
49041,-200,4,2,1,55,0,0
49163,-100,4,2,1,5,0,0
49773,-133.333333333333,4,2,1,45,0,0
49895,-133.333333333333,4,2,1,5,0,0
50505,-133.333333333333,4,2,1,55,0,0
50749,-133.333333333333,4,2,1,45,0,0
50992,-133.333333333333,4,2,1,35,0,0
51236,-285.714285714286,4,2,1,50,0,0
51723,-285.714285714286,4,2,1,25,0,0
51968,-200,4,2,1,55,0,0
52090,-200,4,2,1,5,0,0
52699,-200,4,2,1,27,0,0
52944,-100,4,2,1,60,0,0
53431,-100,4,2,1,30,0,0
53675,-133.333333333333,4,2,1,55,0,0
54162,-133.333333333333,4,2,1,27,0,0
54407,-133.333333333333,4,2,1,65,0,0
54651,-100,4,2,1,60,0,0
54894,-100,4,2,1,30,0,0
55139,-400,4,2,1,45,0,0
55626,-400,4,2,1,23,0,0
55871,-285.714285714286,4,2,1,50,0,0
56114,-285.714285714286,4,2,1,25,0,0
56358,-200,4,2,1,55,0,0
56601,-200,4,2,1,27,0,0
56846,-100,4,2,1,60,0,0
57333,-100,4,2,1,30,0,0
57578,-133.333333333333,4,2,1,55,0,0
58065,-133.333333333333,4,2,1,27,0,0
58310,-133.333333333333,4,2,1,60,0,0
58553,-133.333333333333,4,2,1,50,0,0
58797,-133.333333333333,4,2,1,40,0,0
59041,-285.714285714286,4,2,1,45,0,0
59528,-285.714285714286,4,2,1,23,0,0
59773,-200,4,2,1,50,0,0
60016,-200,4,2,1,25,0,0
60261,-133.333333333333,4,2,1,55,0,0
60626,-133.333333333333,4,2,1,5,0,0
60749,-100,4,2,1,60,0,0
61236,-100,4,2,1,30,0,0
61480,-100,4,2,1,60,0,0
61967,-100,4,2,1,30,0,0
62212,-100,4,2,1,70,0,0
62456,-100,4,2,1,60,0,0
62700,-100,4,2,1,50,0,0
62944,-100,4,2,1,40,0,0
63188,-100,4,2,1,50,0,0
63503,487.80487804878,4,2,1,55,1,0
64484,487.80487804878,5,2,1,35,1,0
64484,-285.714285714286,5,2,1,35,0,0
64727,-285.714285714286,5,2,1,30,0,0
64971,-285.714285714286,5,2,1,25,0,0
65215,-285.714285714286,5,2,1,35,0,0
65459,-285.714285714286,5,2,1,30,0,0
65703,-285.714285714286,5,2,1,35,0,0
65946,-285.714285714286,5,2,1,30,0,0
66190,-285.714285714286,5,2,1,25,0,0
66435,-285.714285714286,5,2,1,35,0,0
66679,-285.714285714286,5,2,1,30,0,0
66923,-285.714285714286,5,2,1,35,0,0
67166,-285.714285714286,5,2,1,30,0,0
67410,-285.714285714286,5,2,1,25,0,0
67654,-285.714285714286,5,2,1,35,0,0
67898,-285.714285714286,5,2,1,30,0,0
68142,-285.714285714286,5,2,1,35,0,0
68385,-285.714285714286,5,2,1,30,0,0
68629,-285.714285714286,5,2,1,25,0,0
68874,-285.714285714286,5,2,1,35,0,0
69118,-285.714285714286,5,2,1,30,0,0
69362,-285.714285714286,5,2,1,35,0,0
69605,-285.714285714286,5,2,1,30,0,0
69849,-285.714285714286,5,2,1,25,0,0
70093,-285.714285714286,5,2,1,35,0,0
70337,-285.714285714286,5,2,1,30,0,0
70581,-285.714285714286,5,2,1,35,0,0
70824,-285.714285714286,5,2,1,30,0,0
71068,-285.714285714286,5,2,1,25,0,0
71313,-285.714285714286,5,2,1,35,0,0
71557,-285.714285714286,5,2,1,30,0,0
71801,-285.714285714286,5,2,1,35,0,0
72044,-285.714285714286,5,2,1,30,0,0
72288,-285.714285714286,5,2,1,25,0,0
72532,-285.714285714286,5,2,1,35,0,0
72776,-285.714285714286,5,2,1,30,0,0
73020,-285.714285714286,5,2,1,35,0,0
73263,-285.714285714286,5,2,1,30,0,0
73507,-285.714285714286,5,2,1,25,0,0
73752,-133.333333333333,5,2,1,50,0,0
73995,-133.333333333333,5,2,1,25,0,0
74240,-133.333333333333,5,2,1,45,0,0
74727,-133.333333333333,5,2,1,23,0,0
74971,-200,5,2,1,35,0,0
75214,-200,5,2,1,17,0,0
75459,-133.333333333333,5,2,1,45,0,0
75946,-133.333333333333,5,2,1,23,0,0
76191,-133.333333333333,5,2,1,50,0,0
76435,-133.333333333333,5,2,1,25,0,0
76679,-133.333333333333,5,2,1,45,0,0
77166,-133.333333333333,5,2,1,23,0,0
77410,-200,5,2,1,40,0,0
77653,-200,5,2,1,20,0,0
77898,-200,5,2,1,45,0,0
78142,-200,5,2,1,40,0,0
78386,-200,5,2,1,35,0,0
78630,-133.333333333333,5,2,1,40,0,0
78873,-133.333333333333,5,2,1,20,0,0
79118,-133.333333333333,5,2,1,45,0,0
79605,-133.333333333333,5,2,1,23,0,0
79849,-200,5,2,1,35,0,0
80092,-200,5,2,1,17,0,0
80337,-133.333333333333,5,2,1,45,0,0
80824,-133.333333333333,5,2,1,23,0,0
81069,-133.333333333333,5,2,1,35,0,0
81313,-133.333333333333,5,2,1,40,0,0
81557,-133.333333333333,5,2,1,45,0,0
82044,-133.333333333333,5,2,1,23,0,0
82288,-200,5,2,1,40,0,0
82531,-200,5,2,1,20,0,0
82776,-133.333333333333,5,2,1,45,0,0
83263,-133.333333333333,5,2,1,23,0,0
83508,-133.333333333333,5,2,1,45,0,0
83751,-133.333333333333,5,2,1,23,0,0
83996,-100,5,2,1,50,0,0
84483,-100,5,2,1,25,0,0
84727,-100,5,2,1,45,0,0
84971,-100,5,2,1,23,0,0
85215,-133.333333333333,5,2,1,45,0,0
85702,-133.333333333333,5,2,1,23,0,0
85947,-133.333333333333,5,2,1,45,0,0
86190,-133.333333333333,5,2,1,23,0,0
86435,-100,5,2,1,45,0,0
86922,-100,5,2,1,23,0,0
87166,-100,5,2,1,45,0,0
87409,-100,5,2,1,23,0,0
87654,-80,5,2,1,50,0,0
88141,-80,5,2,1,25,0,0
88386,-74.0740740740741,5,2,1,55,0,0
88629,-74.0740740740741,5,2,1,27,0,0
88874,-80,5,2,1,50,0,0
89361,-80,5,2,1,25,0,0
89605,-80,5,2,1,45,0,0
89849,-80,5,2,1,23,0,0
90093,-133.333333333333,5,2,1,45,0,0
90580,-133.333333333333,5,2,1,23,0,0
90825,-133.333333333333,5,2,1,40,0,0
91069,-133.333333333333,5,2,1,20,0,0
91313,-200,5,2,1,40,0,0
91800,-200,5,2,1,20,0,0
92044,-200,5,2,1,35,0,0
92288,-200,5,2,1,17,0,0
92560,512.820512820512,5,2,1,55,1,0
92818,659.340659340658,5,2,1,35,1,0
93148,828.729281767956,5,2,1,45,1,0
93148,-1000,5,2,1,45,0,0
93770,487.80487804878,5,2,1,15,1,0
93863,487.80487804878,5,2,1,20,1,0
93997,487.80487804878,5,2,1,25,1,0
94130,487.80487804878,5,2,1,30,1,0
94265,487.80487804878,5,2,1,35,1,0
94653,487.80487804878,5,2,1,35,1,1
94896,-100,5,2,1,17,0,1
95018,-100,5,2,1,40,0,1
95139,-100,5,2,1,20,0,1
95384,-100,5,2,1,35,0,1
95628,-100,5,2,1,30,0,1
95872,-100,5,2,1,40,0,1
96116,-100,5,2,1,35,0,1
96360,-100,5,2,1,30,0,1
96604,-133.333333333333,5,2,1,35,0,1
96847,-133.333333333333,5,2,1,25,0,1
97092,-133.333333333333,5,2,1,30,0,1
97335,-100,5,2,1,35,0,1
97578,-100,5,2,1,17,0,1
97822,-100,5,2,1,25,0,1
97945,-100,5,2,1,30,0,1
98067,-100,5,2,1,35,0,1
98311,-100,5,2,1,25,0,1
98555,-100,5,2,1,30,0,1
98799,-100,5,2,1,25,0,1
99043,-100,5,2,1,35,0,1
99287,-100,5,2,1,17,0,1
99531,-133.333333333333,5,2,1,35,0,1
99774,-133.333333333333,5,2,1,23,0,1
99896,-133.333333333333,5,2,1,26,0,1
100018,-133.333333333333,5,2,1,29,0,1
100140,-133.333333333333,5,2,1,32,0,1
100262,-133.333333333333,5,2,1,35,0,1
100506,-133.333333333333,5,2,1,25,0,1
100750,-100,5,2,1,35,0,1
101075,-100,5,2,1,35,0,1
101157,-100,5,2,1,30,0,1
101238,-100,5,2,1,25,0,1
101482,-100,5,2,1,30,0,1
101726,-100,5,2,1,25,0,1
101970,-200,5,2,1,30,0,1
102213,-200,5,2,1,25,0,1
102457,-200,5,2,1,20,0,1
102701,-285.714285714286,5,2,1,30,0,1
102944,-285.714285714286,5,2,1,25,0,1
103189,-133.333333333333,5,2,1,35,0,1
103432,-133.333333333333,5,2,1,30,0,1
103676,-133.333333333333,5,2,1,25,0,1
103921,-200,5,2,1,35,0,1
104164,-200,5,2,1,30,0,1
104287,-200,5,2,1,35,0,1
104409,-71.4285714285714,5,2,1,45,0,1
104896,-71.4285714285714,5,2,1,23,0,1
105140,-71.4285714285714,5,2,1,40,0,1
105384,-71.4285714285714,5,2,1,30,0,1
105628,-71.4285714285714,5,2,1,35,0,1
105872,-100,5,2,1,40,0,1
106115,-100,5,2,1,35,0,1
106360,-100,5,2,1,40,0,1
106604,-100,5,2,1,20,0,1
106848,-100,5,2,1,40,0,1
107091,-100,5,2,1,35,0,1
107335,-100,5,2,1,30,0,1
107579,-100,5,2,1,35,0,1
107701,-100,5,2,1,30,0,1
107823,-100,5,2,1,40,0,1
107945,-100,5,2,1,35,0,1
108067,-100,5,2,1,45,0,1
108189,-100,5,2,1,40,0,1
108311,-80,5,2,1,35,0,1
108554,-80,5,2,1,30,0,1
108799,-74.0740740740741,5,2,1,50,0,1
109042,-74.0740740740741,5,2,1,35,0,1
109287,-80,5,2,1,45,0,1
109774,-80,5,2,1,23,0,1
110018,-80,5,2,1,30,0,1
110262,-80,5,2,1,35,0,1
110506,-133.333333333333,5,2,1,40,0,1
110993,-133.333333333333,5,2,1,20,0,1
111238,-133.333333333333,5,2,1,45,0,1
111481,-133.333333333333,5,2,1,23,0,1
111726,528.634361233479,5,2,1,50,1,0
111726,-200,5,2,1,50,0,0
111990,530.973451327433,5,2,1,50,1,0
112255,487.80487804878,5,2,1,25,1,0
112381,487.80487804878,5,2,1,45,1,0
112564,585.365853658535,5,2,1,40,1,0
112564,-285.714285714286,5,2,1,40,0,0
112857,487.80487804878,5,2,1,20,1,0
113344,-100,5,2,1,50,0,0
113665,789.473684210525,5,2,1,25,1,0
114061,487.80487804878,5,2,1,35,1,0
114061,-1000,5,2,1,35,0,0
114182,-1000,5,2,1,5,0,0

[Colours]
Combo1 : 193,193,193
Combo2 : 171,223,254
Combo3 : 234,200,162
Combo4 : 85,160,253
Combo5 : 217,164,111
Combo6 : 216,216,216

[HitObjects]
0,0,187,70,0,P|-1:-7|-5:-23,1,24,2|0,2:0|2:0,2:0:0:0:
1,6,2138,22,0,P|46:10|127:21,1,120,4|0,2:0|2:0,2:0:0:0:
117,75,2869,2,0,P|148:44|192:46,1,90.0000000000002,2|0,2:0|2:0,2:0:0:0:
280,0,3601,5,2,2:0:0:0:
288,33,3845,1,0,2:0:0:0:
259,14,4089,1,0,2:0:0:0:
337,14,4333,37,0,2:0:0:0:
329,47,4577,1,0,2:0:0:0:
309,18,4821,1,0,2:0:0:0:
389,32,5065,21,0,2:0:0:0:
414,31,5308,1,0,2:0:0:0:
411,37,5552,1,0,2:0:0:0:
391,26,5796,1,0,2:0:0:0:
512,9,6040,6,0,P|486:60|405:60,1,120,2|0,2:0|2:0,2:0:0:0:
379,41,6772,2,0,P|330:29|284:22,1,90.0000000000002,2|0,2:0|2:0,2:0:0:0:
193,0,7504,37,2,2:0:0:0:
196,32,7747,1,0,2:0:0:0:
211,5,7991,1,0,2:0:0:0:
134,6,8235,21,0,2:0:0:0:
153,35,8479,1,0,2:0:0:0:
162,2,8723,1,0,2:0:0:0:
80,0,8967,5,2,2:0:0:0:
60,50,9211,1,0,2:0:0:0:
24,66,9455,1,0,2:0:0:0:
0,57,9699,1,0,2:0:0:0:
4,52,9943,38,0,P|54:58|131:77,1,120,2|0,2:0|2:0,2:0:0:0:
135,16,10674,2,0,P|196:22|225:29,1,90.0000000000002,2|0,2:0|2:0,2:0:0:0:
302,0,11406,21,2,2:0:0:0:
319,32,11650,1,0,2:0:0:0:
282,20,11894,1,0,2:0:0:0:
361,5,12138,5,0,2:0:0:0:
368,38,12382,1,0,2:0:0:0:
341,20,12626,1,0,2:0:0:0:
413,68,12869,37,0,2:0:0:0:
436,58,13113,1,0,2:0:0:0:
437,63,13357,1,0,2:0:0:0:
411,63,13601,1,0,2:0:0:0:
449,0,13845,22,0,P|474:53|534:67,1,120,2|0,2:0|2:0,2:0:0:0:
512,8,14577,2,0,P|466:24|425:33,1,90.0000034332277,2|0,2:0|2:0,2:0:0:0:
364,44,15308,5,2,2:0:0:0:
325,36,15552,1,0,2:0:0:0:
310,107,15796,37,0,2:0:0:0:
260,99,16068,5,0,2:0:0:0:
221,139,16380,70,0,P|212:135|205:133,1,18,0|0,2:0|2:0,2:0:0:0:
275,45,17363,22,0,P|206:23|196:-31,1,120,4|0,2:0|2:0,2:0:0:0:
220,60,18094,2,0,P|179:42|135:26,1,90.0000034332277,2|0,2:0|2:0,2:0:0:0:
42,0,18826,5,2,2:0:0:0:
51,30,19070,1,0,2:0:0:0:
76,10,19314,1,0,2:0:0:0:
6,113,19558,38,0,P|5:88|1:65,1,41.9999987182618,2|0,2:0|2:0,2:0:0:0:
0,138,20289,2,0,P|12:93|29:52,1,90,2|0,2:0|2:0,2:0:0:0:
127,3,21265,22,0,P|149:61|213:68,1,120,2|0,2:0|2:0,2:0:0:0:
213,12,21997,2,0,P|256:23|301:30,1,90.0000000000002,2|0,2:0|2:0,2:0:0:0:
304,36,22728,5,2,2:0:0:0:
370,0,22972,2,0,P|376:42|387:84,1,60,2|0,2:0|2:0,2:0:0:0:
398,138,23460,38,0,P|393:123|390:108,1,30,2|0,2:0|2:0,2:0:0:0:
474,44,24192,2,0,P|463:46|453:48,1,21,2|0,2:0|2:0,2:0:0:0:
448,46,24680,2,0,P|462:46|477:47,1,30,2|0,2:0|2:0,2:0:0:0:
512,3,25167,22,0,P|463:25|394:44,1,120,2|0,2:0|2:0,2:0:0:0:
388,104,25899,2,0,P|345:91|325:52,1,90.0000000000002,2|0,2:0|2:0,2:0:0:0:
234,0,26631,5,4,2:0:0:0:
228,36,26875,1,0,2:0:0:0:
256,34,27119,1,0,2:0:0:0:
205,111,27362,38,0,P|186:104|163:99,1,42,2|0,2:0|2:0,2:0:0:0:
136,54,28094,2,0,P|122:52|106:51,1,30,2|0,2:0|2:0,2:0:0:0:
64,0,28582,2,0,P|30:1|-2:7,1,67.5000000000002,2|0,2:0|2:0,2:0:0:0:
0,3,29070,22,0,P|63:28|80:92,1,120,2|0,2:0|2:0,2:0:0:0:
187,48,29802,2,0,P|119:38|73:85,1,120,2|0,2:0|2:0,2:0:0:0:
218,4,30533,5,4,2:0:0:0:
238,35,30777,1,0,2:0:0:0:
287,51,31050,37,0,2:0:0:0:
346,45,31339,5,0,2:0:0:0:
420,21,31653,69,0,2:0:0:0:
512,0,32352,6,0,P|512:-3|515:-11,1,12.046,2|0,2:0|2:0,2:0:0:0:
510,5,33432,38,0,B|470:25|414:-17|471:-69|529:-6|461:50|414:41,1,180,4|0,2:0|2:0,2:0:0:0:
311,0,34163,2,0,P|305:45|296:88,1,90,2|0,2:0|2:0,2:0:0:0:
299,94,34651,1,0,2:0:0:0:
148,26,34895,6,0,B|132:17|145:-9|229:13|188:66|272:92|290:73|297:55|277:54,1,180,2|0,2:0|2:0,2:0:0:0:
276,50,35627,5,0,2:0:0:0:
220,23,35871,1,0,2:0:0:0:
190,70,36114,1,0,2:0:0:0:
141,80,36358,1,2,2:0:0:0:
134,81,36480,1,2,2:0:0:0:
127,80,36602,1,2,2:0:0:0:
67,123,36846,54,0,P|58:109|47:78,1,45,2|0,2:0|2:0,2:0:0:0:
0,68,37334,6,0,B|31:68|49:46|65:13|49:46|42:105|125:136,1,180,4|0,2:0|2:0,2:0:0:0:
195,68,38066,2,0,P|237:63|311:59,1,90,2|0,2:0|2:0,2:0:0:0:
290,65,38553,1,0,2:0:0:0:
476,0,38797,5,2,2:0:0:0:
512,37,39041,2,0,B|460:-3|396:4|350:65|391:127|427:106|426:75,1,210,2|0,2:0|2:0,2:0:0:0:
511,43,39773,53,0,2:0:0:0:
451,44,40017,1,0,2:0:0:0:
408,19,40261,1,2,2:0:0:0:
403,16,40383,1,2,2:0:0:0:
397,14,40505,1,2,2:0:0:0:
328,0,40749,6,0,P|326:16|322:38,1,31.5,2|0,2:0|2:0,2:0:0:0:
281,60,41236,6,0,B|331:-10|363:54|335:80|248:62|222:-6,1,180,4|0,2:0|2:0,2:0:0:0:
149,84,41968,2,0,P|139:41|127:-2,1,90,2|0,2:0|2:0,2:0:0:0:
124,4,42456,1,0,2:0:0:0:
129,138,42700,54,0,B|212:145|205:61|286:66,1,180,2|0,2:0|2:0,2:0:0:0:
290,71,43431,5,0,2:0:0:0:
254,107,43675,1,0,2:0:0:0:
200,103,43919,1,0,2:0:0:0:
145,79,44163,6,0,P|130:75|117:74,1,21,2|0,2:0|2:0,2:0:0:0:
71,32,44651,54,0,P|45:33|23:38,1,45,2|0,2:0|2:0,2:0:0:0:
12,86,45139,6,0,B|25:116|-18:108|-24:80|-43:-29|58:-58|116:-39|122:38|75:43,2,270,4|2|2,2:0|2:0|2:0,2:0:0:0:
82,47,46846,1,0,2:0:0:0:
151,88,47090,5,0,2:0:0:0:
184,50,47334,1,0,2:0:0:0:
233,25,47578,1,0,2:0:0:0:
296,15,47822,1,0,2:0:0:0:
346,23,48066,6,0,P|360:11|377:-4,1,30,2|0,2:0|2:0,2:0:0:0:
387,73,48553,2,0,P|420:61|463:40,1,67.5000000000002,2|0,2:0|2:0,2:0:0:0:
512,22,49041,6,0,B|520:39|484:49|454:24|465:-8|472:-14,2,90,4|2|2,2:0|2:0|2:0,2:0:0:0:
474,38,50749,1,0,2:0:0:0:
496,3,50992,1,0,2:0:0:0:
512,125,51236,6,0,P|490:123|466:118,1,41.9999987182618,2|0,2:0|2:0,2:0:0:0:
448,139,51968,2,0,P|496:128|540:121,1,90,2|0,2:0|2:0,2:0:0:0:
417,72,52944,38,0,P|360:60|336:6,1,120,2|0,2:0|2:0,2:0:0:0:
287,56,53675,2,0,P|239:67|195:74,1,90.0000000000002,2|0,2:0|2:0,2:0:0:0:
48,0,54407,21,2,2:0:0:0:
0,17,54651,2,0,P|5:50|9:81,1,60,2|0,2:0|2:0,2:0:0:0:
104,138,55139,6,0,P|110:123|116:106,1,30,2|0,2:0|2:0,2:0:0:0:
61,92,55871,2,0,P|58:102|55:112,1,21,2|0,2:0|2:0,2:0:0:0:
56,116,56358,2,0,P|56:101|59:86,1,30,2|0,2:0|2:0,2:0:0:0:
2,21,56846,38,0,P|66:33|134:42,1,120,2|0,2:0|2:0,2:0:0:0:
168,0,57578,2,0,P|198:39|246:44,1,90.0000000000002,2|0,2:0|2:0,2:0:0:0:
339,3,58310,21,2,2:0:0:0:
346,39,58553,1,0,2:0:0:0:
317,17,58797,1,0,2:0:0:0:
410,97,59041,6,0,P|408:118|404:139,1,42,2|0,2:0|2:0,2:0:0:0:
459,71,59773,2,0,P|461:86|462:101,1,30,2|0,2:0|2:0,2:0:0:0:
507,6,60261,2,0,P|518:37|526:69,1,67.5000000000002,2|0,2:0|2:0,2:0:0:0:
456,78,60749,38,0,P|396:33|393:-11,1,120,2|0,2:0|2:0,2:0:0:0:
503,10,61480,2,0,P|454:-24|392:-9,1,120,2|0,2:0|2:0,2:0:0:0:
324,67,62212,21,4,2:0:0:0:
294,46,62456,1,0,2:0:0:0:
247,26,62700,1,0,2:0:0:0:
185,11,62944,1,0,2:0:0:0:
105,2,63188,1,0,2:0:0:0:
0,0,63503,53,2,2:0:0:0:
9,362,64484,2,0,P|6:352|4:342,2,21,2|0|0,2:0|2:0|2:0,2:0:0:0:
7,337,65215,1,0,2:0:0:0:
0,367,65459,1,0,2:0:0:0:
59,384,65703,2,0,P|62:373|65:360,2,21,2|0|0,2:0|2:0|2:0,2:0:0:0:
61,359,66435,1,0,2:0:0:0:
68,382,66679,1,0,2:0:0:0:
118,366,66923,2,0,P|132:363|142:362,2,21,2|0|0,2:0|2:0|2:0,2:0:0:0:
145,355,67654,1,0,2:0:0:0:
119,370,67898,1,0,2:0:0:0:
206,323,68142,2,0,P|196:320|186:320,2,21,2|0|0,2:0|2:0|2:0,2:0:0:0:
178,312,68874,1,0,2:0:0:0:
208,329,69118,1,0,2:0:0:0:
132,337,69362,2,0,P|127:325|118:311,2,21,2|0|0,2:0|2:0|2:0,2:0:0:0:
126,313,70093,1,0,2:0:0:0:
139,344,70337,1,0,2:0:0:0:
79,361,70581,2,0,P|77:350|72:333,2,21,2|0|0,2:0|2:0|2:0,2:0:0:0:
69,332,71313,1,0,2:0:0:0:
83,365,71557,1,0,2:0:0:0:
16,349,71801,2,0,P|18:338|19:324,2,21,2|0|0,2:0|2:0|2:0,2:0:0:0:
11,318,72532,1,0,2:0:0:0:
21,350,72776,1,0,2:0:0:0:
0,402,73020,2,0,P|-13:393|-21:389,2,21,2|0|0,2:0|2:0|2:0,2:0:0:0:
79,278,73752,6,0,P|72:299|66:321,1,45.0000000000001,2|0,2:0|2:0,2:0:0:0:
148,290,74240,2,0,P|106:306|66:327,1,90.0000000000002,4|0,2:0|2:0,2:0:0:0:
173,336,74971,2,0,P|164:347|155:359,1,30,2|0,2:0|2:0,2:0:0:0:
194,308,75459,2,0,P|189:353|187:397,1,90.0000000000002,2|0,2:0|2:0,2:0:0:0:
235,278,76191,1,2,2:0:0:0:
198,312,76435,1,0,2:0:0:0:
131,294,76679,2,0,P|106:334|55:341,1,90.0000000000002,2|0,2:0|2:0,2:0:0:0:
0,327,77410,2,0,P|-9:314|-20:305,1,30,2|0,2:0|2:0,2:0:0:0:
60,365,77898,1,2,2:0:0:0:
62,343,78142,1,0,2:0:0:0:
55,364,78386,1,0,2:0:0:0:
1,278,78630,2,0,P|1:300|3:323,1,45.0000000000001,2|0,2:0|2:0,2:0:0:0:
77,293,79118,2,0,P|102:333|153:340,1,90.0000000000002,2|0,2:0|2:0,2:0:0:0:
173,384,79849,2,0,P|187:378|202:375,1,30,2|0,2:0|2:0,2:0:0:0:
185,298,80337,2,0,P|176:342|169:387,1,90.0000000000002,2|0,2:0|2:0,2:0:0:0:
235,254,81069,69,2,2:0:0:0:
169,248,81313,1,2,2:0:0:0:
136,286,81557,2,0,P|95:300|46:312,1,90.0000000000002,2|0,2:0|2:0,2:0:0:0:
123,347,82288,2,0,P|113:358|100:369,1,30,2|0,2:0|2:0,2:0:0:0:
0,297,82776,2,0,P|45:291|68:254,1,90.0000000000002,2|0,2:0|2:0,2:0:0:0:
119,350,83508,2,0,P|98:358|76:364,1,45.0000000000001,2|0,2:0|2:0,2:0:0:0:
10,249,83996,6,0,P|22:326|27:376,1,120,4|0,2:0|2:0,2:0:0:0:
16,247,84727,1,2,2:0:0:0:
46,309,84971,1,0,2:0:0:0:
136,288,85215,2,0,P|181:294|204:331,1,90.0000000000002,2|0,2:0|2:0,2:0:0:0:
91,391,85947,2,0,P|90:369|92:347,1,45.0000000000001,2|0,2:0|2:0,2:0:0:0:
75,266,86435,2,0,P|86:334|92:394,1,120,2|0,2:0|2:0,2:0:0:0:
140,283,87166,2,0,P|145:313|149:345,1,60,2|0,2:0|2:0,2:0:0:0:
0,286,87654,70,0,B|53:288|84:336|71:368|32:373|30:327|100:319,1,150,2|0,2:0|2:0,2:0:0:0:
157,246,88386,2,0,P|151:281|147:334,1,81,2|0,2:0|2:0,2:0:0:0:
235,266,88874,2,0,B|157:313|116:304|99:283|104:269,1,150,4|0,2:0|2:0,2:0:0:0:
227,335,89605,1,2,2:0:0:0:
219,313,89849,1,0,2:0:0:0:
214,384,90093,2,0,P|177:359|140:327,1,90.0000000000002,2|0,2:0|2:0,2:0:0:0:
85,332,90825,1,2,2:0:0:0:
81,322,91069,1,0,2:0:0:0:
66,391,91313,2,0,P|58:361|51:324,1,60,2|0,2:0|2:0,2:0:0:0:
2,316,92044,1,2,2:0:0:0:
1,310,92288,1,0,2:0:0:0:
0,402,92560,5,4,2:0:0:0:
115,374,92818,69,0,2:0:0:0:
229,381,93148,6,0,P|231:385|234:388,1,9.01448,2|0,2:0|2:0,2:0:0:0:
250,394,93863,5,0,2:0:0:0:
267,386,93997,5,2,2:0:0:0:
276,359,94130,5,2,2:0:0:0:
256,326,94265,5,2,2:0:0:0:
507,335,94653,70,0,B|498:324|481:323|472:350|481:367,1,60,2|0,2:0|2:0,2:0:0:0:
482,372,95018,2,0,P|475:357|466:345,1,30,2|0,2:0|2:0,2:0:0:0:
416,337,95384,1,0,2:0:0:0:
384,347,95628,1,0,2:0:0:0:
277,310,95872,1,2,2:0:0:0:
296,357,96116,1,0,2:0:0:0:
335,368,96360,1,0,2:0:0:0:
354,361,96604,2,0,P|379:354|397:353,1,45.0000000000001,2|0,2:0|2:0,2:0:0:0:
401,356,97092,1,0,2:0:0:0:
510,325,97335,2,0,P|530:316|513:329,2,60,2|0|0,2:0|2:0|2:0,2:0:0:0:
510,331,97945,1,2,2:0:0:0:
509,335,98067,1,2,2:0:0:0:
481,398,98311,1,0,2:0:0:0:
471,367,98555,1,0,2:0:0:0:
448,391,98799,1,0,2:0:0:0:
325,315,99043,1,2,2:0:0:0:
314,354,99287,1,0,2:0:0:0:
277,318,99531,2,0,P|301:315|337:306,1,45.0000017166138,2|0,2:0|2:0,2:0:0:0:
351,294,99896,1,0,2:0:0:0:
356,292,100018,1,0,2:0:0:0:
363,297,100140,1,0,2:0:0:0:
362,307,100262,1,2,2:0:0:0:
410,327,100506,1,0,2:0:0:0:
512,278,100750,2,0,B|487:285|479:338|504:326|495:316,1,60,2|0,2:0|2:0,2:0:0:0:
500,323,101075,1,2,2:0:0:0:
502,326,101157,1,2,2:0:0:0:
500,329,101238,1,2,2:0:0:0:
482,377,101482,1,0,2:0:0:0:
450,388,101726,1,0,2:0:0:0:
439,385,101970,2,0,P|426:382|407:379,2,30,2|0|0,2:0|2:0|2:0,2:0:0:0:
414,385,102701,2,0,P|423:381|434:378,1,21,2|0,2:0|2:0,2:0:0:0:
382,324,103189,2,0,P|357:320|322:318,2,45.0000000000001,2|0|0,2:0|2:0|2:0,2:0:0:0:
345,323,103921,2,0,P|364:318|387:317,1,30,2|0,2:0|2:0,2:0:0:0:
404,252,104287,1,2,2:0:0:0:
400,247,104409,2,0,B|354:231|314:331|296:348|257:319|287:310,1,168,4|0,2:0|2:0,2:0:0:0:
278,249,105140,1,2,2:0:0:0:
321,277,105384,1,0,2:0:0:0:
470,275,105628,1,2,2:0:0:0:
512,246,105872,2,0,P|507:276|506:315,1,60,2|0,2:0|2:0,2:0:0:0:
508,392,106360,1,2,2:0:0:0:
505,380,106604,1,0,2:0:0:0:
420,274,106848,2,0,P|440:296|462:324,1,60,2|0,2:0|2:0,2:0:0:0:
501,387,107335,1,0,2:0:0:0:
451,380,107579,1,2,2:0:0:0:
449,387,107701,1,0,2:0:0:0:
428,361,107823,1,2,2:0:0:0:
414,374,107945,1,0,2:0:0:0:
395,323,108067,1,2,2:0:0:0:
388,343,108189,1,2,2:0:0:0:
391,347,108311,2,0,B|396:325|381:287|353:285|362:303,1,75,2|0,2:0|2:0,2:0:0:0:
477,246,108799,2,0,P|470:283|464:331,1,81,2|0,2:0|2:0,2:0:0:0:
296,353,109287,2,0,B|342:359|371:279|421:278,1,150,4|0,2:0|2:0,2:0:0:0:
467,331,110018,1,0,2:0:0:0:
495,314,110262,1,2,2:0:0:0:
486,386,110506,2,0,P|450:360|415:332,1,90.0000000000002,2|0,2:0|2:0,2:0:0:0:
360,248,111238,2,0,P|365:271|378:308,1,45.0000000000001,2|0,2:0|2:0,2:0:0:0:
277,302,111726,2,0,P|303:315|329:330,1,60.1135,2|0,2:0|2:0,2:0:0:0:
334,328,112381,1,2,2:0:0:0:
313,264,112564,2,0,P|307:255|302:247,1,21.0748993591309,2|0,2:0|2:0,2:0:0:0:
277,384,113344,21,4,2:0:0:0:
380,368,113665,5,0,2:0:0:0:
512,402,114061,70,0,P|523:395|534:391,1,24,2|0,2:0|2:0,2:0:0:0:
