osu file format v14

[General]
AudioFilename: audio.mp3
AudioLeadIn: 0
PreviewTime: 32309
Countdown: 0
SampleSet: Soft
StackLeniency: 0
Mode: 0
LetterboxInBreaks: 0
WidescreenStoryboard: 1

[Editor]
Bookmarks: 2138,33432,49041,64484,94653,114061
DistanceSpacing: 1.1
BeatDivisor: 4
GridSize: 32
TimelineZoom: 2.18

[Metadata]
Title:Onaji Takami e
TitleUnicode:同じ高みへ
Artist:Maeda Jun
ArtistUnicode:麻枝准
Creator:kodama
Version:Hard
Source:CLANNAD
Tags:visual novel vn video game key to the same heights クラナド bgm background music ost original soundtrack deppyforce instrumental orchestral piano classical furukawa nagisa 古河渚 okazaki ushio 岡崎汐 toki o wo kizamu uta 時を刻む唄
BeatmapID:3590516
BeatmapSetID:1670295

[Difficulty]
HPDrainRate:3
CircleSize:6
OverallDifficulty:6
ApproachRate:6
SliderMultiplier:1.05
SliderTickRate:1

[Events]
//Background and Video events
0,0,"clannad.jpg",0,0
//Break Periods
//Storyboard Layer 0 (Background)
//Storyboard Layer 1 (Fail)
//Storyboard Layer 2 (Pass)
//Storyboard Layer 3 (Foreground)
//Storyboard Layer 4 (Overlay)
//Storyboard Sound Samples

[TimingPoints]
187,487.80487804878,4,2,1,35,1,0
187,-400,4,2,1,35,0,0
308,-400,4,2,1,5,0,0
1162,-400,4,2,1,25,0,0
2138,-100,4,2,1,55,0,0
2625,-100,4,2,1,27,0,0
2869,-100,4,2,1,45,0,0
3356,-100,4,2,1,23,0,0
3601,-100,4,2,1,55,0,0
4088,-100,4,2,1,35,0,0
4333,-153.846153846154,4,2,1,45,0,0
4577,-153.846153846154,4,2,1,40,0,0
4821,-153.846153846154,4,2,1,35,0,0
5065,-153.846153846154,4,2,1,45,0,0
5308,-153.846153846154,4,2,1,40,0,0
5552,-153.846153846154,4,2,1,35,0,0
5796,-153.846153846154,4,2,1,40,0,0
6040,-100,4,2,1,55,0,0
6527,-100,4,2,1,27,0,0
6772,-100,4,2,1,45,0,0
7259,-100,4,2,1,23,0,0
7504,-100,4,2,1,55,0,0
7991,-100,4,2,1,35,0,0
8235,-153.846153846154,4,2,1,45,0,0
8479,-153.846153846154,4,2,1,40,0,0
8723,-153.846153846154,4,2,1,35,0,0
8967,-153.846153846154,4,2,1,45,0,0
9211,-153.846153846154,4,2,1,40,0,0
9455,-153.846153846154,4,2,1,35,0,0
9699,-153.846153846154,4,2,1,30,0,0
9943,-100,4,2,1,55,0,0
10430,-100,4,2,1,27,0,0
10674,-100,4,2,1,45,0,0
11161,-100,4,2,1,23,0,0
11406,-100,4,2,1,55,0,0
11893,-100,4,2,1,35,0,0
12138,-153.846153846154,4,2,1,45,0,0
12382,-153.846153846154,4,2,1,40,0,0
12626,-153.846153846154,4,2,1,35,0,0
12869,-153.846153846154,4,2,1,45,0,0
13113,-153.846153846154,4,2,1,40,0,0
13357,-153.846153846154,4,2,1,35,0,0
13601,-153.846153846154,4,2,1,40,0,0
13845,-100,4,2,1,55,0,0
14332,-100,4,2,1,27,0,0
14577,-100,4,2,1,45,0,0
15064,-100,4,2,1,23,0,0
15308,-100,4,2,1,55,0,0
15551,-100,4,2,1,45,0,0
15796,-100,4,2,1,35,0,0
16068,624.999999999999,4,2,1,45,1,0
16380,487.80487804878,4,2,1,30,1,0
16380,-400,4,2,1,30,0,0
16501,-400,4,2,1,5,0,0
17363,487.80487804878,4,2,1,55,1,0
17363,-100,4,2,1,55,0,0
17850,-100,4,2,1,27,0,0
18094,-100,4,2,1,45,0,0
18581,-100,4,2,1,23,0,0
18826,-100,4,2,1,55,0,0
19313,-100,4,2,1,35,0,0
19558,-153.846153846154,4,2,1,45,0,0
20045,-153.846153846154,4,2,1,23,0,0
20289,-153.846153846154,4,2,1,50,0,0
20411,-153.846153846154,4,2,1,5,0,0
21020,-153.846153846154,4,2,1,25,0,0
21265,-100,4,2,1,55,0,0
21752,-100,4,2,1,27,0,0
21997,-100,4,2,1,45,0,0
22484,-100,4,2,1,23,0,0
22728,-100,4,2,1,50,0,0
22972,-100,4,2,1,55,0,0
23215,-100,4,2,1,27,0,0
23460,-153.846153846154,4,2,1,55,0,0
23947,-153.846153846154,4,2,1,27,0,0
24192,-153.846153846154,4,2,1,45,0,0
24435,-153.846153846154,4,2,1,23,0,0
24680,-153.846153846154,4,2,1,50,0,0
24923,-153.846153846154,4,2,1,25,0,0
25167,-100,4,2,1,55,0,0
25654,-100,4,2,1,27,0,0
25899,-100,4,2,1,45,0,0
26386,-100,4,2,1,23,0,0
26631,-100,4,2,1,55,0,0
27118,-100,4,2,1,35,0,0
27362,-153.846153846154,4,2,1,40,0,0
27849,-153.846153846154,4,2,1,20,0,0
28094,-100,4,2,1,45,0,0
28337,-100,4,2,1,23,0,0
28582,-100,4,2,1,50,0,0
28947,-100,4,2,1,5,0,0
29070,-100,4,2,1,55,0,0
29557,-100,4,2,1,27,0,0
29802,-100,4,2,1,55,0,0
30289,-100,4,2,1,27,0,0
30533,-100,4,2,1,65,0,0
31050,582.524271844659,4,2,1,45,1,0
31339,624.999999999999,4,2,1,35,1,0
31653,697.674418604651,4,2,1,25,1,0
32352,529.801324503312,4,2,1,40,1,0
32352,-399.1,4,2,1,40,0,0
32887,542.986425339366,4,2,1,50,1,0
33432,487.80487804878,4,2,1,75,1,1
33432,-90.9090909090909,4,2,1,75,0,1
33919,-90.9090909090909,4,2,1,50,0,1
34163,-90.9090909090909,4,2,1,70,0,1
34650,-90.9090909090909,4,2,1,50,0,1
34895,-90.9090909090909,4,2,1,70,0,1
35383,-90.9090909090909,4,2,1,50,0,1
35627,-100,4,2,1,55,0,1
36114,-100,4,2,1,45,0,1
36358,-100,4,2,1,50,0,1
36480,-100,4,2,1,45,0,1
36602,-100,4,2,1,40,0,1
36846,-100,4,2,1,60,0,1
37211,-100,4,2,1,5,0,1
37334,-90.9090909090909,4,2,1,75,0,1
37821,-90.9090909090909,4,2,1,50,0,1
38066,-90.9090909090909,4,2,1,70,0,1
38553,-90.9090909090909,4,2,1,50,0,1
38797,-90.9090909090909,4,2,1,80,0,1
39041,-90.9090909090909,4,2,1,75,0,1
39528,-90.9090909090909,4,2,1,55,0,1
39773,-100,4,2,1,50,0,1
40016,-100,4,2,1,45,0,1
40261,-100,4,2,1,60,0,1
40383,-100,4,2,1,45,0,1
40505,-100,4,2,1,40,0,1
40749,-100,4,2,1,55,0,1
41114,-100,4,2,1,5,0,1
41236,-90.9090909090909,4,2,1,75,0,1
41723,-90.9090909090909,4,2,1,50,0,1
41968,-90.9090909090909,4,2,1,70,0,1
42455,-90.9090909090909,4,2,1,50,0,1
42700,-90.9090909090909,4,2,1,70,0,1
43188,-90.9090909090909,4,2,1,50,0,1
43431,-100,4,2,1,45,0,1
43675,-100,4,2,1,50,0,1
43918,-100,4,2,1,55,0,1
44163,-100,4,2,1,50,0,1
44651,-100,4,2,1,60,0,1
45139,-90.9090909090909,4,2,1,75,0,1
45261,-90.9090909090909,4,2,1,5,0,1
45870,-90.9090909090909,4,2,1,70,0,1
45992,-90.9090909090909,4,2,1,5,0,1
46602,-90.9090909090909,4,2,1,60,0,1
46846,-90.9090909090909,4,2,1,45,0,1
47090,-90.9090909090909,4,2,1,55,0,1
47578,-90.9090909090909,4,2,1,50,0,1
47822,-90.9090909090909,4,2,1,55,0,1
48066,-90.9090909090909,4,2,1,45,0,1
48553,-90.9090909090909,4,2,1,50,0,1
49041,-100,4,2,1,55,0,0
49163,-100,4,2,1,5,0,0
49772,-100,4,2,1,45,0,0
49895,-100,4,2,1,5,0,0
50504,-100,4,2,1,55,0,0
50992,-100,4,2,1,35,0,0
51236,-153.846153846154,4,2,1,50,0,0
51723,-153.846153846154,4,2,1,25,0,0
51968,-153.846153846154,4,2,1,55,0,0
52090,-153.846153846154,4,2,1,5,0,0
52699,-153.846153846154,4,2,1,27,0,0
52944,-100,4,2,1,60,0,0
53431,-100,4,2,1,30,0,0
53675,-100,4,2,1,55,0,0
54162,-100,4,2,1,27,0,0
54407,-100,4,2,1,65,0,0
54651,-100,4,2,1,60,0,0
54894,-100,4,2,1,30,0,0
55139,-153.846153846154,4,2,1,45,0,0
55626,-153.846153846154,4,2,1,23,0,0
55871,-153.846153846154,4,2,1,50,0,0
56114,-153.846153846154,4,2,1,25,0,0
56358,-153.846153846154,4,2,1,55,0,0
56601,-153.846153846154,4,2,1,27,0,0
56846,-100,4,2,1,60,0,0
57333,-100,4,2,1,30,0,0
57578,-100,4,2,1,55,0,0
58065,-100,4,2,1,27,0,0
58310,-100,4,2,1,60,0,0
58797,-100,4,2,1,40,0,0
59041,-153.846153846154,4,2,1,45,0,0
59528,-153.846153846154,4,2,1,23,0,0
59773,-153.846153846154,4,2,1,50,0,0
60016,-153.846153846154,4,2,1,25,0,0
60261,-153.846153846154,4,2,1,55,0,0
60626,-153.846153846154,4,2,1,5,0,0
60749,-100,4,2,1,60,0,0
61236,-100,4,2,1,30,0,0
61480,-100,4,2,1,60,0,0
61967,-100,4,2,1,30,0,0
62212,-100,4,2,1,70,0,0
62700,-100,4,2,1,50,0,0
62944,-100,4,2,1,40,0,0
63188,-100,4,2,1,50,0,0
63503,487.80487804878,4,2,1,55,1,0
64484,487.80487804878,5,2,1,35,1,0
64484,-200,5,2,1,35,0,0
64727,-200,5,2,1,30,0,0
64971,-200,5,2,1,25,0,0
65215,-200,5,2,1,35,0,0
65458,-200,5,2,1,30,0,0
65703,-200,5,2,1,35,0,0
65946,-200,5,2,1,30,0,0
66190,-200,5,2,1,25,0,0
66435,-200,5,2,1,35,0,0
66678,-200,5,2,1,30,0,0
66923,-200,5,2,1,35,0,0
67166,-200,5,2,1,30,0,0
67410,-200,5,2,1,25,0,0
67654,-200,5,2,1,35,0,0
67897,-200,5,2,1,30,0,0
68142,-200,5,2,1,35,0,0
68385,-200,5,2,1,30,0,0
68629,-200,5,2,1,25,0,0
68874,-200,5,2,1,35,0,0
69117,-200,5,2,1,30,0,0
69362,-200,5,2,1,35,0,0
69605,-200,5,2,1,30,0,0
69849,-200,5,2,1,25,0,0
70093,-200,5,2,1,35,0,0
70336,-200,5,2,1,30,0,0
70581,-200,5,2,1,35,0,0
70824,-200,5,2,1,30,0,0
71068,-200,5,2,1,25,0,0
71313,-200,5,2,1,35,0,0
71556,-200,5,2,1,30,0,0
71801,-200,5,2,1,35,0,0
72044,-200,5,2,1,30,0,0
72288,-200,5,2,1,25,0,0
72532,-200,5,2,1,35,0,0
72775,-200,5,2,1,30,0,0
73020,-200,5,2,1,35,0,0
73263,-200,5,2,1,30,0,0
73507,-200,5,2,1,25,0,0
73752,-117.647058823529,5,2,1,50,0,0
74239,-117.647058823529,5,2,1,45,0,0
74971,-133.333333333333,5,2,1,35,0,0
75214,-133.333333333333,5,2,1,17,0,0
75459,-133.333333333333,5,2,1,45,0,0
75946,-133.333333333333,5,2,1,23,0,0
76191,-133.333333333333,5,2,1,50,0,0
76679,-133.333333333333,5,2,1,45,0,0
77166,-133.333333333333,5,2,1,23,0,0
77410,-133.333333333333,5,2,1,40,0,0
77653,-133.333333333333,5,2,1,20,0,0
77898,-133.333333333333,5,2,1,45,0,0
78141,-133.333333333333,5,2,1,40,0,0
78385,-133.333333333333,5,2,1,35,0,0
78630,-133.333333333333,5,2,1,40,0,0
79118,-133.333333333333,5,2,1,45,0,0
79605,-133.333333333333,5,2,1,23,0,0
79849,-133.333333333333,5,2,1,35,0,0
80092,-133.333333333333,5,2,1,17,0,0
80337,-133.333333333333,5,2,1,45,0,0
80824,-133.333333333333,5,2,1,23,0,0
81069,-133.333333333333,5,2,1,35,0,0
81313,-133.333333333333,5,2,1,40,0,0
81557,-117.647058823529,5,2,1,45,0,0
82044,-117.647058823529,5,2,1,23,0,0
82288,-117.647058823529,5,2,1,40,0,0
82776,-117.647058823529,5,2,1,45,0,0
83263,-117.647058823529,5,2,1,23,0,0
83508,-117.647058823529,5,2,1,45,0,0
83996,-117.647058823529,5,2,1,50,0,0
84483,-117.647058823529,5,2,1,25,0,0
84727,-117.647058823529,5,2,1,45,0,0
84971,-117.647058823529,5,2,1,23,0,0
85215,-117.647058823529,5,2,1,45,0,0
85702,-117.647058823529,5,2,1,23,0,0
85947,-117.647058823529,5,2,1,45,0,0
86190,-117.647058823529,5,2,1,23,0,0
86435,-117.647058823529,5,2,1,45,0,0
86922,-117.647058823529,5,2,1,23,0,0
87166,-117.647058823529,5,2,1,45,0,0
87409,-117.647058823529,5,2,1,23,0,0
87654,-100,5,2,1,50,0,0
88141,-100,5,2,1,25,0,0
88386,-100,5,2,1,55,0,0
88629,-100,5,2,1,27,0,0
88874,-100,5,2,1,50,0,0
89361,-100,5,2,1,25,0,0
89605,-100,5,2,1,45,0,0
90093,-133.333333333333,5,2,1,45,0,0
90580,-133.333333333333,5,2,1,23,0,0
90825,-133.333333333333,5,2,1,40,0,0
91313,-153.846153846154,5,2,1,40,0,0
91800,-153.846153846154,5,2,1,20,0,0
92044,-153.846153846154,5,2,1,35,0,0
92560,512.820512820512,5,2,1,55,1,0
92818,659.340659340658,5,2,1,35,1,0
93148,828.729281767956,5,2,1,45,1,0
93148,-340.893895531038,5,2,1,45,0,0
93770,487.80487804878,5,2,1,5,1,0
93863,487.80487804878,5,2,1,5,1,0
93997,487.80487804878,5,2,1,5,1,0
94130,487.80487804878,5,2,1,5,1,0
94265,487.80487804878,5,2,1,35,1,0
94653,487.80487804878,5,2,1,35,1,1
94653,-100,5,2,1,35,0,1
95018,-100,5,2,1,40,0,1
95384,-100,5,2,1,35,0,1
95628,-100,5,2,1,30,0,1
95872,-100,5,2,1,40,0,1
96116,-100,5,2,1,35,0,1
96360,-100,5,2,1,30,0,1
96604,-117.647058823529,5,2,1,35,0,1
96847,-117.647058823529,5,2,1,25,0,1
97092,-117.647058823529,5,2,1,30,0,1
97335,-117.647058823529,5,2,1,35,0,1
97578,-117.647058823529,5,2,1,17,0,1
97822,-117.647058823529,5,2,1,25,0,1
97945,-117.647058823529,5,2,1,30,0,1
98067,-117.647058823529,5,2,1,35,0,1
98311,-117.647058823529,5,2,1,25,0,1
98554,-117.647058823529,5,2,1,30,0,1
98798,-117.647058823529,5,2,1,25,0,1
99043,-117.647058823529,5,2,1,35,0,1
99774,-117.647058823529,5,2,1,23,0,1
99896,-117.647058823529,5,2,1,26,0,1
100018,-117.647058823529,5,2,1,29,0,1
100139,-117.647058823529,5,2,1,32,0,1
100261,-117.647058823529,5,2,1,35,0,1
100506,-117.647058823529,5,2,1,25,0,1
100750,-117.647058823529,5,2,1,35,0,1
100994,-117.647058823529,5,2,1,30,0,1
101075,-117.647058823529,5,2,1,35,0,1
101156,-117.647058823529,5,2,1,30,0,1
101237,-117.647058823529,5,2,1,25,0,1
101482,-117.647058823529,5,2,1,30,0,1
101726,-117.647058823529,5,2,1,25,0,1
101970,-200,5,2,1,30,0,1
102213,-200,5,2,1,25,0,1
102457,-200,5,2,1,20,0,1
102701,-200,5,2,1,30,0,1
102944,-200,5,2,1,25,0,1
103189,-153.846153846154,5,2,1,35,0,1
103432,-153.846153846154,5,2,1,30,0,1
103676,-153.846153846154,5,2,1,25,0,1
103921,-153.846153846154,5,2,1,35,0,1
104164,-153.846153846154,5,2,1,30,0,1
104409,-117.647058823529,5,2,1,45,0,1
104896,-117.647058823529,5,2,1,23,0,1
105140,-117.647058823529,5,2,1,40,0,1
105383,-117.647058823529,5,2,1,30,0,1
105628,-117.647058823529,5,2,1,35,0,1
105872,-117.647058823529,5,2,1,40,0,1
106115,-117.647058823529,5,2,1,35,0,1
106360,-117.647058823529,5,2,1,40,0,1
107091,-117.647058823529,5,2,1,35,0,1
107335,-117.647058823529,5,2,1,30,0,1
107579,-117.647058823529,5,2,1,35,0,1
107823,-100,5,2,1,40,0,1
108067,-100,5,2,1,45,0,1
108188,-100,5,2,1,40,0,1
108310,-100,5,2,1,35,0,1
108555,-100,5,2,1,30,0,1
108799,-100,5,2,1,50,0,1
109042,-100,5,2,1,35,0,1
109287,-100,5,2,1,45,0,1
109774,-100,5,2,1,23,0,1
110018,-100,5,2,1,30,0,1
110262,-100,5,2,1,35,0,1
110506,-133.333333333333,5,2,1,40,0,1
110993,-133.333333333333,5,2,1,20,0,1
111238,-133.333333333333,5,2,1,45,0,1
111726,528.634361233479,5,2,1,50,1,0
111726,-156.541235851229,4,2,1,50,0,0
111990,530.973451327433,5,2,1,5,1,0
112255,487.80487804878,5,2,1,5,1,0
112381,487.80487804878,5,2,1,45,1,0
112564,585.365853658535,5,2,1,40,1,0
112564,-200,5,2,1,40,0,0
112857,487.80487804878,5,2,1,20,1,0
113344,-100,5,2,1,50,0,0
113665,789.473684210525,5,2,1,25,1,0
114061,487.80487804878,5,2,1,35,1,0
114061,-500,5,2,1,35,0,0
114182,-500,5,2,1,5,0,0

[Colours]
Combo1 : 193,193,193
Combo2 : 171,223,254
Combo3 : 234,200,162
Combo4 : 85,160,253
Combo5 : 217,164,111
Combo6 : 216,216,216

[HitObjects]
0,0,187,70,0,P|24:-7|50:-18,1,52.5,2|0,2:0|2:0,2:0:0:0:
6,5,2138,22,0,P|56:6|112:18,1,105,4|0,2:0|2:0,2:0:0:0:
123,81,2869,2,0,P|172:74|234:77,1,105,2|0,2:0|2:0,2:0:0:0:
247,10,3601,2,0,P|260:56|320:66,1,105,2|0,2:0|2:0,2:0:0:0:
340,45,4333,6,0,P|356:38|378:33,2,34.1249984378815,0|0|0,2:0|2:0|2:0,2:0:0:0:
411,81,5065,2,0,P|425:75|444:71,2,34.1249984378815,0|0|0,2:0|2:0|2:0,2:0:0:0:
481,24,5796,1,0,2:0:0:0:
512,46,6040,38,0,P|481:12|409:14,1,105,2|0,2:0|2:0,2:0:0:0:
415,71,6772,2,0,P|364:53|293:40,1,105,2|0,2:0|2:0,2:0:0:0:
256,3,7504,2,0,P|219:46|157:45,1,105,2|0,2:0|2:0,2:0:0:0:
149,21,8235,22,0,P|127:18|106:14,2,34.1249984378815,0|0|0,2:0|2:0|2:0,2:0:0:0:
55,21,8967,1,2,2:0:0:0:
40,58,9211,1,0,2:0:0:0:
20,66,9455,1,0,2:0:0:0:
4,63,9699,1,0,2:0:0:0:
0,58,9943,6,0,P|51:70|119:76,1,105,2|0,2:0|2:0,2:0:0:0:
120,12,10674,2,0,P|172:-6|204:35,1,105,2|0,2:0|2:0,2:0:0:0:
201,98,11406,2,0,P|224:61|278:69,1,105,2|0,2:0|2:0,2:0:0:0:
301,102,12138,38,0,P|299:118|293:134,2,34.1249984378815,0|0|0,2:0|2:0|2:0,2:0:0:0:
366,83,12869,2,0,P|366:100|363:116,2,34.1249984378815,0|0|0,2:0|2:0|2:0,2:0:0:0:
423,60,13601,1,0,2:0:0:0:
461,69,13845,22,0,P|441:22|464:-23,1,105,2|0,2:0|2:0,2:0:0:0:
512,18,14577,2,0,P|457:7|393:-17,1,105,2|0,2:0|2:0,2:0:0:0:
385,57,15308,2,0,P|359:49|335:40,1,52.5,2|0,2:0|2:0,2:0:0:0:
321,101,15796,53,0,2:0:0:0:
266,85,16068,5,0,2:0:0:0:
228,135,16380,70,0,P|211:126|192:120,1,39.375,0|0,2:0|2:0,2:0:0:0:
160,63,17363,22,0,P|139:18|76:8,1,105,4|0,2:0|2:0,2:0:0:0:
70,65,18094,2,0,P|11:73|-39:58,1,105,2|0,2:0|2:0,2:0:0:0:
25,5,18826,2,0,P|7:52|15:105,1,105,2|0,2:0|2:0,2:0:0:0:
83,132,19558,6,0,P|111:113|144:106,1,68.2499968757631,2|0,2:0|2:0,2:0:0:0:
185,58,20289,2,0,P|170:100|210:135,1,102.374995313645,2|0,2:0|2:0,2:0:0:0:
246,84,21265,38,0,P|250:38|254:-24,1,105,2|0,2:0|2:0,2:0:0:0:
286,35,21997,2,0,P|334:26|393:23,1,105,2|0,2:0|2:0,2:0:0:0:
393,26,22728,21,2,2:0:0:0:
462,0,22972,2,0,P|458:26|455:61,1,52.5,2|0,2:0|2:0,2:0:0:0:
512,80,23460,6,0,P|479:89|459:115,1,68.2499968757631,2|0,2:0|2:0,2:0:0:0:
403,89,24192,2,0,P|394:103|388:119,1,34.125,2|0,2:0|2:0,2:0:0:0:
324,102,24680,2,0,P|318:118|316:135,1,34.1249984378815,2|0,2:0|2:0,2:0:0:0:
326,33,25167,70,0,P|298:74|247:69,1,105,2|0,2:0|2:0,2:0:0:0:
188,43,25899,2,0,P|139:66|86:82,1,105,2|0,2:0|2:0,2:0:0:0:
146,135,26631,2,0,P|95:122|43:119,1,105,4|0,2:0|2:0,2:0:0:0:
0,60,27362,54,0,P|-20:26|-14:-3,1,68.2499968757631,2|0,2:0|2:0,2:0:0:0:
52,25,28094,22,0,P|73:14|109:6,1,52.5,2|0,2:0|2:0,2:0:0:0:
144,66,28582,2,0,P|181:76|210:103,1,78.75,2|0,2:0|2:0,2:0:0:0:
215,98,29070,6,0,P|265:83|316:73,1,105,2|0,2:0|2:0,2:0:0:0:
199,14,29802,2,0,P|251:10|302:0,1,105,2|0,2:0|2:0,2:0:0:0:
256,47,30533,1,4,2:0:0:0:
404,18,31050,37,0,2:0:0:0:
459,34,31339,5,0,2:0:0:0:
512,0,31653,69,0,2:0:0:0:
512,0,32352,6,0,P|497:1|485:3,1,26.350625,2|0,2:0|2:0,2:0:0:0:
509,6,33432,38,0,B|478:0|473:-38|467:-28|465:39|418:41,1,115.5,4|0,2:0|2:0,2:0:0:0:
469,98,34163,2,0,P|415:78|360:61,1,115.50000352478,2|0,2:0|2:0,2:0:0:0:
281,47,34895,2,0,B|299:49|286:106|232:89|248:43|217:34,1,115.50000352478,2|0,2:0|2:0,2:0:0:0:
158,13,35627,6,0,P|106:7|101:48,1,105,0|0,2:0|2:0,2:0:0:0:
39,3,36358,1,2,2:0:0:0:
36,7,36480,1,2,2:0:0:0:
36,12,36602,1,2,2:0:0:0:
52,84,36846,6,0,P|90:89|127:104,1,78.75,2|0,2:0|2:0,2:0:0:0:
162,124,37334,54,0,B|165:74|217:75|219:22,1,115.50000352478,4|0,2:0|2:0,2:0:0:0:
271,69,38066,2,0,P|319:86|383:85,1,115.50000352478,2|0,2:0|2:0,2:0:0:0:
444,0,38797,5,2,2:0:0:0:
372,14,39041,2,0,B|362:47|390:83|440:83|441:60,1,115.50000352478,2|0,2:0|2:0,2:0:0:0:
501,68,39773,6,0,P|521:57|554:49,1,52.5,0|0,2:0|2:0,2:0:0:0:
505,130,40261,1,2,2:0:0:0:
501,133,40383,1,2,2:0:0:0:
496,134,40505,1,2,2:0:0:0:
421,135,40749,54,0,P|380:128|318:125,1,78.75,2|0,2:0|2:0,2:0:0:0:
304,133,41236,6,0,B|287:138|281:116|295:85|327:47|315:29|293:44,1,115.5,4|0,2:0|2:0,2:0:0:0:
234,89,41968,2,0,P|178:99|104:102,1,115.50000352478,2|0,2:0|2:0,2:0:0:0:
58,135,42700,2,0,B|72:102|26:40|-28:79|-4:110|28:95,1,115.50000352478,2|0,2:0|2:0,2:0:0:0:
65,73,43431,6,0,P|54:43|41:17,2,52.5,0|0|0,2:0|2:0|2:0,2:0:0:0:
119,41,44163,53,2,2:0:0:0:
256,0,44651,1,2,2:0:0:0:
399,23,45139,6,0,B|367:50|398:108|433:106|439:65|490:99|485:132|449:139|438:121,2,173.250005287171,4|2|2,2:0|2:0|2:0,2:0:0:0:
457,0,46846,1,0,2:0:0:0:
455,64,47090,6,0,P|483:57|536:61,2,57.7500017623902,0|0|0,2:0|2:0|2:0,2:0:0:0:
403,29,47822,1,0,2:0:0:0:
360,73,48066,5,2,2:0:0:0:
256,0,48553,1,2,2:0:0:0:
132,29,49041,6,0,B|116:37|57:35|18:16|-3:-4|14:-31|30:-25|38:-8,2,157.5,4|2|2,2:0|2:0|2:0,2:0:0:0:
0,64,50992,1,0,2:0:0:0:
18,135,51236,6,0,P|43:113|77:114,1,68.2499968757631,2|0,2:0|2:0,2:0:0:0:
58,49,51968,2,0,P|89:87|145:89,1,102.374995313645,2|0,2:0|2:0,2:0:0:0:
137,26,52944,38,0,P|186:23|243:39,1,105,2|0,2:0|2:0,2:0:0:0:
224,101,53675,2,0,P|261:66|311:77,1,105,2|0,2:0|2:0,2:0:0:0:
348,2,54407,21,2,2:0:0:0:
403,30,54651,2,0,P|425:19|452:11,1,52.5,2|0,2:0|2:0,2:0:0:0:
512,0,55139,6,0,P|491:26|488:60,1,68.2499999999999,2|0,2:0|2:0,2:0:0:0:
406,36,55871,2,0,P|413:49|426:64,1,34.1249984378815,2|0,2:0|2:0,2:0:0:0:
364,109,56358,2,0,P|378:118|393:125,1,34.125,2|0,2:0|2:0,2:0:0:0:
338,45,56846,38,0,P|285:62|219:59,1,105,2|0,2:0|2:0,2:0:0:0:
219,0,57578,2,0,P|187:45|134:35,1,105,2|0,2:0|2:0,2:0:0:0:
83,62,58310,2,0,P|61:22|0:27,1,105,2|0,2:0|2:0,2:0:0:0:
27,92,59041,22,0,P|50:116|80:132,1,68.2499968757631,2|0,2:0|2:0,2:0:0:0:
143,128,59773,2,0,P|159:133|176:134,1,34.1249984378815,2|0,2:0|2:0,2:0:0:0:
245,116,60261,2,0,P|268:112|296:102,1,51.1874976568223,2|0,2:0|2:0,2:0:0:0:
299,98,60749,6,0,P|249:83|193:76,1,105,2|0,2:0|2:0,2:0:0:0:
314,14,61481,2,0,P|262:10|208:-3,1,105,2|0,2:0|2:0,2:0:0:0:
256,47,62212,1,4,2:0:0:0:
119,22,62700,37,0,2:0:0:0:
107,42,62944,1,0,2:0:0:0:
50,51,63188,1,0,2:0:0:0:
0,0,63503,5,2,2:0:0:0:
1,314,64484,2,0,P|-1:327|-2:343,2,26.25,2|0|0,2:0|2:0|2:0,2:0:0:0:
28,285,65215,2,0,P|29:270|33:254,1,26.25,0|0,2:0|2:0,2:0:0:0:
59,338,65703,2,0,P|63:353|64:369,2,26.25,2|0|0,2:0|2:0|2:0,2:0:0:0:
84,308,66435,2,0,P|88:295|97:281,1,26.25,0|0,2:0|2:0,2:0:0:0:
142,325,66923,2,0,P|145:338|154:358,2,26.25,2|0|0,2:0|2:0|2:0,2:0:0:0:
165,294,67654,2,0,P|164:279|167:260,1,26.25,0|0,2:0|2:0,2:0:0:0:
231,276,68142,2,0,P|228:263|222:246,2,26.25,2|0|0,2:0|2:0|2:0,2:0:0:0:
223,313,68874,2,0,P|228:329|229:345,1,26.25,0|0,2:0|2:0,2:0:0:0:
165,299,69362,2,0,P|159:284|152:273,2,26.25,2|0|0,2:0|2:0|2:0,2:0:0:0:
166,337,70094,2,0,P|165:351|161:366,1,26.25,0|0,2:0|2:0,2:0:0:0:
106,335,70581,2,0,P|104:322|103:308,2,26.25,2|0|0,2:0|2:0|2:0,2:0:0:0:
80,362,71313,2,0,P|71:372|65:384,1,26.25,0|0,2:0|2:0,2:0:0:0:
43,307,71801,2,0,P|42:294|37:275,2,26.25,2|0|0,2:0|2:0|2:0,2:0:0:0:
7,315,72533,2,0,P|17:331|23:348,1,26.25,0|0,2:0|2:0,2:0:0:0:
0,398,73020,2,0,P|-17:389|-32:385,2,26.25,2|0|0,2:0|2:0|2:0,2:0:0:0:
19,337,73752,70,0,B|0:325|-19:296|7:263|38:266|22:287,1,89.2500017023087,2|4,2:0|2:0,2:0:0:0:
194,322,74727,1,0,2:0:0:0:
230,374,74971,2,0,P|214:381|186:382,1,39.3750015020371,2|0,2:0|2:0,2:0:0:0:
140,350,75459,2,0,P|101:343|74:315,1,78.7500030040742,2|0,2:0|2:0,2:0:0:0:
89,257,76191,1,2,2:0:0:0:
214,260,76679,6,0,P|169:267|140:288,1,78.7500030040742,2|0,2:0|2:0,2:0:0:0:
96,328,77410,2,0,P|75:327|57:332,1,39.3750015020371,2|0,2:0|2:0,2:0:0:0:
3,363,77898,2,0,P|-14:359|-39:358,2,39.3750015020371,2|0|0,2:0|2:0|2:0,2:0:0:0:
0,356,78630,1,2,2:0:0:0:
85,261,79118,70,0,P|81:298|100:335,1,78.7500030040742,2|0,2:0|2:0,2:0:0:0:
138,384,79849,2,0,P|153:371|171:363,1,39.3750015020371,2|0,2:0|2:0,2:0:0:0:
231,369,80337,2,0,P|201:343|189:307,1,78.7500030040742,2|0,2:0|2:0,2:0:0:0:
231,257,81069,1,2,2:0:0:0:
162,249,81313,1,2,2:0:0:0:
123,298,81557,6,0,P|99:272|46:269,1,89.2500000000003,2|0,2:0|2:0,2:0:0:0:
53,273,82288,1,2,2:0:0:0:
0,369,82776,2,0,P|31:339|85:342,1,89.2500017023087,2|0,2:0|2:0,2:0:0:0:
124,375,83508,1,2,2:0:0:0:
223,345,83996,70,0,P|227:305|231:250,1,89.2500000000003,4|0,2:0|2:0,2:0:0:0:
184,302,84727,2,0,P|168:289|135:279,1,44.6250000000002,2|0,2:0|2:0,2:0:0:0:
91,313,85215,2,0,P|44:313|14:353,1,89.2500017023087,2|0,2:0|2:0,2:0:0:0:
54,391,85947,2,0,P|71:381|96:376,1,44.6250008511543,2|0,2:0|2:0,2:0:0:0:
173,371,86435,6,0,P|177:326|180:282,1,89.2500000000003,2|0,2:0|2:0,2:0:0:0:
134,329,87166,2,0,P|118:316|85:306,1,44.6250000000002,2|0,2:0|2:0,2:0:0:0:
0,282,87654,70,0,B|-3:274|-36:282|-27:326|0:341|29:335|47:313,1,105,2|0,2:0|2:0,2:0:0:0:
120,249,88386,2,0,P|146:264|173:271,1,52.5,2|0,2:0|2:0,2:0:0:0:
231,267,88874,6,0,B|213:255|181:262|170:287|172:328|205:329|204:315,1,105,4|0,2:0|2:0,2:0:0:0:
227,385,89605,1,2,2:0:0:0:
122,322,90093,70,0,B|95:321|76:344|77:372|94:377,1,78.7500000000002,2|0,2:0|2:0,2:0:0:0:
147,393,90825,1,2,2:0:0:0:
45,334,91313,6,0,P|11:340|4:373,1,68.2499999999999,2|0,2:0|2:0,2:0:0:0:
10,368,92044,1,2,2:0:0:0:
128,398,92560,69,4,2:0:0:0:
186,375,92818,5,0,2:0:0:0:
256,384,93148,70,0,B|251:370|261:359|256:343,1,41.527709814013,2|2,2:0|2:0,2:0:0:0:
382,363,94653,54,0,B|385:329|415:314|445:317|435:342,2,78.75,2|2|0,2:0|2:0|2:0,2:0:0:0:
376,360,95628,1,0,2:0:0:0:
453,389,95872,53,2,2:0:0:0:
492,380,96116,1,0,2:0:0:0:
509,364,96360,1,0,2:0:0:0:
512,351,96604,2,0,P|501:331|494:306,1,44.6250000000002,2|0,2:0|2:0,2:0:0:0:
499,303,97092,21,0,2:0:0:0:
426,328,97335,2,0,B|434:322|438:292|430:286,2,44.6250008511543,2|0|0,2:0|2:0|2:0,2:0:0:0:
422,328,97945,1,2,2:0:0:0:
418,326,98067,1,2,2:0:0:0:
366,362,98311,2,0,P|341:358|315:358,2,44.6250000000002,0|0|0,2:0|2:0|2:0,2:0:0:0:
372,367,99043,1,2,2:0:0:0:
281,284,99531,54,0,P|304:278|330:269,1,44.6250000000002,2|0,2:0|2:0,2:0:0:0:
327,268,99896,1,0,2:0:0:0:
330,264,100018,2,0,P|333:280|337:295,2,22.3125004255772,0|0|2,2:0|2:0|2:0,2:0:0:0:
395,290,100506,1,0,2:0:0:0:
462,272,100750,21,2,2:0:0:0:
511,305,100994,2,0,P|520:309|526:309,3,14.8750002837181,0|2|2|2,2:0|2:0|2:0|2:0,2:0:0:0:
480,331,101482,1,0,2:0:0:0:
478,359,101726,1,0,2:0:0:0:
488,368,101970,54,0,P|505:371|522:380,2,26.25,2|0|0,2:0|2:0|2:0,2:0:0:0:
483,392,102701,2,0,P|466:394|450:394,1,26.25,2|0,2:0|2:0,2:0:0:0:
383,347,103189,22,0,P|363:343|347:337,2,34.1249984378815,2|0|0,2:0|2:0|2:0,2:0:0:0:
371,368,103921,2,0,P|386:366|404:362,1,34.1249984378815,2|0,2:0|2:0,2:0:0:0:
472,310,104409,54,0,B|453:311|458:270|473:252|522:261|517:283,1,89.2500000000003,4|0,2:0|2:0,2:0:0:0:
509,331,105140,2,0,P|487:328|468:315,1,44.6250000000002,2|0,2:0|2:0,2:0:0:0:
452,249,105628,1,2,2:0:0:0:
401,285,105872,2,0,P|378:294|354:294,1,44.6250000000002,2|0,2:0|2:0,2:0:0:0:
351,289,106360,1,2,2:0:0:0:
281,378,106848,22,0,P|284:355|301:322,2,44.6250008511543,2|0|0,2:0|2:0|2:0,2:0:0:0:
287,384,107579,1,2,2:0:0:0:
350,356,107823,1,2,2:0:0:0:
418,355,108067,1,2,2:0:0:0:
415,359,108189,1,2,2:0:0:0:
416,364,108311,2,0,P|440:353|465:346,1,52.5,2|0,2:0|2:0,2:0:0:0:
468,252,108799,2,0,P|490:262|525:272,1,52.5,2|0,2:0|2:0,2:0:0:0:
461,323,109287,54,0,B|460:271|415:269|389:275|399:303,1,105,4|0,2:0|2:0,2:0:0:0:
403,303,110018,1,0,2:0:0:0:
338,269,110262,1,2,2:0:0:0:
333,334,110506,22,0,P|326:304|278:310,1,78.7500000000002,2|0,2:0|2:0,2:0:0:0:
281,366,111238,1,2,2:0:0:0:
398,380,111726,54,0,P|425:366|462:329,1,83.1086929220631,2|2,2:0|2:0,2:0:0:0:
479,347,112564,2,0,P|491:341|501:334,1,26.25,2|0,2:0|2:0,2:0:0:0:
393,384,113344,53,4,2:0:0:0:
450,366,113665,5,0,2:0:0:0:
512,398,114061,70,0,P|532:386|553:379,1,42,2|0,2:0|2:0,2:0:0:0:
