osu file format v14

[General]
AudioFilename: audio.mp3
AudioLeadIn: 0
PreviewTime: 32309
Countdown: 0
SampleSet: Soft
StackLeniency: 0.3
Mode: 0
LetterboxInBreaks: 0
WidescreenStoryboard: 1

[Editor]
Bookmarks: 2138,33432,49041,64484,94653,114061
DistanceSpacing: 0.9
BeatDivisor: 4
GridSize: 32
TimelineZoom: 1.38

[Metadata]
Title:Onaji Takami e
TitleUnicode:同じ高みへ
Artist:Maeda Jun
ArtistUnicode:麻枝准
Creator:kodama
Version:Deppy's Normal
Source:CLANNAD
Tags:visual novel vn video game key to the same heights クラナド bgm background music ost original soundtrack deppyforce instrumental orchestral piano classical furukawa nagisa 古河渚 okazaki ushio 岡崎汐 toki o wo kizamu uta 時を刻む唄
BeatmapID:3585911
BeatmapSetID:1670295

[Difficulty]
HPDrainRate:2
CircleSize:5
OverallDifficulty:5
ApproachRate:5
SliderMultiplier:0.9
SliderTickRate:1

[Events]
//Background and Video events
0,0,"clannad.jpg",0,0
//Break Periods
//Storyboard Layer 0 (Background)
//Storyboard Layer 1 (Fail)
//Storyboard Layer 2 (Pass)
//Storyboard Layer 3 (Foreground)
//Storyboard Layer 4 (Overlay)
//Storyboard Sound Samples

[TimingPoints]
187,487.80487804878,4,2,1,35,1,0
187,-100,4,2,1,35,0,0
1162,-100,4,2,1,25,0,0
2138,-100,4,2,1,55,0,0
2260,-100,4,2,1,5,0,0
2869,-100,4,2,1,45,0,0
2991,-100,4,2,1,5,0,0
3601,-100,4,2,1,55,0,0
4089,-100,4,2,1,35,0,0
4576,-100,4,2,1,40,0,0
5065,-100,4,2,1,45,0,0
5552,-100,4,2,1,35,0,0
6040,-100,4,2,1,55,0,0
6162,-100,4,2,1,5,0,0
6771,-100,4,2,1,45,0,0
7504,-100,4,2,1,55,0,0
7991,-100,4,2,1,35,0,0
8478,-100,4,2,1,40,0,0
8967,-100,4,2,1,45,0,0
9210,-100,4,2,1,40,0,0
9454,-100,4,2,1,35,0,0
9943,-100,4,2,1,55,0,0
10065,-100,4,2,1,5,0,0
10674,-100,4,2,1,45,0,0
11406,-100,4,2,1,55,0,0
11894,-100,4,2,1,35,0,0
12381,-100,4,2,1,40,0,0
12869,-100,4,2,1,45,0,0
13356,-100,4,2,1,35,0,0
13845,-100,4,2,1,55,0,0
13967,-100,4,2,1,5,0,0
14576,-100,4,2,1,45,0,0
15308,-100,4,2,1,55,0,0
15795,-100,4,2,1,35,0,0
16068,624.999999999999,4,2,1,35,1,0
16380,487.80487804878,4,2,1,30,1,0
17363,487.80487804878,4,2,1,55,1,0
17363,-100,4,2,1,55,0,0
17484,-100,4,2,1,5,0,0
18094,-100,4,2,1,45,0,0
18216,-100,4,2,1,5,0,0
18826,-100,4,2,1,55,0,0
19558,-100,4,2,1,45,0,0
20289,-100,4,2,1,50,0,0
20411,-100,4,2,1,5,0,0
21020,-100,4,2,1,25,0,0
21265,-100,4,2,1,55,0,0
21752,-100,4,2,1,27,0,0
21997,-100,4,2,1,45,0,0
22728,-100,4,2,1,50,0,0
22972,-100,4,2,1,55,0,0
23947,-100,4,2,1,27,0,0
24192,-100,4,2,1,45,0,0
24680,-100,4,2,1,50,0,0
25167,-100,4,2,1,55,0,0
25289,-100,4,2,1,5,0,0
25898,-100,4,2,1,45,0,0
26021,-100,4,2,1,5,0,0
26630,-100,4,2,1,55,0,0
27362,-100,4,2,1,40,0,0
28094,-100,4,2,1,45,0,0
28582,-100,4,2,1,50,0,0
29070,-100,4,2,1,55,0,0
29557,-100,4,2,1,27,0,0
29802,-100,4,2,1,55,0,0
30289,-100,4,2,1,27,0,0
30533,-100,4,2,1,65,0,0
30777,-100,4,2,1,55,0,0
31050,582.524271844659,4,2,1,55,1,0
31339,624.999999999999,4,2,1,55,1,0
31653,697.674418604651,4,2,1,55,1,0
32352,529.801324503312,4,2,1,40,1,0
32887,542.986425339366,4,2,1,50,1,0
33432,487.80487804878,4,2,1,75,1,1
33432,-90.9090909090909,4,2,1,75,0,1
33553,-90.9090909090909,4,2,1,5,0,1
34163,-90.9090909090909,4,2,1,70,0,1
34407,-90.9090909090909,4,2,1,45,0,1
34895,-90.9090909090909,4,2,1,70,0,1
35383,-90.9090909090909,4,2,1,50,0,1
35870,-90.9090909090909,4,2,1,50,0,1
36358,-90.9090909090909,4,2,1,50,0,1
36846,-90.9090909090909,4,2,1,60,0,1
37334,-90.9090909090909,4,2,1,75,0,1
37821,-90.9090909090909,4,2,1,50,0,1
38066,-90.9090909090909,4,2,1,70,0,1
38188,-90.9090909090909,4,2,1,5,0,1
38797,-90.9090909090909,4,2,1,80,0,1
39041,-90.9090909090909,4,2,1,75,0,1
40261,-90.9090909090909,4,2,1,60,0,1
40749,-90.9090909090909,4,2,1,55,0,1
41236,-90.9090909090909,4,2,1,75,0,1
41358,-90.9090909090909,4,2,1,5,0,1
41967,-90.9090909090909,4,2,1,70,0,1
42090,-90.9090909090909,4,2,1,5,0,1
42699,-90.9090909090909,4,2,1,70,0,1
43431,-90.9090909090909,4,2,1,45,0,1
43918,-90.9090909090909,4,2,1,55,0,1
44163,-90.9090909090909,4,2,1,50,0,1
44651,-90.9090909090909,4,2,1,60,0,1
45139,-90.9090909090909,4,2,1,75,0,1
45261,-90.9090909090909,4,2,1,5,0,1
45870,-90.9090909090909,4,2,1,70,0,1
46114,-90.9090909090909,4,2,1,55,0,1
46602,-90.9090909090909,4,2,1,60,0,1
46724,-90.9090909090909,4,2,1,5,0,1
48065,-90.9090909090909,4,2,1,45,0,1
48553,-90.9090909090909,4,2,1,50,0,1
49041,-100,4,2,1,55,0,0
49163,-100,4,2,1,5,0,0
50504,-100,4,2,1,55,0,0
51236,-100,4,2,1,50,0,0
51968,-100,4,2,1,55,0,0
52212,-100,4,2,1,50,0,0
52456,-100,4,2,1,45,0,0
52944,-100,4,2,1,60,0,0
53066,-100,4,2,1,5,0,0
53675,-100,4,2,1,55,0,0
54407,-100,4,2,1,65,0,0
54651,-100,4,2,1,60,0,0
55139,-100,4,2,1,45,0,0
55626,-100,4,2,1,23,0,0
55871,-100,4,2,1,50,0,0
56358,-100,4,2,1,55,0,0
56846,-100,4,2,1,60,0,0
56968,-100,4,2,1,5,0,0
57577,-100,4,2,1,55,0,0
57700,-100,4,2,1,5,0,0
58309,-100,4,2,1,60,0,0
59041,-100,4,2,1,45,0,0
59773,-100,4,2,1,50,0,0
60261,-100,4,2,1,55,0,0
60749,-100,4,2,1,60,0,0
60871,-100,4,2,1,5,0,0
61480,-100,4,2,1,60,0,0
62212,-100,4,2,1,70,0,0
62700,-100,4,2,1,50,0,0
62943,-100,4,2,1,40,0,0
63187,-100,4,2,1,50,0,0
63503,487.80487804878,4,2,1,55,1,0
64484,487.80487804878,5,2,1,35,1,0
69484,-100,5,2,1,5,0,0
70093,-100,5,2,1,35,0,0
70337,-100,5,2,1,30,0,0
70581,-100,5,2,1,35,0,0
71556,-100,5,2,1,30,0,0
71801,-100,5,2,1,35,0,0
71923,-100,5,2,1,5,0,0
72532,-100,5,2,1,35,0,0
72776,-100,5,2,1,30,0,0
73020,-100,5,2,1,35,0,0
73752,-100,5,2,1,50,0,0
73996,-100,5,2,1,25,0,0
74240,-100,5,2,1,45,0,0
74362,-100,5,2,1,5,0,0
74971,-100,5,2,1,35,0,0
75459,-100,5,2,1,45,0,0
75581,-100,5,2,1,5,0,0
76190,-100,5,2,1,50,0,0
76435,-100,5,2,1,25,0,0
76679,-100,5,2,1,45,0,0
77410,-100,5,2,1,40,0,0
77898,-100,5,2,1,45,0,0
78020,-100,5,2,1,5,0,0
78629,-100,5,2,1,40,0,0
78874,-100,5,2,1,20,0,0
79118,-100,5,2,1,45,0,0
79849,-100,5,2,1,35,0,0
80337,-100,5,2,1,45,0,0
80459,-100,5,2,1,5,0,0
81068,-100,5,2,1,35,0,0
81313,-100,5,2,1,40,0,0
81557,-100,5,2,1,45,0,0
82288,-100,5,2,1,40,0,0
82776,-100,5,2,1,45,0,0
82898,-100,5,2,1,5,0,0
83507,-100,5,2,1,45,0,0
83752,-100,5,2,1,23,0,0
83996,-100,5,2,1,50,0,0
84727,-100,5,2,1,45,0,0
85337,-100,5,2,1,5,0,0
85946,-100,5,2,1,45,0,0
86191,-100,5,2,1,23,0,0
86435,-100,5,2,1,45,0,0
87654,-100,5,2,1,50,0,0
87776,-100,5,2,1,5,0,0
88385,-100,5,2,1,55,0,0
88874,-100,5,2,1,50,0,0
88996,-100,5,2,1,5,0,0
89605,-100,5,2,1,45,0,0
90215,-100,5,2,1,5,0,0
90824,-100,5,2,1,40,0,0
91435,-100,5,2,1,5,0,0
92044,-100,5,2,1,35,0,0
92560,512.820512820512,5,2,1,55,1,0
92818,659.340659340658,5,2,1,55,1,0
93148,828.729281767956,5,2,1,55,1,0
93770,487.80487804878,5,2,1,55,1,0
93863,487.80487804878,5,2,1,55,1,0
93997,487.80487804878,5,2,1,55,1,0
94130,487.80487804878,5,2,1,55,1,0
94265,487.80487804878,5,2,1,55,1,0
94653,487.80487804878,5,2,1,35,1,0
94653,-100,5,2,1,35,0,0
95018,-100,5,2,1,40,0,0
95384,-100,5,2,1,35,0,0
95628,-100,5,2,1,30,0,0
95872,-100,5,2,1,40,0,0
96604,-100,5,2,1,35,0,0
97092,-100,5,2,1,30,0,0
97335,-100,5,2,1,35,0,0
97457,-100,5,2,1,5,0,0
98066,-100,5,2,1,35,0,0
98555,-100,5,2,1,30,0,0
99043,-100,5,2,1,35,0,0
99774,-100,5,2,1,23,0,0
100017,-100,5,2,1,29,0,0
100261,-100,5,2,1,35,0,0
100506,-100,5,2,1,25,0,0
100750,-100,5,2,1,35,0,0
101482,-100,5,2,1,30,0,0
102092,-100,5,2,1,5,0,0
102701,-100,5,2,1,30,0,0
103189,-100,5,2,1,35,0,0
103311,-100,5,2,1,5,0,0
103920,-100,5,2,1,35,0,0
104165,-100,5,2,1,30,0,0
104409,-100,5,2,1,45,0,0
105140,-100,5,2,1,40,0,0
105628,-100,5,2,1,35,0,0
105871,-100,5,2,1,40,0,0
106115,-100,5,2,1,35,0,0
106360,-100,5,2,1,40,0,0
106970,-100,5,2,1,5,0,0
107579,-100,5,2,1,35,0,0
107823,-100,5,2,1,40,0,0
108067,-100,5,2,1,45,0,0
108310,-100,5,2,1,35,0,0
108799,-100,5,2,1,50,0,0
109287,-100,5,2,1,45,0,0
109409,-100,5,2,1,5,0,0
110018,-100,5,2,1,30,0,0
110262,-100,5,2,1,35,0,0
110506,-100,5,2,1,40,0,0
111238,-100,5,2,1,45,0,0
111726,528.634361233479,5,2,1,50,1,0
111990,530.973451327433,5,2,1,50,1,0
112255,487.80487804878,5,2,1,45,1,0
112381,487.80487804878,5,2,1,45,1,0
112381,-100,5,2,1,45,0,0
112564,585.365853658535,5,2,1,40,1,0
112857,487.80487804878,5,2,1,40,1,0
113344,-100,5,2,1,50,0,0
113665,789.473684210525,5,2,1,50,1,0
114061,487.80487804878,5,2,1,35,1,0

[Colours]
Combo1 : 193,193,193
Combo2 : 171,223,254
Combo3 : 234,200,162
Combo4 : 85,160,253
Combo5 : 217,164,111
Combo6 : 216,216,216

[HitObjects]
0,0,187,69,2,2:0:0:0:
147,67,1162,5,0,2:0:0:0:
296,4,2138,6,0,P|368:37|438:44,2,135,4|2|2,2:0|2:0|2:0,2:0:0:0:
259,77,4089,2,0,P|208:53|167:61,1,90,0|0,2:0|2:0,2:0:0:0:
114,4,5065,1,0,2:0:0:0:
41,40,5552,1,0,2:0:0:0:
26,119,6040,6,0,P|116:119|175:134,1,135,2|2,2:0|2:0,2:0:0:0:
179,93,7016,1,0,2:0:0:0:
259,77,7504,1,2,2:0:0:0:
325,123,7991,2,0,P|366:106|376:46,1,90,0|0,2:0|2:0,2:0:0:0:
456,37,8967,2,0,P|444:15|442:-7,2,45,2|0|0,2:0|2:0|2:0,2:0:0:0:
510,97,9943,38,0,P|432:78|384:106,1,135,2|2,2:0|2:0,2:0:0:0:
356,129,10918,1,0,2:0:0:0:
295,74,11406,1,2,2:0:0:0:
219,102,11894,2,0,P|193:70|189:19,1,90,0|0,2:0|2:0,2:0:0:0:
110,0,12869,2,0,P|65:18|53:57,1,90,0|0,2:0|2:0,2:0:0:0:
12,125,13845,22,0,P|91:124|160:97,1,135,2|2,2:0|2:0,2:0:0:0:
178,85,14821,1,0,2:0:0:0:
250,119,15308,2,0,P|324:122|339:135,1,90,2|0,2:0|2:0,2:0:0:0:
385,26,16380,1,0,2:0:0:0:
512,128,17363,6,0,P|542:65|535:0,2,135,4|2|2,2:0|2:0|2:0,2:0:0:0:
390,128,19558,1,2,2:0:0:0:
268,128,20289,2,0,P|289:71|227:23,1,135,2|0,2:0|2:0,2:0:0:0:
207,46,21265,38,0,P|145:48|117:38,1,90,2|0,2:0|2:0,2:0:0:0:
89,11,21997,1,2,2:0:0:0:
3,97,22728,1,2,2:0:0:0:
3,97,22972,1,2,2:0:0:0:
77,128,23460,2,0,P|115:83|154:78,1,90,2|0,2:0|2:0,2:0:0:0:
180,93,24192,1,2,2:0:0:0:
243,43,24680,1,2,2:0:0:0:
321,63,25167,22,0,P|384:64|405:0,2,135,2|2|4,2:0|2:0|2:0,2:0:0:0:
217,126,27362,1,2,2:0:0:0:
170,13,28094,1,2,2:0:0:0:
89,5,28582,1,2,2:0:0:0:
27,57,29070,2,0,P|39:93|90:117,1,90,2|0,2:0|2:0,2:0:0:0:
121,128,29802,2,0,P|154:105|207:101,1,90,2|0,2:0|2:0,2:0:0:0:
243,117,30533,1,4,2:0:0:0:
243,117,30777,1,0,2:0:0:0:
381,0,32352,53,2,2:0:0:0:
462,0,32887,5,0,2:0:0:0:
512,66,33432,38,0,P|440:78|374:123,1,148.5,4|2,2:0|2:0,2:0:0:0:
340,95,34407,1,0,2:0:0:0:
256,126,34895,1,2,2:0:0:0:
168,109,35383,2,0,B|169:52|125:76|121:21,2,99,0|0|2,2:0|2:0|2:0,2:0:0:0:
256,126,36846,1,2,2:0:0:0:
340,95,37334,6,0,P|337:56|361:92,1,99,4|0,2:0|2:0,2:0:0:0:
405,106,38066,2,0,P|480:99|502:27,1,148.5,2|2,2:0|2:0,2:0:0:0:
480,0,39041,1,2,2:0:0:0:
256,0,40261,5,2,2:0:0:0:
166,0,40749,53,2,2:0:0:0:
139,84,41236,6,0,B|110:100|53:45|30:121|-1:113,2,148.5,4|2|2,2:0|2:0|2:0,2:0:0:0:
256,19,43431,2,0,P|301:19|356:42,1,99,0|0,2:0|2:0,2:0:0:0:
388,14,44163,1,2,2:0:0:0:
471,46,44651,1,2,2:0:0:0:
407,109,45139,6,0,P|334:109|259:119,1,148.5,4|2,2:0|2:0,2:0:0:0:
217,130,46114,1,0,2:0:0:0:
165,56,46602,2,0,B|92:70|77:41|58:23|53:-8|78:-39|107:-37|139:-32|157:0|143:38|132:55|98:81,1,297,2|2,2:0|2:0,2:0:0:0:
22,123,48553,1,2,2:0:0:0:
0,37,49041,22,0,P|87:67|275:22,1,270,4|2,2:0|2:0,2:0:0:0:
366,86,51236,1,2,2:0:0:0:
473,30,51968,2,0,P|457:-3|443:-14,2,45,2|0|0,2:0|2:0|2:0,2:0:0:0:
500,106,52944,6,0,P|420:103|364:113,1,135,2|2,2:0|2:0,2:0:0:0:
327,129,53919,1,0,2:0:0:0:
247,113,54407,1,2,2:0:0:0:
247,113,54651,1,2,2:0:0:0:
167,127,55139,2,0,P|131:102|131:56,1,90,2|0,2:0|2:0,2:0:0:0:
154,27,55871,1,2,2:0:0:0:
233,41,56358,1,2,2:0:0:0:
303,0,56846,38,0,P|267:56|255:122,2,135,2|2|2,2:0|2:0|2:0,2:0:0:0:
423,14,59041,1,2,2:0:0:0:
499,108,59773,1,2,2:0:0:0:
420,128,60261,1,2,2:0:0:0:
341,107,60749,22,0,P|256:115|229:66,1,135,2|2,2:0|2:0,2:0:0:0:
233,41,61724,1,0,2:0:0:0:
161,2,62212,1,4,2:0:0:0:
92,47,62700,2,0,P|109:94|115:103,2,45,0|0|0,2:0|2:0|2:0,2:0:0:0:
41,30,63503,1,2,2:0:0:0:
41,354,64484,53,2,2:0:0:0:
161,341,65215,1,0,2:0:0:0:
136,263,65703,5,2,2:0:0:0:
256,276,66435,1,0,2:0:0:0:
297,345,66923,69,2,2:0:0:0:
417,332,67654,1,0,2:0:0:0:
392,254,68142,5,2,2:0:0:0:
512,267,68874,1,0,2:0:0:0:
512,348,69362,70,0,P|446:348|371:365,1,135,2|0,2:0|2:0,2:0:0:0:
345,383,70337,1,0,2:0:0:0:
345,383,70581,1,2,2:0:0:0:
225,360,71313,2,0,P|217:336|222:314,1,45,0|0,2:0|2:0,2:0:0:0:
238,281,71801,2,0,P|175:295|123:256,1,135,2|0,2:0|2:0,2:0:0:0:
86,259,72776,1,0,2:0:0:0:
86,259,73020,1,2,2:0:0:0:
0,345,73752,5,2,2:0:0:0:
22,379,73996,1,0,2:0:0:0:
63,377,74240,2,0,P|123:377|178:322,1,135,4|2,2:0|2:0,2:0:0:0:
249,361,75459,2,0,P|293:366|329:292,1,135,2|2,2:0|2:0,2:0:0:0:
311,263,76435,1,0,2:0:0:0:
311,263,76679,1,2,2:0:0:0:
432,263,77410,1,2,2:0:0:0:
467,335,77898,70,0,P|379:340|322:367,1,135,2|2,2:0|2:0,2:0:0:0:
306,384,78874,1,0,2:0:0:0:
306,384,79118,1,2,2:0:0:0:
213,305,79849,1,2,2:0:0:0:
148,353,80337,2,0,P|73:353|29:306,1,135,2|2,2:0|2:0,2:0:0:0:
17,275,81313,1,2,2:0:0:0:
17,275,81557,1,2,2:0:0:0:
136,253,82288,5,2,2:0:0:0:
199,302,82776,2,0,P|251:334|325:334,1,135,2|2,2:0|2:0,2:0:0:0:
360,316,83752,1,0,2:0:0:0:
360,316,83996,69,4,2:0:0:0:
465,376,84727,1,2,2:0:0:0:
512,310,85215,2,0,P|478:262|404:274,1,135,2|2,2:0|2:0,2:0:0:0:
389,306,86191,1,0,2:0:0:0:
389,306,86435,1,2,2:0:0:0:
271,276,87166,1,2,2:0:0:0:
213,332,87654,2,0,P|121:356|66:380,1,135,2|2,2:0|2:0,2:0:0:0:
61,293,88874,6,0,P|153:269|208:245,1,135,4|2,2:0|2:0,2:0:0:0:
214,344,90093,2,0,P|122:368|67:392,1,135,2|2,2:0|2:0,2:0:0:0:
62,305,91313,2,0,P|154:281|209:257,1,135,2|2,2:0|2:0,2:0:0:0:
272,288,92560,1,4,2:0:0:0:
272,288,94653,38,0,P|321:256|348:256,2,67.5,2|2|0,2:0|2:0|2:0,2:0:0:0:
256,327,95628,1,0,2:0:0:0:
256,327,95872,1,2,2:0:0:0:
156,256,96604,1,2,2:0:0:0:
74,256,97092,1,0,2:0:0:0:
74,256,97335,2,0,P|98:334|105:388,1,135,2|2,2:0|2:0,2:0:0:0:
183,367,98555,1,0,2:0:0:0:
262,384,99043,1,2,2:0:0:0:
288,309,99531,53,2,2:0:0:0:
288,309,99774,2,0,P|275:259|275:250,2,45,0|0|2,2:0|2:0|2:0,2:0:0:0:
317,337,100506,1,0,2:0:0:0:
354,321,100750,1,2,2:0:0:0:
435,346,101238,1,2,2:0:0:0:
435,346,101482,2,0,P|461:334|487:334,1,45,0|0,2:0|2:0,2:0:0:0:
512,311,101970,22,0,P|466:263|400:257,1,135,2|2,2:0|2:0,2:0:0:0:
354,321,103189,2,0,P|308:273|242:266,1,135,2|2,2:0|2:0,2:0:0:0:
211,291,104165,1,0,2:0:0:0:
211,291,104409,53,4,2:0:0:0:
119,371,105140,1,2,2:0:0:0:
43,341,105628,2,0,P|17:353|-4:356,2,45,2|2|0,2:0|2:0|2:0,2:0:0:0:
54,302,106360,1,2,2:0:0:0:
123,259,106848,22,0,P|170:306|237:294,1,135,2|2,2:0|2:0,2:0:0:0:
265,327,107823,1,2,2:0:0:0:
265,327,108067,2,0,P|306:304|310:294,1,45,2|2,2:0|2:0,2:0:0:0:
365,255,108799,1,2,2:0:0:0:
446,255,109287,54,0,P|501:288|485:348,1,135,4|0,2:0|2:0,2:0:0:0:
459,379,110262,1,2,2:0:0:0:
459,379,110506,1,2,2:0:0:0:
342,343,111238,1,2,2:0:0:0:
275,377,111726,1,2,2:0:0:0:
244,273,112381,22,0,P|224:267|209:260,1,33.75,2|2,2:0|2:0,2:0:0:0:
142,371,113344,21,4,2:0:0:0:
0,384,114061,5,2,2:0:0:0:
