osu file format v14

[General]
AudioFilename: audio.mp3
AudioLeadIn: 0
PreviewTime: 51503
Countdown: 0
SampleSet: Soft
StackLeniency: 0.3
Mode: 0
LetterboxInBreaks: 0
WidescreenStoryboard: 0

[Editor]
Bookmarks: 13164,38628,51622,58022,64422,70822,77322,112422,118422,147622
DistanceSpacing: 1.6
BeatDivisor: 4
GridSize: 4
TimelineZoom: 1.1

[Metadata]
Title:Natsukage
TitleUnicode:夏影
Artist:Maeda Jun
ArtistUnicode:麻枝准
Creator:Gust
Version:Misure's Hard
Source:AIR
Tags:key sounds label visual novel galgame Instrumental video game Firika oiso misure
BeatmapID:2129982
BeatmapSetID:1006502

[Difficulty]
HPDrainRate:5
CircleSize:4
OverallDifficulty:5
ApproachRate:6
SliderMultiplier:1.2
SliderTickRate:1

[Events]
//Background and Video events
0,0,"hard.jpg",0,0
//Break Periods
//Storyboard Layer 0 (Background)
//Storyboard Layer 1 (Fail)
//Storyboard Layer 2 (Pass)
//Storyboard Layer 3 (Foreground)
//Storyboard Layer 4 (Overlay)
//Storyboard Sound Samples

[TimingPoints]
440,400,4,2,2,35,1,0
13240,-100,4,2,91,35,0,0
13640,-100,4,2,15,30,0,0
14040,-100,4,2,55,35,0,0
14240,-100,4,2,91,35,0,0
14440,-100,4,2,92,35,0,0
14840,-100,4,2,93,35,0,0
15240,-100,4,2,11,25,0,0
15640,-100,4,2,95,35,0,0
16040,-100,4,2,51,25,0,0
16240,-100,4,2,92,35,0,0
16840,-100,4,2,12,25,0,0
17240,-100,4,2,93,35,0,0
17640,-100,4,2,52,25,0,0
17840,-100,4,2,91,35,0,0
18040,-100,4,2,92,35,0,0
18440,-100,4,2,13,25,0,0
18840,-100,4,2,93,35,0,0
19240,-100,4,2,52,25,0,0
19640,-100,4,2,91,35,0,0
20040,-100,4,2,13,25,0,0
20440,-100,4,2,55,35,0,0
20640,-100,4,2,91,35,0,0
20840,-100,4,2,92,35,0,0
21240,-100,4,2,93,35,0,0
21640,-100,4,2,11,25,0,0
22040,-100,4,2,95,35,0,0
22440,-100,4,2,51,25,0,0
22640,-100,4,2,92,35,0,0
23240,-100,4,2,12,25,0,0
23640,-100,4,2,93,35,0,0
23840,-100,4,2,92,35,0,0
24040,-100,4,2,52,25,0,0
24440,-100,4,2,93,35,0,0
24840,-100,4,2,13,25,0,0
25240,-100,4,2,93,35,0,0
25440,-100,4,2,92,35,0,0
25640,-100,4,2,52,25,0,0
26040,-100,4,2,91,35,0,0
26440,-100,4,2,11,20,0,0
26840,-100,4,2,51,35,0,0
27040,-100,4,2,55,35,0,0
27240,-100,4,2,56,35,0,0
27640,-100,4,2,55,35,0,0
28040,-100,4,2,5,20,0,0
28440,-100,4,2,93,35,0,0
28640,-100,4,2,92,35,0,0
28840,-100,4,2,15,25,0,0
29240,-100,4,2,91,35,0,0
29640,-100,4,2,11,20,0,0
30040,-100,4,2,91,35,0,0
30240,-100,4,2,55,35,0,0
30440,-100,4,2,56,35,0,0
30840,-100,4,2,55,35,0,0
31240,-100,4,2,5,30,0,0
31640,-100,4,2,93,35,0,0
31840,-100,4,2,92,35,0,0
32040,-100,4,2,15,25,0,0
32440,-100,4,2,92,35,0,0
32840,-100,4,2,6,30,0,0
33240,-100,4,2,92,35,0,0
33440,-100,4,2,91,35,0,0
33640,-100,4,2,15,25,0,0
34040,-100,4,2,57,35,0,0
34440,-100,4,2,12,30,0,0
34840,-100,4,2,56,35,0,0
35040,-100,4,2,57,35,0,0
35240,-100,4,2,55,35,0,0
35640,444.444444444444,4,2,56,35,1,0
36084,413.793103448276,4,2,5,25,1,0
36497,-100,4,2,12,25,0,0
36911,394.736842105263,4,2,13,25,1,0
37105,-100,4,2,55,35,0,0
37305,400,4,2,56,35,1,0
37305,-133.333333333333,4,2,56,35,0,0
37705,-133.333333333333,4,2,56,35,0,0
38505,-133.333333333333,4,2,56,35,0,0
39305,-100,4,2,91,35,0,0
39705,-100,4,2,92,35,0,0
40105,-100,4,2,95,35,0,0
40505,-100,4,2,55,35,0,0
40905,-100,4,2,91,35,0,0
41305,-100,4,2,92,35,0,0
41705,-100,4,2,95,35,0,0
42105,-100,4,2,55,35,0,0
42505,-100,4,2,91,35,0,0
42905,-100,4,2,92,35,0,0
43305,-100,4,2,95,35,0,0
43705,-100,4,2,55,35,0,0
44105,-100,4,2,91,35,0,0
44505,-100,4,2,92,35,0,0
44905,-100,4,2,95,35,0,0
45305,-100,4,2,55,35,0,0
45705,-100,4,2,91,35,0,0
46105,-100,4,2,92,35,0,0
46505,-100,4,2,95,35,0,0
46905,-100,4,2,55,35,0,0
47305,-100,4,2,91,35,0,0
47705,-100,4,2,92,35,0,0
48105,-100,4,2,95,35,0,0
48505,-100,4,2,55,35,0,0
48905,-100,4,2,91,35,0,0
49305,-100,4,2,92,35,0,0
49705,-100,4,2,95,35,0,0
50105,-100,4,2,55,35,0,0
50505,-100,4,2,91,35,0,0
50905,-100,4,2,92,35,0,0
51305,-100,4,2,95,35,0,0
51705,-100,4,2,91,35,0,0
52505,-100,4,2,55,35,0,0
52705,-100,4,2,91,35,0,0
52905,-100,4,2,92,35,0,0
53305,-100,4,2,93,35,0,0
53705,-100,4,2,11,25,0,0
54105,-100,4,2,95,35,0,0
54505,-100,4,2,51,25,0,0
54705,-100,4,2,92,35,0,0
55305,-100,4,2,12,25,0,0
55705,-100,4,2,93,35,0,0
56305,-100,4,2,91,35,0,0
56505,-100,4,2,92,35,0,0
56905,-100,4,2,13,25,0,0
57105,-100,4,2,13,35,0,0
57305,-100,4,2,93,35,0,0
57705,-100,4,2,52,25,0,0
58105,-100,4,2,91,35,0,0
58905,-100,4,2,55,35,0,0
59105,-100,4,2,91,35,0,0
59305,-100,4,2,92,35,0,0
59705,-100,4,2,93,35,0,0
60105,-100,4,2,11,25,0,0
60505,-100,4,2,95,35,0,0
61105,-100,4,2,92,35,0,0
61705,-100,4,2,12,25,0,0
62105,-100,4,2,93,35,0,0
62305,-100,4,2,92,35,0,0
62905,-100,4,2,93,35,0,0
63305,-100,4,2,13,25,0,0
63505,-100,4,2,15,35,0,0
63705,-100,4,2,93,35,0,0
63905,-100,4,2,92,35,0,0
64505,-100,4,2,91,35,0,0
64905,-100,4,2,6,20,0,0
65305,-100,4,2,51,35,0,0
65505,-100,4,2,55,35,0,0
65705,-100,4,2,56,35,0,0
66105,-100,4,2,55,35,0,0
66505,-100,4,2,5,30,0,0
66905,-100,4,2,93,35,0,0
67105,-100,4,2,92,35,0,0
67705,-100,4,2,91,35,0,0
68105,-100,4,2,6,30,0,0
68505,-100,4,2,91,35,0,0
68705,-100,4,2,55,35,0,0
68905,-100,4,2,56,35,0,0
69305,-100,4,2,55,35,0,0
69705,-100,4,2,5,30,0,0
69905,-100,4,2,5,35,0,0
70105,-100,4,2,93,35,0,0
70305,-100,4,2,92,35,0,0
71305,-100,4,2,6,30,0,0
71705,-100,4,2,92,35,0,0
71905,-100,4,2,91,35,0,0
72105,-100,4,2,15,25,0,0
72505,-100,4,2,57,35,0,0
72905,-100,4,2,12,30,0,0
73305,-100,4,2,56,35,0,0
73505,-100,4,2,57,35,0,0
73705,-100,4,2,55,35,0,0
74105,-100,4,2,56,35,0,0
74505,-100,4,2,5,25,0,0
74905,-100,4,2,12,25,0,0
75305,-100,4,2,13,25,0,0
75505,-100,4,2,55,35,0,0
75705,-133.333333333333,4,2,56,35,0,0
76505,-200,4,2,56,35,0,0
77305,-133.333333333333,4,2,10,25,0,0
91505,-133.333333333333,4,2,10,35,0,0
112505,-133.333333333333,4,2,3,25,0,0
112905,-133.333333333333,4,2,11,30,0,0
113305,-133.333333333333,4,2,12,30,0,0
113705,-133.333333333333,4,2,15,30,0,0
114105,-133.333333333333,4,2,6,25,0,0
114505,-133.333333333333,4,2,11,30,0,0
114905,-133.333333333333,4,2,12,30,0,0
115305,-133.333333333333,4,2,15,30,0,0
115705,-133.333333333333,4,2,4,25,0,0
116105,-133.333333333333,4,2,11,30,0,0
116505,-133.333333333333,4,2,12,30,0,0
116905,-133.333333333333,4,2,15,30,0,0
117305,-133.333333333333,4,2,4,25,0,0
117705,-133.333333333333,4,2,11,30,0,0
118105,-133.333333333333,4,2,12,30,0,0
118505,-133.333333333333,4,2,52,35,0,0
118705,-133.333333333333,4,2,53,35,0,0
118905,-133.333333333333,4,2,55,35,0,0
119105,-133.333333333333,4,2,56,35,0,0
119305,-133.333333333333,4,2,53,35,0,0
119705,-133.333333333333,4,2,51,35,0,0
119905,-133.333333333333,4,2,52,35,0,0
120105,-133.333333333333,4,2,15,35,0,0
120505,-133.333333333333,4,2,15,35,0,0
120705,-133.333333333333,4,2,16,35,0,0
120905,-133.333333333333,4,2,16,35,0,0
121105,-133.333333333333,4,2,51,35,0,0
121305,-133.333333333333,4,2,16,35,0,0
121705,-133.333333333333,4,2,15,35,0,0
121905,-133.333333333333,4,2,13,35,0,0
122105,-133.333333333333,4,2,12,35,0,0
122705,-133.333333333333,4,2,11,35,0,0
122905,-133.333333333333,4,2,12,35,0,0
123305,-133.333333333333,4,2,13,35,0,0
124105,-133.333333333333,4,2,11,30,0,0
124505,-133.333333333333,4,2,12,30,0,0
124905,-133.333333333333,4,2,15,30,0,0
125305,-133.333333333333,4,2,3,25,0,0
125705,-133.333333333333,4,2,11,30,0,0
126105,-133.333333333333,4,2,12,30,0,0
126505,-133.333333333333,4,2,15,30,0,0
126905,-133.333333333333,4,2,3,25,0,0
127305,-133.333333333333,4,2,11,30,0,0
127705,-133.333333333333,4,2,12,30,0,0
128105,-133.333333333333,4,2,15,30,0,0
128505,-133.333333333333,4,2,4,25,0,0
128905,-133.333333333333,4,2,11,30,0,0
129305,-133.333333333333,4,2,12,30,0,0
129705,-133.333333333333,4,2,15,30,0,0
130105,-133.333333333333,4,2,4,25,0,0
130505,-133.333333333333,4,2,11,30,0,0
130905,-133.333333333333,4,2,12,30,0,0
131305,-133.333333333333,4,2,92,35,0,0
131505,-133.333333333333,4,2,93,35,0,0
131705,-133.333333333333,4,2,95,35,0,0
131905,-133.333333333333,4,2,96,35,0,0
132105,-133.333333333333,4,2,93,35,0,0
132505,-133.333333333333,4,2,91,35,0,0
132705,-133.333333333333,4,2,92,35,0,0
132905,-133.333333333333,4,2,55,35,0,0
133505,-133.333333333333,4,2,56,35,0,0
133705,-133.333333333333,4,2,56,35,0,0
133905,-133.333333333333,4,2,91,35,0,0
134105,-133.333333333333,4,2,56,35,0,0
134505,-133.333333333333,4,2,55,35,0,0
134705,-133.333333333333,4,2,53,35,0,0
134905,-133.333333333333,4,2,52,35,0,0
135505,-133.333333333333,4,2,51,35,0,0
135705,-133.333333333333,4,2,52,35,0,0
136105,-133.333333333333,4,2,53,35,0,0
136905,-133.333333333333,4,2,11,30,0,0
137305,-133.333333333333,4,2,12,30,0,0
137705,-133.333333333333,4,2,15,30,0,0
138105,-133.333333333333,4,2,3,25,0,0
138505,-133.333333333333,4,2,11,30,0,0
138905,-133.333333333333,4,2,52,35,0,0
139105,-133.333333333333,4,2,53,35,0,0
139305,-133.333333333333,4,2,55,35,0,0
139505,-133.333333333333,4,2,56,35,0,0
139705,-133.333333333333,4,2,53,35,0,0
140105,-133.333333333333,4,2,51,35,0,0
140305,-133.333333333333,4,2,52,35,0,0
140505,-133.333333333333,4,2,15,25,0,0
140905,-133.333333333333,4,2,15,35,0,0
141105,-133.333333333333,4,2,16,35,0,0
141305,-133.333333333333,4,2,16,35,0,0
141505,-133.333333333333,4,2,51,35,0,0
141705,-133.333333333333,4,2,16,35,0,0
142105,-133.333333333333,4,2,15,35,0,0
142305,-133.333333333333,4,2,16,35,0,0
142505,-133.333333333333,4,2,16,30,0,0
142705,-133.333333333333,4,2,51,35,0,0
142905,-133.333333333333,4,2,52,35,0,0
143105,-133.333333333333,4,2,52,30,0,0
143305,-133.333333333333,4,2,53,35,0,0
143505,-133.333333333333,4,2,52,35,0,0
143905,-133.333333333333,4,2,16,35,0,0
144105,-133.333333333333,4,2,15,30,0,0
144305,-133.333333333333,4,2,15,35,0,0
144505,-133.333333333333,4,2,16,25,0,0
144905,-133.333333333333,4,2,11,25,0,0
145305,-133.333333333333,4,2,16,30,0,0
145505,-133.333333333333,4,2,15,35,0,0
145705,-133.333333333333,4,2,16,35,0,0
145905,-133.333333333333,4,2,51,35,0,0
146105,-133.333333333333,4,2,52,35,0,0
146305,-133.333333333333,4,2,51,35,0,0
146505,-133.333333333333,4,2,52,35,0,0
146705,-133.333333333333,4,2,53,35,0,0
146905,-133.333333333333,4,2,55,35,0,0
147105,-133.333333333333,4,2,53,35,0,0
147305,-133.333333333333,4,2,55,35,0,0
147505,-133.333333333333,4,2,91,35,0,0
147705,-133.333333333333,4,2,56,35,0,0
148505,-133.333333333333,4,2,55,35,0,0
148705,-133.333333333333,4,2,91,35,0,0
148905,-133.333333333333,4,2,92,35,0,0
149305,-100,4,2,93,35,0,0
149705,-100,4,2,11,25,0,0
150105,-100,4,2,95,35,0,0
150505,-100,4,2,51,25,0,0
150705,-100,4,2,92,35,0,0
151305,-100,4,2,12,25,0,0
151705,-100,4,2,93,35,0,0
152105,-100,4,2,52,25,0,0
152305,-100,4,2,91,35,0,0
152505,-100,4,2,92,35,0,0
152905,-100,4,2,13,25,0,0
153105,-100,4,2,15,35,0,0
153305,-100,4,2,93,35,0,0
153705,-100,4,2,52,25,0,0
154105,-100,4,2,91,35,0,0
154505,-100,4,2,13,25,0,0
154905,-100,4,2,55,35,0,0
155105,-100,4,2,91,35,0,0
155305,-100,4,2,92,35,0,0
155705,-100,4,2,93,35,0,0
156105,-100,4,2,11,25,0,0
156505,-100,4,2,95,35,0,0
156905,-100,4,2,51,25,0,0
157105,-100,4,2,92,35,0,0
157705,-100,4,2,12,25,0,0
158105,-100,4,2,93,35,0,0
158305,-100,4,2,92,35,0,0
158505,-100,4,2,52,25,0,0
158705,-100,4,2,92,35,0,0
158905,-100,4,2,93,35,0,0
159305,-100,4,2,13,25,0,0
159705,-100,4,2,93,35,0,0
160105,-100,4,2,92,35,0,0
160505,-100,4,2,91,35,0,0
161305,-100,4,2,51,35,0,0
161505,-100,4,2,55,35,0,0
161705,-100,4,2,56,35,0,0
162105,-100,4,2,55,35,0,0
162505,-100,4,2,11,20,0,0
162905,-100,4,2,93,35,0,0
163105,-100,4,2,92,35,0,0
163705,-100,4,2,91,35,0,0
164105,-100,4,2,11,20,0,0
164505,-100,4,2,91,35,0,0
164705,-100,4,2,55,35,0,0
164905,-100,4,2,56,35,0,0
165305,-100,4,2,55,35,0,0
165705,-100,4,2,5,30,0,0
166105,-100,4,2,93,35,0,0
166305,-100,4,2,92,35,0,0
167305,-100,4,2,6,30,0,0
167705,-100,4,2,92,35,0,0
167905,-100,4,2,91,35,0,0
168105,-100,4,2,15,30,0,0
168505,-100,4,2,57,35,0,0
168905,-100,4,2,12,25,0,0
169305,-100,4,2,56,35,0,0
169505,-100,4,2,57,35,0,0
169705,-100,4,2,55,35,0,0
170105,434.782608695652,4,2,56,35,1,0
170539,461.538461538462,4,2,5,25,1,0
171000,521.739130434783,4,2,12,25,1,0
171521,461.538461538462,4,2,13,25,1,0
171751,-100,4,2,55,35,0,0
171982,-100,4,2,56,35,0,0

[Colours]
Combo1 : 200,200,200
Combo2 : 62,158,255
Combo3 : 255,255,83
Combo4 : 62,255,255

[HitObjects]
14,281,13240,6,0,P|66:178|181:167,1,240,10|10,0:0|0:0,0:0:0:0:
257,224,14240,1,8,0:0:0:0:
302,139,14440,1,8,0:0:0:0:
286,113,14840,6,0,B|331:144|399:103|399:103|455:66|511:100,1,240,10|10,0:0|0:0,0:0:0:0:
511,100,16040,2,0,P|504:120|500:159,1,60,8|10,0:0|0:0,0:0:0:0:
408,188,16440,6,0,P|401:128|384:71,1,120,10|8,0:0|0:0,0:0:0:0:
384,71,17240,2,0,P|318:129|230:129,1,180,10|8,0:0|0:0,0:0:0:0:
188,42,18040,6,0,P|135:16|79:35,1,120,10|8,0:0|0:0,0:0:0:0:
86,226,18840,2,0,P|141:244|194:219,1,120,10|8,0:0|0:0,0:0:0:0:
466,276,19640,6,0,P|456:161|354:109,1,240,10|10,0:0|0:0,0:0:0:0:
303,190,20639,1,8,0:0:0:0:
225,132,20840,1,8,0:0:0:0:
240,105,21240,6,0,B|195:136|127:95|127:95|71:58|15:92,1,240,10|10,0:0|0:0,0:0:0:0:
15,92,22440,2,0,P|24:120|29:149,1,60,8|10,0:0|0:0,0:0:0:0:
0,242,22840,6,0,P|59:239|110:269,1,120,10|8,0:0|0:0,0:0:0:0:
240,105,23640,2,0,P|230:133|225:163,1,60,10|8,0:0|0:0,0:0:0:0:
278,242,24040,1,8,0:0:0:0:
155,376,24440,6,0,P|198:337|255:346,1,120,10|8,0:0|0:0,0:0:0:0:
407,272,25240,2,0,P|384:291|355:300,1,60,10|8,0:0|0:0,0:0:0:0:
278,242,25640,1,8,0:0:0:0:
192,43,26040,6,0,P|249:140|361:123,1,240,10|10,0:0|0:0,0:0:0:0:
400,35,27040,1,8,0:0:0:0:
486,77,27240,1,8,0:0:0:0:
512,63,27640,6,0,L|497:182,1,120,10|8,0:0|0:0,0:0:0:0:
415,306,28440,2,0,P|437:287|466:278,1,60,10|8,0:0|0:0,0:0:0:0:
512,362,28840,1,8,0:0:0:0:
320,341,29240,6,0,P|263:244|151:261,1,240,10|10,0:0|0:0,0:0:0:0:
112,349,30240,1,8,0:0:0:0:
26,307,30440,1,8,0:0:0:0:
0,321,30840,6,0,L|15:202,1,120,10|8,0:0|0:0,0:0:0:0:
97,78,31640,2,0,P|75:97|46:106,1,60,10|8,0:0|0:0,0:0:0:0:
0,22,32040,1,8,0:0:0:0:
15,200,32440,6,0,P|48:248|105:259,1,120,10|8,0:0|0:0,0:0:0:0:
262,130,33240,2,0,P|260:159|251:188,2,60,10|8|8,0:0|0:0|0:0,0:0:0:0:
160,347,34040,6,0,P|217:336|250:288,1,120,10|8,0:0|0:0,0:0:0:0:
425,149,34840,1,10,0:0:0:0:
431,244,35040,1,8,0:0:0:0:
356,300,35240,1,8,0:0:0:0:
356,300,35640,6,0,B|329:280|332:235|332:235|352:246|363:271,1,120,10|8,0:0|0:0,0:0:0:0:
512,195,36497,1,10,0:0:0:0:
512,195,36911,1,8,0:0:0:0:
422,205,37108,1,8,0:0:0:0:
350,147,37305,6,0,B|303:87|299:0|299:0|338:49|349:100,1,270.000010299683,10|0,0:0|0:0,0:0:0:0:
422,205,38905,5,10,0:0:0:0:
350,301,39305,1,8,0:0:0:0:
236,262,39705,1,8,0:0:0:0:
237,142,40105,1,8,0:0:0:0:
123,103,40505,5,10,0:0:0:0:
51,199,40905,1,8,0:0:0:0:
120,297,41305,1,8,0:0:0:0:
236,262,41705,1,8,0:0:0:0:
237,142,42105,5,10,0:0:0:0:
350,301,42505,1,8,0:0:0:0:
348,99,42905,1,8,0:0:0:0:
350,301,43305,1,8,0:0:0:0:
237,142,43705,5,10,0:0:0:0:
120,297,44105,1,8,0:0:0:0:
123,103,44505,1,8,0:0:0:0:
120,297,44905,1,8,0:0:0:0:
56,166,45305,6,0,P|32:113|43:55,1,120,10|8,0:0|0:0,0:0:0:0:
120,297,46105,2,0,P|62:305|10:276,1,120,8|8,0:0|0:0,0:0:0:0:
291,178,46905,6,0,P|237:203|179:192,1,120,10|8,0:0|0:0,0:0:0:0:
369,269,47705,2,0,P|376:328|349:379,1,120,8|8,0:0|0:0,0:0:0:0:
277,66,48505,6,0,P|266:123|291:177,1,120,10|8,0:0|0:0,0:0:0:0:
398,122,49305,2,0,P|448:150|507:142,1,120,8|8,0:0|0:0,0:0:0:0:
180,156,50105,6,0,P|232:184|291:177,1,120,10|8,0:0|0:0,0:0:0:0:
29,164,50905,2,0,P|71:123|82:65,1,120,10|8,0:0|0:0,0:0:0:0:
272,58,51705,6,0,L|291:177,1,120,10|0,0:0|0:0,0:0:0:0:
291,177,52506,1,8,0:0:0:0:
381,208,52706,1,8,0:0:0:0:
468,167,52906,1,8,0:0:0:0:
468,167,53305,2,0,L|449:285,1,120,14|8,0:0|0:0,0:0:0:0:
272,362,54105,2,0,P|221:330|162:327,1,120,10|8,0:0|0:0,0:0:0:0:
83,381,54705,1,10,0:0:0:0:
83,381,54905,6,0,P|45:269|51:150,1,240,14|10,0:0|0:0,0:0:0:0:
51,148,56105,2,0,P|75:164|104:172,1,60,0|8,0:0|0:0,0:0:0:0:
143,84,56505,6,0,P|195:54|253:44,1,120,14|8,0:0|0:0,0:0:0:0:
325,107,57105,1,2,0:0:0:0:
325,107,57305,2,0,P|377:137|435:147,1,120,10|8,0:0|0:0,0:0:0:0:
448,341,58105,6,0,P|389:353|336:380,1,120,14|0,0:0|0:0,0:0:0:0:
336,380,58905,1,8,0:0:0:0:
287,297,59105,1,8,0:0:0:0:
320,207,59305,1,8,0:0:0:0:
320,207,59705,2,0,P|373:234|431:246,1,120,14|8,0:0|0:0,0:0:0:0:
478,59,60505,2,0,P|436:101|378:107,1,120,10|0,0:0|0:0,0:0:0:0:
313,35,61105,1,10,0:0:0:0:
313,35,61305,6,0,P|351:147|345:266,1,240,14|10,0:0|0:0,0:0:0:0:
276,333,62305,1,10,0:0:0:0:
211,262,62505,1,0,0:0:0:0:
211,262,62905,6,0,P|152:272|100:301,1,120,14|8,0:0|0:0,0:0:0:0:
49,383,63505,1,2,0:0:0:0:
115,313,63705,1,10,0:0:0:0:
30,259,63905,1,8,0:0:0:0:
30,259,64105,1,0,0:0:0:0:
69,76,64505,6,0,P|136:170|252:181,1,240,14|10,0:0|0:0,0:0:0:0:
335,131,65505,1,8,0:0:0:0:
400,201,65705,1,8,0:0:0:0:
400,201,66105,2,0,L|378:319,1,120,14|8,0:0|0:0,0:0:0:0:
378,319,66905,2,0,P|364:292|360:262,1,60,10|8,0:0|0:0,0:0:0:0:
366,166,67305,1,0,0:0:0:0:
399,76,67505,1,0,0:0:0:0:
475,16,67705,6,0,P|408:110|292:121,1,240,14|8,0:0|0:0,0:0:0:0:
209,71,68705,1,8,0:0:0:0:
144,141,68905,1,8,0:0:0:0:
144,141,69305,2,0,L|165:259,1,120,14|8,0:0|0:0,0:0:0:0:
142,352,69905,1,0,0:0:0:0:
149,256,70105,1,10,0:0:0:0:
113,166,70305,1,8,0:0:0:0:
47,95,70505,1,0,0:0:0:0:
277,20,70905,6,0,P|256:75|249:135,1,120,14|8,0:0|0:0,0:0:0:0:
272,371,71705,1,10,0:0:0:0:
301,279,71905,1,8,0:0:0:0:
279,185,72105,2,0,P|268:158|249:135,1,60,8|0,0:0|0:0,0:0:0:0:
96,219,72505,6,0,P|148:247|207:250,1,120,14|8,0:0|0:0,0:0:0:0:
438,136,73305,1,10,0:0:0:0:
375,209,73505,1,8,0:0:0:0:
319,107,73705,1,8,0:0:0:0:
319,107,74105,6,0,B|330:82|350:71|350:71|353:116|326:136,1,120,14|8,0:0|0:0,0:0:0:0:
257,182,74905,1,8,0:0:0:0:
257,182,75305,1,8,0:0:0:0:
346,217,75505,1,8,0:0:0:0:
435,147,75705,6,0,B|458:127|478:118|478:118|448:161|417:172,1,135.000005149841,10|2,0:0|0:0,0:0:0:0:
346,217,76505,2,0,L|336:188,1,30,0|0,0:0|0:0,0:0:0:0:
65,207,77305,6,0,P|71:251|82:295,1,90.0000034332277,6|0,0:0|0:0,0:0:0:0:
233,161,78105,2,0,P|189:164|153:190,1,90.0000034332277,8|0,0:0|0:0,0:0:0:0:
92,123,78705,5,4,0:0:0:0:
92,123,78905,2,0,P|75:81|80:37,2,90.0000034332277,0|0|0,0:0|0:0|0:0,0:0:0:0:
165,71,79905,1,4,0:0:0:0:
165,71,80105,1,4,0:0:0:0:
434,80,80505,6,0,P|428:125|417:169,1,90.0000034332277,6|0,0:0|0:0,0:0:0:0:
317,265,81305,2,0,P|360:273|402:257,1,90.0000034332277,8|0,0:0|0:0,0:0:0:0:
328,176,81905,5,4,0:0:0:0:
328,176,82105,2,0,P|313:159|236:138,2,90.0000034332277,2|0|0,0:0|0:0|0:0,0:0:0:0:
317,265,83105,1,4,0:0:0:0:
317,265,83305,1,4,0:0:0:0:
56,339,83705,6,0,P|44:295|38:250,1,90.0000034332277,6|0,0:0|0:0,0:0:0:0:
94,83,84505,2,0,P|90:127|65:163,1,90.0000034332277,8|0,0:0|0:0,0:0:0:0:
126,230,85105,5,4,0:0:0:0:
126,230,85305,2,0,P|170:219|213:231,2,90.0000034332277,2|0|0,0:0|0:0|0:0,0:0:0:0:
145,317,86305,2,0,P|163:327|186:329,1,45.0000017166138,4|4,0:0|0:0,0:0:0:0:
457,323,86905,6,0,P|468:279|475:235,1,90.0000034332277,6|0,0:0|0:0,0:0:0:0:
356,143,87705,2,0,P|359:187|384:223,1,90.0000034332277,8|0,0:0|0:0,0:0:0:0:
442,153,88305,5,4,0:0:0:0:
442,153,88505,2,0,P|463:147|481:133,1,45.0000017166138,2|8,0:0|0:0,0:0:0:0:
494,44,88905,2,0,P|478:27|457:19,1,45.0000017166138,0|0,0:0|0:0,0:0:0:0:
373,53,89305,1,2,0:0:0:0:
373,53,89505,2,0,P|366:74|369:96,1,45.0000017166138,4|0,0:0|0:0,0:0:0:0:
474,337,90105,6,0,P|429:335|391:314,1,90.0000034332277,6|0,0:0|0:0,0:0:0:0:
494,163,90905,2,0,P|494:207|472:246,1,90.0000034332277,8|0,0:0|0:0,0:0:0:0:
384,223,91505,5,4,0:0:0:0:
384,223,91705,2,0,P|362:223|341:232,1,45.0000017166138,2|8,0:0|0:0,0:0:0:0:
334,322,92105,2,0,P|322:341|319:363,2,45.0000017166138,0|0|0,0:0|0:0|0:0,0:0:0:0:
261,268,92705,2,0,P|243:254|232:234,1,45.0000017166138,4|4,0:0|0:0,0:0:0:0:
287,2,93305,6,0,P|265:41|265:85,1,90.0000034332277,6|0,0:0|0:0,0:0:0:0:
447,74,94105,2,0,P|408:52|364:51,1,90.0000034332277,8|0,0:0|0:0,0:0:0:0:
336,137,94705,5,4,0:0:0:0:
336,137,94905,2,0,P|337:159|348:179,1,45.0000017166138,2|4,0:0|0:0,0:0:0:0:
352,269,95305,2,0,P|371:279|394:279,1,45.0000017166138,0|0,0:0|0:0,0:0:0:0:
503,289,95705,1,0,0:0:0:0:
503,289,95905,2,0,P|492:308|474:321,1,45.0000017166138,8|4,0:0|0:0,0:0:0:0:
212,341,96505,6,0,P|167:343|128:365,1,90.0000034332277,6|0,0:0|0:0,0:0:0:0:
144,157,97305,2,0,P|164:196|164:241,1,90.0000034332277,8|0,0:0|0:0,0:0:0:0:
87,287,97905,5,4,0:0:0:0:
87,287,98105,2,0,P|64:283|45:271,1,45.0000017166138,2|8,0:0|0:0,0:0:0:0:
58,182,98505,2,0,P|50:161|50:138,2,45.0000017166138,0|0|0,0:0|0:0|0:0,0:0:0:0:
144,157,99105,1,4,0:0:0:0:
144,157,99305,1,4,0:0:0:0:
305,358,99705,6,0,P|260:354|223:328,1,90.0000034332277,6|0,0:0|0:0,0:0:0:0:
427,225,100505,2,0,P|401:261|361:280,1,90.0000034332277,8|0,0:0|0:0,0:0:0:0:
278,244,101105,5,0,0:0:0:0:
278,244,101305,2,0,P|290:225|296:203,1,45.0000017166138,2|8,0:0|0:0,0:0:0:0:
329,119,101705,2,0,P|318:98|303:82,1,45.0000017166138,0|0,0:0|0:0,0:0:0:0:
246,12,102105,1,0,0:0:0:0:
246,12,102305,2,0,P|223:10|201:16,1,45.0000017166138,4|4,0:0|0:0,0:0:0:0:
0,166,102905,6,0,P|38:188|82:190,1,90.0000034332277,2|0,0:0|0:0,0:0:0:0:
194,111,103705,2,0,P|194:155|173:194,1,90.0000034332277,8|0,0:0|0:0,0:0:0:0:
86,299,104305,5,4,0:0:0:0:
86,299,104505,2,0,P|104:284|125:276,1,45.0000017166138,2|8,0:0|0:0,0:0:0:0:
174,350,104905,2,0,P|191:364|212:371,2,45.0000017166138,0|0|0,0:0|0:0|0:0,0:0:0:0:
237,285,105505,1,4,0:0:0:0:
237,285,105705,2,0,P|255:270|276:262,1,45.0000017166138,4|0,0:0|0:0,0:0:0:0:
330,332,106105,6,0,P|368:354|412:355,1,90.0000034332277,6|0,0:0|0:0,0:0:0:0:
413,162,106905,2,0,P|374:184|330:185,1,90.0000034332277,8|0,0:0|0:0,0:0:0:0:
279,111,107505,5,4,0:0:0:0:
279,111,107705,2,0,P|264:93|245:82,1,45.0000017166138,2|8,0:0|0:0,0:0:0:0:
208,5,108105,2,0,P|185:8|166:20,1,45.0000017166138,0|0,0:0|0:0,0:0:0:0:
76,5,108505,2,0,P|67:26|67:48,1,45.0000017166138,0|4,0:0|0:0,0:0:0:0:
11,119,108905,2,0,P|24:135|44:147,1,45.0000017166138,4|0,0:0|0:0,0:0:0:0:
132,128,109305,6,0,P|131:172|108:210,1,90.0000034332277,6|0,0:0|0:0,0:0:0:0:
92,374,110105,2,0,P|91:329|69:291,1,90.0000034332277,8|0,0:0|0:0,0:0:0:0:
161,282,110705,5,4,0:0:0:0:
161,282,110905,2,0,P|183:282|203:292,1,45.0000017166138,2|8,0:0|0:0,0:0:0:0:
289,269,111305,2,0,P|298:288|300:311,2,45.0000017166138,0|0|2,0:0|0:0|0:0,0:0:0:0:
228,202,111905,1,4,0:0:0:0:
228,202,112105,1,4,0:0:0:0:
285,30,112505,6,0,P|323:7|367:6,1,90.0000034332277,10|8,0:0|0:0,0:0:0:0:
512,93,113305,2,0,P|474:70|430:70,1,90.0000034332277,8|8,0:0|0:0,0:0:0:0:
368,136,113905,5,0,0:0:0:0:
368,136,114105,2,0,P|371:158|383:177,1,45.0000017166138,10|0,0:0|0:0,0:0:0:0:
392,266,114505,2,0,P|413:273|435:272,1,45.0000017166138,8|0,0:0|0:0,0:0:0:0:
436,272,114905,2,0,P|422:289|402:300,1,45.0000017166138,10|0,0:0|0:0,0:0:0:0:
348,373,115305,2,0,P|327:369|307:357,1,45.0000017166138,8|0,0:0|0:0,0:0:0:0:
217,369,115705,6,0,P|194:331|193:287,1,90.0000034332277,10|8,0:0|0:0,0:0:0:0:
157,129,116505,2,0,P|133:168|134:212,1,90.0000034332277,8|8,0:0|0:0,0:0:0:0:
223,206,117105,5,0,0:0:0:0:
223,206,117305,2,0,P|242:194|264:190,1,45.0000017166138,10|0,0:0|0:0,0:0:0:0:
334,133,117705,2,0,P|353:143|368:160,1,45.0000017166138,8|0,0:0|0:0,0:0:0:0:
449,201,118105,2,0,P|449:222|442:243,1,45.0000017166138,8|0,0:0|0:0,0:0:0:0:
368,160,118505,2,0,P|367:138|374:117,1,45.0000017166138,10|8,0:0|0:0,0:0:0:0:
412,35,118905,5,8,0:0:0:0:
386,121,119105,1,8,0:0:0:0:
296,122,119305,1,10,0:0:0:0:
289,133,119705,5,10,0:0:0:0:
217,78,119905,1,8,0:0:0:0:
144,130,120105,1,8,0:0:0:0:
152,141,120505,5,10,0:0:0:0:
126,227,120705,1,8,0:0:0:0:
36,228,120905,1,8,0:0:0:0:
36,228,121105,1,8,0:0:0:0:
37,328,121305,2,0,P|78:315|119:333,1,90.0000034332277,10|8,0:0|0:0,0:0:0:0:
218,343,121905,1,8,0:0:0:0:
218,343,122105,6,0,B|242:319|236:273|236:273|219:279|201:321,1,135.000005149841,10|8,0:0|0:0,0:0:0:0:
319,334,122905,2,0,P|359:352|401:339,2,90.0000034332277,10|8|10,0:0|0:0|0:0,0:0:0:0:
243,169,124105,5,8,0:0:0:0:
416,73,124505,1,10,0:0:0:0:
416,73,124705,1,0,0:0:0:0:
416,73,124905,2,0,P|407:93|403:115,1,45.0000017166138,8|0,0:0|0:0,0:0:0:0:
421,213,125305,6,0,P|381:202|333:193,1,90.0000034332277,10|8,0:0|0:0,0:0:0:0:
227,48,126105,2,0,P|182:56|139:67,1,90.0000034332277,8|8,0:0|0:0,0:0:0:0:
76,132,126705,5,0,0:0:0:0:
76,132,126905,2,0,P|111:158|155:157,1,90.0000034332277,10|8,0:0|0:0,0:0:0:0:
333,192,127705,2,0,P|320:211|302:225,1,45.0000017166138,8|0,0:0|0:0,0:0:0:0:
253,301,128105,2,0,P|230:299|210:288,1,45.0000017166138,8|0,0:0|0:0,0:0:0:0:
125,263,128505,6,0,P|127:276|141:351,1,90.0000034332277,10|8,0:0|0:0,0:0:0:0:
17,89,129305,2,0,P|14:102|0:177,1,90.0000034332277,8|8,0:0|0:0,0:0:0:0:
90,182,129905,5,0,0:0:0:0:
90,182,130105,2,0,P|125:155|169:156,1,90.0000034332277,10|8,0:0|0:0,0:0:0:0:
320,60,130905,2,0,P|302:45|282:36,1,45.0000017166138,8|0,0:0|0:0,0:0:0:0:
271,135,131305,2,0,P|270:158|264:179,1,45.0000017166138,10|8,0:0|0:0,0:0:0:0:
199,258,131705,5,8,0:0:0:0:
252,186,131905,1,8,0:0:0:0:
337,215,132105,1,10,0:0:0:0:
335,229,132505,5,10,0:0:0:0:
407,176,132705,1,8,0:0:0:0:
378,91,132905,1,8,0:0:0:0:
371,100,133305,5,10,0:0:0:0:
431,167,133505,1,8,0:0:0:0:
512,131,133705,1,8,0:0:0:0:
512,131,133905,1,8,0:0:0:0:
505,262,134105,2,0,P|464:249|423:267,1,90.0000034332277,10|8,0:0|0:0,0:0:0:0:
330,348,134705,1,8,0:0:0:0:
330,348,134905,6,0,B|306:324|312:278|312:278|329:284|347:326,1,135.000005149841,10|8,0:0|0:0,0:0:0:0:
233,360,135705,2,0,P|191:341|148:329,2,90.0000034332277,10|8|10,0:0|0:0|0:0,0:0:0:0:
151,201,136905,6,0,P|123:236|81:250,1,90.0000034332277,8|10,0:0|0:0,0:0:0:0:
10,194,137505,1,0,0:0:0:0:
51,114,137705,2,0,P|72:119|93:127,1,45.0000017166138,8|0,0:0|0:0,0:0:0:0:
179,96,138105,6,0,P|170:49|157:8,1,90.0000034332277,10|8,0:0|0:0,0:0:0:0:
354,43,138905,5,10,0:0:0:0:
268,71,139105,1,8,0:0:0:0:
268,161,139305,1,8,0:0:0:0:
354,189,139505,1,8,0:0:0:0:
406,116,139705,1,10,0:0:0:0:
396,121,140105,5,10,0:0:0:0:
367,206,140305,1,8,0:0:0:0:
439,259,140505,1,8,0:0:0:0:
433,248,140905,5,10,0:0:0:0:
344,233,141105,1,8,0:0:0:0:
268,281,141305,1,8,0:0:0:0:
253,369,141505,1,8,0:0:0:0:
164,351,141705,2,0,P|155:306|141:264,1,90.0000034332277,10|8,0:0|0:0,0:0:0:0:
57,230,142305,1,10,0:0:0:0:
79,133,142505,6,0,P|98:144|120:149,1,45.0000017166138,8|8,0:0|0:0,0:0:0:0:
122,168,142905,2,0,P|164:151|207:140,1,90.0000034332277,10|8,0:0|0:0,0:0:0:0:
252,218,143505,2,0,P|295:229|337:246,1,90.0000034332277,10|8,0:0|0:0,0:0:0:0:
395,314,144105,1,8,0:0:0:0:
395,314,144305,1,8,0:0:0:0:
438,235,144505,6,0,P|447:190|458:147,2,90.0000034332277,8|8|8,0:0|0:0|0:0,0:0:0:0:
395,314,145505,2,0,P|398:336|405:357,2,45.0000017166138,8|10|8,0:0|0:0|0:0,0:0:0:0:
261,203,146105,5,10,0:0:0:0:
313,276,146305,1,8,0:0:0:0:
261,349,146505,1,10,0:0:0:0:
175,321,146705,1,8,0:0:0:0:
175,231,146905,5,10,0:0:0:0:
189,318,147105,1,8,0:0:0:0:
112,362,147305,1,8,0:0:0:0:
46,300,147505,1,10,0:0:0:0:
84,218,147705,1,10,0:0:0:0:
58,30,148505,6,0,P|38:41|18:48,2,45.0000017166138,10|8|8,0:0|0:0|0:0,0:0:0:0:
0,128,149305,6,0,B|45:159|113:118|113:118|169:81|225:115,1,240,10|10,0:0|0:0,0:0:0:0:
225,115,150505,2,0,P|217:143|214:173,1,60,8|10,0:0|0:0,0:0:0:0:
338,197,150905,6,0,P|332:138|315:81,1,120,14|8,0:0|0:0,0:0:0:0:
315,81,151705,2,0,P|381:139|469:139,1,180,10|12,0:0|0:0,0:0:0:0:
499,230,152505,6,0,P|450:262|438:319,1,120,10|8,0:0|0:0,0:0:0:0:
353,365,153105,1,2,0:0:0:0:
353,365,153305,2,0,P|326:312|271:294,1,120,10|8,0:0|0:0,0:0:0:0:
194,351,153905,1,0,0:0:0:0:
194,351,154105,6,0,P|79:341|27:239,1,240,14|10,0:0|0:0,0:0:0:0:
76,157,155104,1,8,0:0:0:0:
144,226,155305,1,10,0:0:0:0:
153,197,155705,6,0,B|191:158|266:187|266:187|327:213|376:170,1,240,10|10,0:0|0:0,0:0:0:0:
377,170,156905,2,0,P|372:140|362:111,1,60,8|10,0:0|0:0,0:0:0:0:
329,20,157305,6,0,P|278:50|218:47,1,120,14|8,0:0|0:0,0:0:0:0:
219,48,158105,2,0,P|209:76|204:106,1,60,10|10,0:0|0:0,0:0:0:0:
233,197,158505,1,8,0:0:0:0:
50,255,158905,6,0,P|11:212|20:155,1,120,10|8,0:0|0:0,0:0:0:0:
204,105,159705,1,10,0:0:0:0:
197,340,160105,1,8,0:0:0:0:
305,212,160505,6,0,P|362:115|474:132,1,240,14|10,0:0|0:0,0:0:0:0:
511,221,161505,1,8,0:0:0:0:
511,220,161705,2,0,P|481:224|453:235,1,60,8|0,0:0|0:0,0:0:0:0:
468,329,162105,6,0,P|410:312|351:303,1,120,10|8,0:0|0:0,0:0:0:0:
351,303,162905,2,0,P|322:311|299:331,1,60,10|10,0:0|0:0,0:0:0:0:
220,384,163305,1,0,0:0:0:0:
53,211,163705,6,0,P|164:193|222:290,1,240,14|10,0:0|0:0,0:0:0:0:
311,255,164705,1,8,0:0:0:0:
311,255,164905,2,0,P|319:226|323:196,1,60,8|0,0:0|0:0,0:0:0:0:
245,140,165305,6,0,P|228:82|219:23,1,120,10|8,0:0|0:0,0:0:0:0:
219,23,166105,2,0,P|197:42|168:51,1,60,10|10,0:0|0:0,0:0:0:0:
86,0,166505,1,0,0:0:0:0:
0,177,166905,6,0,P|57:187|90:235,1,120,14|8,0:0|0:0,0:0:0:0:
263,171,167705,2,0,P|235:180|210:197,2,60,10|8|8,0:0|0:0|0:0,0:0:0:0:
392,323,168505,6,0,P|334:311|301:263,1,120,10|8,0:0|0:0,0:0:0:0:
324,69,169305,1,10,0:0:0:0:
384,144,169505,1,8,0:0:0:0:
479,138,169705,1,10,0:0:0:0:
479,138,170105,6,0,P|421:146|387:194,1,120,10|8,0:0|0:0,0:0:0:0:
413,319,171000,1,10,0:0:0:0:
293,336,171521,2,0,P|278:310|271:281,1,60,10|8,0:0|0:0,0:0:0:0:
256,192,171982,1,10,0:0:0:0:
