osu file format v14

[General]
AudioFilename: audio.mp3
AudioLeadIn: 0
PreviewTime: 51503
Countdown: 0
SampleSet: Soft
StackLeniency: 0.7
Mode: 0
LetterboxInBreaks: 0
WidescreenStoryboard: 1

[Editor]
Bookmarks: 13164,38628,44705,51622,58022,64422,70822,77322,112422,118422,147622
DistanceSpacing: 1.5
BeatDivisor: 4
GridSize: 4
TimelineZoom: 3.299999

[Metadata]
Title:Natsukage
TitleUnicode:夏影
Artist:Maeda Jun
ArtistUnicode:麻枝准
Creator:Gust
Version:Firika's Normal
Source:AIR
Tags:key sounds label visual novel galgame Instrumental video game Firika oiso misure
BeatmapID:2112355
BeatmapSetID:1006502

[Difficulty]
HPDrainRate:4
CircleSize:3
OverallDifficulty:4
ApproachRate:5
SliderMultiplier:1.2
SliderTickRate:1

[Events]
//Background and Video events
0,0,"normal.jpg",0,0
//Break Periods
//Storyboard Layer 0 (Background)
//Storyboard Layer 1 (Fail)
//Storyboard Layer 2 (Pass)
//Storyboard Layer 3 (Foreground)
//Storyboard Layer 4 (Overlay)
//Storyboard Sound Samples

[TimingPoints]
440,400,4,2,2,35,1,0
13240,-100,4,2,91,35,0,0
13640,-100,4,2,15,30,0,0
14040,-100,4,2,55,35,0,0
14240,-100,4,2,91,35,0,0
14440,-100,4,2,92,35,0,0
14840,-100,4,2,93,35,0,0
15240,-100,4,2,11,25,0,0
15640,-100,4,2,95,35,0,0
16040,-100,4,2,51,25,0,0
16240,-100,4,2,92,35,0,0
16840,-100,4,2,12,25,0,0
17240,-100,4,2,93,35,0,0
17640,-100,4,2,52,25,0,0
17840,-100,4,2,91,35,0,0
18040,-100,4,2,92,35,0,0
18440,-100,4,2,13,25,0,0
18840,-100,4,2,93,35,0,0
19240,-100,4,2,52,25,0,0
19640,-100,4,2,91,35,0,0
20040,-100,4,2,13,25,0,0
20440,-100,4,2,55,35,0,0
20640,-100,4,2,91,35,0,0
20840,-100,4,2,92,35,0,0
21240,-100,4,2,93,35,0,0
21640,-100,4,2,11,25,0,0
22040,-100,4,2,95,35,0,0
22440,-100,4,2,51,25,0,0
22640,-100,4,2,92,35,0,0
23240,-100,4,2,12,25,0,0
23640,-100,4,2,93,35,0,0
23840,-100,4,2,92,35,0,0
24040,-100,4,2,52,25,0,0
24440,-100,4,2,93,35,0,0
24840,-100,4,2,13,25,0,0
25240,-100,4,2,93,35,0,0
25440,-100,4,2,92,35,0,0
25640,-100,4,2,52,25,0,0
26040,-100,4,2,91,35,0,0
26440,-100,4,2,11,20,0,0
26840,-100,4,2,51,35,0,0
27040,-100,4,2,55,35,0,0
27240,-100,4,2,56,35,0,0
27640,-100,4,2,55,35,0,0
28040,-100,4,2,5,20,0,0
28440,-100,4,2,93,35,0,0
28640,-100,4,2,92,35,0,0
28840,-100,4,2,15,25,0,0
29240,-100,4,2,91,35,0,0
29640,-100,4,2,11,20,0,0
30040,-100,4,2,91,35,0,0
30240,-100,4,2,55,35,0,0
30440,-100,4,2,56,35,0,0
30840,-100,4,2,55,35,0,0
31240,-100,4,2,5,30,0,0
31640,-100,4,2,93,35,0,0
31840,-100,4,2,92,35,0,0
32040,-100,4,2,15,25,0,0
32440,-100,4,2,92,35,0,0
32840,-100,4,2,6,30,0,0
33240,-100,4,2,92,35,0,0
33440,-100,4,2,91,35,0,0
33640,-100,4,2,15,25,0,0
34040,-100,4,2,57,35,0,0
34440,-100,4,2,12,30,0,0
34840,-100,4,2,56,35,0,0
35040,-100,4,2,57,35,0,0
35240,-100,4,2,55,35,0,0
35640,444.444444444444,4,2,56,35,1,0
36084,413.793103448276,4,2,5,25,1,0
36497,-100,4,2,12,25,0,0
36911,394.736842105263,4,2,13,25,1,0
37105,-100,4,2,55,35,0,0
37305,400,4,2,56,35,1,0
37705,-100,4,2,56,15,0,0
39305,-100,4,2,91,35,0,0
39705,-100,4,2,92,35,0,0
40105,-100,4,2,95,35,0,0
40505,-100,4,2,55,35,0,0
40905,-100,4,2,91,35,0,0
41305,-100,4,2,92,35,0,0
41705,-100,4,2,95,35,0,0
42105,-100,4,2,55,35,0,0
42505,-100,4,2,91,35,0,0
42905,-100,4,2,92,35,0,0
43305,-100,4,2,95,35,0,0
43705,-100,4,2,55,35,0,0
44105,-100,4,2,91,35,0,0
44505,-100,4,2,92,35,0,0
44905,-100,4,2,95,35,0,0
45305,-100,4,2,55,35,0,0
45705,-100,4,2,91,35,0,0
46105,-100,4,2,92,35,0,0
46505,-100,4,2,95,35,0,0
46905,-100,4,2,55,35,0,0
47305,-100,4,2,91,35,0,0
47705,-100,4,2,92,35,0,0
48105,-100,4,2,95,35,0,0
48505,-100,4,2,55,35,0,0
48905,-100,4,2,91,35,0,0
49305,-100,4,2,92,35,0,0
49705,-100,4,2,95,35,0,0
50105,-100,4,2,55,35,0,0
50505,-100,4,2,91,35,0,0
50905,-100,4,2,92,35,0,0
51305,-100,4,2,95,35,0,0
51705,-100,4,2,91,35,0,0
52505,-100,4,2,55,35,0,0
52705,-100,4,2,91,35,0,0
52905,-100,4,2,92,35,0,0
53305,-100,4,2,93,35,0,0
53705,-100,4,2,11,25,0,0
54105,-100,4,2,95,35,0,0
54505,-100,4,2,51,25,0,0
54705,-100,4,2,92,35,0,0
55305,-100,4,2,12,25,0,0
55705,-100,4,2,93,35,0,0
56305,-100,4,2,91,35,0,0
56505,-100,4,2,92,35,0,0
56905,-100,4,2,13,25,0,0
57105,-100,4,2,13,35,0,0
57305,-100,4,2,93,35,0,0
57705,-100,4,2,52,25,0,0
57905,-100,4,2,52,25,0,0
58105,-100,4,2,91,35,0,0
58905,-100,4,2,55,35,0,0
59105,-100,4,2,91,35,0,0
59305,-100,4,2,92,35,0,0
59705,-100,4,2,93,35,0,0
60105,-100,4,2,11,25,0,0
60505,-100,4,2,95,35,0,0
61105,-100,4,2,92,35,0,0
61705,-100,4,2,12,25,0,0
62105,-100,4,2,93,35,0,0
62305,-100,4,2,92,35,0,0
62905,-100,4,2,93,35,0,0
63305,-100,4,2,13,25,0,0
63505,-100,4,2,15,35,0,0
63705,-100,4,2,93,35,0,0
63905,-100,4,2,92,35,0,0
64505,-100,4,2,91,35,0,0
64905,-100,4,2,6,20,0,0
65305,-100,4,2,51,35,0,0
65505,-100,4,2,55,35,0,0
65705,-100,4,2,56,35,0,0
66105,-100,4,2,55,35,0,0
66505,-100,4,2,5,30,0,0
66905,-100,4,2,93,35,0,0
67105,-100,4,2,92,35,0,0
67705,-100,4,2,91,35,0,0
68105,-100,4,2,6,30,0,0
68505,-100,4,2,91,35,0,0
68705,-100,4,2,55,35,0,0
68905,-100,4,2,56,35,0,0
69305,-100,4,2,55,35,0,0
69705,-100,4,2,5,30,0,0
69905,-100,4,2,5,35,0,0
70105,-100,4,2,93,35,0,0
70305,-100,4,2,92,35,0,0
71305,-100,4,2,6,30,0,0
71705,-100,4,2,92,35,0,0
71905,-100,4,2,91,35,0,0
72105,-100,4,2,15,25,0,0
72505,-100,4,2,57,35,0,0
72905,-100,4,2,12,30,0,0
73305,-100,4,2,56,35,0,0
73505,-100,4,2,57,35,0,0
73705,-100,4,2,55,35,0,0
74105,-100,4,2,56,35,0,0
74505,-100,4,2,5,25,0,0
74905,-100,4,2,12,25,0,0
75305,-100,4,2,13,25,0,0
75505,-100,4,2,55,35,0,0
75705,-100,4,2,56,35,0,0
77305,-133.333333333333,4,2,10,25,0,0
90505,-133.333333333333,4,2,10,25,0,0
91305,-133.333333333333,4,2,10,25,0,0
91505,-133.333333333333,4,2,10,35,0,0
91905,-133.333333333333,4,2,10,35,0,0
92505,-133.333333333333,4,2,10,35,0,0
93705,-133.333333333333,4,2,10,35,0,0
94505,-133.333333333333,4,2,10,35,0,0
95105,-133.333333333333,4,2,10,35,0,0
95705,-133.333333333333,4,2,10,35,0,0
96905,-133.333333333333,4,2,10,35,0,0
97705,-133.333333333333,4,2,10,35,0,0
98305,-133.333333333333,4,2,10,35,0,0
98905,-133.333333333333,4,2,10,35,0,0
100105,-133.333333333333,4,2,10,35,0,0
100905,-133.333333333333,4,2,10,35,0,0
101505,-133.333333333333,4,2,10,35,0,0
102105,-133.333333333333,4,2,10,35,0,0
103305,-133.333333333333,4,2,10,35,0,0
104105,-133.333333333333,4,2,10,35,0,0
104705,-133.333333333333,4,2,10,35,0,0
105305,-133.333333333333,4,2,10,35,0,0
106505,-133.333333333333,4,2,10,35,0,0
107305,-133.333333333333,4,2,10,35,0,0
107905,-133.333333333333,4,2,10,35,0,0
108505,-133.333333333333,4,2,10,35,0,0
109705,-133.333333333333,4,2,10,35,0,0
110505,-133.333333333333,4,2,10,35,0,0
111105,-133.333333333333,4,2,10,35,0,0
111705,-133.333333333333,4,2,10,35,0,0
112505,-133.333333333333,4,2,3,25,0,0
112905,-133.333333333333,4,2,11,30,0,0
113305,-133.333333333333,4,2,12,30,0,0
113705,-133.333333333333,4,2,15,30,0,0
114105,-133.333333333333,4,2,6,25,0,0
114505,-133.333333333333,4,2,11,30,0,0
114905,-133.333333333333,4,2,12,30,0,0
115305,-133.333333333333,4,2,15,30,0,0
115705,-133.333333333333,4,2,4,25,0,0
116105,-133.333333333333,4,2,11,30,0,0
116505,-133.333333333333,4,2,12,30,0,0
116905,-133.333333333333,4,2,15,30,0,0
117305,-133.333333333333,4,2,4,25,0,0
117705,-133.333333333333,4,2,11,30,0,0
118105,-133.333333333333,4,2,12,30,0,0
118505,-133.333333333333,4,2,52,35,0,0
118705,-133.333333333333,4,2,53,35,0,0
118905,-133.333333333333,4,2,55,35,0,0
119105,-133.333333333333,4,2,56,35,0,0
119305,-133.333333333333,4,2,53,35,0,0
119705,-133.333333333333,4,2,51,35,0,0
119905,-133.333333333333,4,2,52,35,0,0
120105,-133.333333333333,4,2,15,35,0,0
120505,-133.333333333333,4,2,15,35,0,0
120705,-133.333333333333,4,2,16,35,0,0
120905,-133.333333333333,4,2,16,35,0,0
121105,-133.333333333333,4,2,51,35,0,0
121305,-133.333333333333,4,2,16,35,0,0
121705,-133.333333333333,4,2,15,35,0,0
121905,-133.333333333333,4,2,13,35,0,0
122105,-133.333333333333,4,2,12,35,0,0
122705,-133.333333333333,4,2,11,35,0,0
122905,-133.333333333333,4,2,12,35,0,0
123305,-133.333333333333,4,2,13,35,0,0
123905,-133.333333333333,4,2,13,35,0,0
124105,-133.333333333333,4,2,11,30,0,0
124505,-133.333333333333,4,2,12,30,0,0
124905,-133.333333333333,4,2,15,30,0,0
125305,-133.333333333333,4,2,3,25,0,0
125705,-133.333333333333,4,2,11,30,0,0
126105,-133.333333333333,4,2,12,30,0,0
126505,-133.333333333333,4,2,15,30,0,0
126905,-133.333333333333,4,2,3,25,0,0
127305,-133.333333333333,4,2,11,30,0,0
127705,-133.333333333333,4,2,12,30,0,0
128105,-133.333333333333,4,2,15,30,0,0
128505,-133.333333333333,4,2,4,25,0,0
128905,-133.333333333333,4,2,11,30,0,0
129305,-133.333333333333,4,2,12,30,0,0
129705,-133.333333333333,4,2,15,30,0,0
130105,-133.333333333333,4,2,4,25,0,0
130505,-133.333333333333,4,2,11,30,0,0
130905,-133.333333333333,4,2,12,30,0,0
131305,-133.333333333333,4,2,92,35,0,0
131505,-133.333333333333,4,2,93,35,0,0
131705,-133.333333333333,4,2,95,35,0,0
131905,-133.333333333333,4,2,96,35,0,0
132105,-133.333333333333,4,2,93,35,0,0
132505,-133.333333333333,4,2,91,35,0,0
132705,-133.333333333333,4,2,92,35,0,0
132905,-133.333333333333,4,2,55,35,0,0
133505,-133.333333333333,4,2,56,35,0,0
133705,-133.333333333333,4,2,56,35,0,0
133905,-133.333333333333,4,2,91,35,0,0
134105,-133.333333333333,4,2,56,35,0,0
134505,-133.333333333333,4,2,55,35,0,0
134705,-133.333333333333,4,2,53,35,0,0
134905,-133.333333333333,4,2,52,35,0,0
135505,-133.333333333333,4,2,51,35,0,0
135705,-133.333333333333,4,2,52,35,0,0
136105,-133.333333333333,4,2,53,35,0,0
136705,-133.333333333333,4,2,53,35,0,0
136905,-133.333333333333,4,2,11,30,0,0
137305,-133.333333333333,4,2,12,30,0,0
137705,-133.333333333333,4,2,15,30,0,0
138105,-133.333333333333,4,2,3,25,0,0
138505,-133.333333333333,4,2,11,30,0,0
138905,-133.333333333333,4,2,52,35,0,0
139105,-133.333333333333,4,2,53,35,0,0
139305,-133.333333333333,4,2,55,35,0,0
139505,-133.333333333333,4,2,56,35,0,0
139705,-133.333333333333,4,2,53,35,0,0
140105,-133.333333333333,4,2,51,35,0,0
140305,-133.333333333333,4,2,52,35,0,0
140505,-133.333333333333,4,2,15,25,0,0
140905,-133.333333333333,4,2,15,35,0,0
141105,-133.333333333333,4,2,16,35,0,0
141305,-133.333333333333,4,2,16,35,0,0
141505,-133.333333333333,4,2,51,35,0,0
141705,-133.333333333333,4,2,16,35,0,0
142105,-133.333333333333,4,2,15,35,0,0
142305,-133.333333333333,4,2,16,35,0,0
142505,-133.333333333333,4,2,16,30,0,0
142705,-133.333333333333,4,2,51,35,0,0
142905,-133.333333333333,4,2,52,35,0,0
143105,-133.333333333333,4,2,52,30,0,0
143305,-133.333333333333,4,2,53,35,0,0
143505,-133.333333333333,4,2,52,35,0,0
143905,-133.333333333333,4,2,16,35,0,0
144105,-133.333333333333,4,2,15,30,0,0
144305,-133.333333333333,4,2,15,35,0,0
144505,-133.333333333333,4,2,16,25,0,0
144905,-133.333333333333,4,2,11,25,0,0
145305,-133.333333333333,4,2,16,30,0,0
145505,-133.333333333333,4,2,15,35,0,0
145705,-133.333333333333,4,2,16,35,0,0
145905,-133.333333333333,4,2,51,35,0,0
146105,-133.333333333333,4,2,52,35,0,0
146305,-133.333333333333,4,2,51,35,0,0
146505,-133.333333333333,4,2,52,35,0,0
146705,-133.333333333333,4,2,53,35,0,0
146905,-133.333333333333,4,2,55,35,0,0
147105,-133.333333333333,4,2,53,35,0,0
147305,-133.333333333333,4,2,55,35,0,0
147505,-133.333333333333,4,2,91,35,0,0
147705,-133.333333333333,4,2,56,35,0,0
148505,-133.333333333333,4,2,55,35,0,0
148705,-133.333333333333,4,2,91,35,0,0
148905,-133.333333333333,4,2,92,35,0,0
149305,-100,4,2,93,35,0,0
149705,-100,4,2,11,25,0,0
150105,-100,4,2,95,35,0,0
150505,-100,4,2,51,25,0,0
150705,-100,4,2,92,35,0,0
151305,-100,4,2,12,25,0,0
151705,-100,4,2,93,35,0,0
152105,-100,4,2,52,25,0,0
152305,-100,4,2,91,35,0,0
152505,-100,4,2,92,35,0,0
152905,-100,4,2,13,25,0,0
153105,-100,4,2,15,35,0,0
153305,-100,4,2,93,35,0,0
153705,-100,4,2,52,25,0,0
154105,-100,4,2,91,35,0,0
154505,-100,4,2,13,25,0,0
154905,-100,4,2,55,35,0,0
155105,-100,4,2,91,35,0,0
155305,-100,4,2,92,35,0,0
155705,-100,4,2,93,35,0,0
156105,-100,4,2,11,25,0,0
156505,-100,4,2,95,35,0,0
156905,-100,4,2,51,25,0,0
157105,-100,4,2,92,35,0,0
157705,-100,4,2,12,25,0,0
158105,-100,4,2,93,35,0,0
158305,-100,4,2,92,35,0,0
158505,-100,4,2,52,25,0,0
158705,-100,4,2,92,35,0,0
158905,-100,4,2,93,35,0,0
159305,-100,4,2,13,25,0,0
159505,-100,4,2,13,25,0,0
159705,-100,4,2,93,35,0,0
160105,-100,4,2,92,35,0,0
160505,-100,4,2,91,35,0,0
161305,-100,4,2,51,35,0,0
161505,-100,4,2,55,35,0,0
161705,-100,4,2,56,35,0,0
162105,-100,4,2,55,35,0,0
162505,-100,4,2,11,20,0,0
162905,-100,4,2,93,35,0,0
163105,-100,4,2,92,35,0,0
163705,-100,4,2,91,35,0,0
164105,-100,4,2,11,20,0,0
164505,-100,4,2,91,35,0,0
164705,-100,4,2,55,35,0,0
164905,-100,4,2,56,35,0,0
165305,-100,4,2,55,35,0,0
165705,-100,4,2,5,30,0,0
166105,-100,4,2,93,35,0,0
166305,-100,4,2,92,35,0,0
167305,-100,4,2,6,30,0,0
167705,-100,4,2,92,35,0,0
167905,-100,4,2,91,35,0,0
168105,-100,4,2,15,30,0,0
168505,-100,4,2,57,35,0,0
168905,-100,4,2,12,25,0,0
169305,-100,4,2,56,35,0,0
169505,-100,4,2,57,35,0,0
169705,-100,4,2,55,35,0,0
170105,434.782608695652,4,2,56,35,1,0
170539,461.538461538462,4,2,5,25,1,0
171000,521.739130434783,4,2,12,25,1,0
171521,461.538461538462,4,2,13,25,1,0
171751,-100,4,2,55,35,0,0
171982,-133.333333333333,4,2,56,35,0,0
172444,-133.333333333333,4,2,56,15,0,0

[Colours]
Combo1 : 200,200,200
Combo2 : 62,158,255
Combo3 : 255,255,83
Combo4 : 62,255,255

[HitObjects]
32,259,13240,6,0,P|75:210|127:199,1,120,10|8,0:0|0:0,0:0:0:0:
286,283,14040,2,0,L|278:345,2,60,10|8|8,0:0|0:0|0:0,0:0:0:0:
359,118,14840,2,0,L|239:133,1,120,10|8,0:0|0:0,0:0:0:0:
70,69,15640,2,0,L|85:189,1,120,10|8,0:0|0:0,0:0:0:0:
52,272,16240,1,10,0:0:0:0:
52,272,16440,6,0,P|57:302|135:337,1,120,10|8,0:0|0:0,0:0:0:0:
202,173,17240,2,0,P|261:180|307:224,1,120,10|8,0:0|0:0,0:0:0:0:
333,305,17840,1,8,0:0:0:0:
333,305,18040,2,0,L|458:317,1,120,10|8,0:0|0:0,0:0:0:0:
495,141,18840,2,0,L|370:129,1,120,10|8,0:0|0:0,0:0:0:0:
208,61,19640,6,0,P|195:118|221:171,1,120,10|8,0:0|0:0,0:0:0:0:
348,299,20440,2,0,P|394:310|420:329,2,60,10|8|8,0:0|0:0|0:0,0:0:0:0:
177,356,21240,2,0,L|45:344,1,120,10|8,0:0|0:0,0:0:0:0:
20,168,22040,2,0,L|152:156,1,120,10|8,0:0|0:0,0:0:0:0:
205,96,22640,1,10,0:0:0:0:
205,96,22840,6,0,P|261:69|315:95,1,120,10|8,0:0|0:0,0:0:0:0:
267,265,23640,1,10,0:0:0:0:
267,265,23840,2,0,P|317:299|391:289,1,120,8|0,0:0|0:0,0:0:0:0:
458,263,24440,2,0,L|471:141,1,120,10|8,0:0|0:0,0:0:0:0:
348,11,25240,1,10,0:0:0:0:
348,11,25440,2,0,P|290:49|233:46,1,120,8|0,0:0|0:0,0:0:0:0:
163,94,26040,6,0,P|116:57|57:50,1,120,10|8,0:0|0:0,0:0:0:0:
128,216,26840,2,0,L|187:207,2,60,10|8|8,0:0|0:0|0:0,0:0:0:0:
31,368,27640,2,0,P|93:332|148:352,1,120,10|8,0:0|0:0,0:0:0:0:
311,299,28440,1,10,0:0:0:0:
311,299,28640,2,0,P|324:241|299:181,1,120,8|0,0:0|0:0,0:0:0:0:
221,145,29240,6,0,P|211:96|260:32,1,120,10|8,0:0|0:0,0:0:0:0:
425,21,30040,2,0,L|493:15,2,60,10|8|8,0:0|0:0|0:0,0:0:0:0:
322,168,30840,2,0,P|368:205|438:207,1,120,10|8,0:0|0:0,0:0:0:0:
490,379,31640,1,10,0:0:0:0:
490,379,31840,2,0,P|427:348|358:360,1,120,8|0,0:0|0:0,0:0:0:0:
300,307,32440,6,0,P|240:314|190:346,1,120,10|8,0:0|0:0,0:0:0:0:
48,233,33240,1,10,0:0:0:0:
48,233,33440,2,0,P|93:171|152:169,1,120,8|0,0:0|0:0,0:0:0:0:
206,112,34040,2,0,L|346:142,1,120,10|8,0:0|0:0,0:0:0:0:
471,238,34840,2,0,L|478:302,2,60,10|8|8,0:0|0:0|0:0,0:0:0:0:
453,76,35640,6,0,P|381:69|340:93,1,120,10|8,0:0|0:0,0:0:0:0:
168,135,36497,2,0,P|197:186|253:205,1,120,10|8,0:0|0:0,0:0:0:0:
339,180,37108,1,8,0:0:0:0:
339,180,37305,6,0,B|438:113|505:256|439:326|279:352,1,360,10|0,0:0|0:0,0:0:0:0:
137,261,38905,6,0,L|18:277,2,120,10|8|8,0:0|0:0|0:0,0:0:0:0:
256,125,40105,1,8,0:0:0:0:
375,261,40505,2,0,L|494:277,2,120,10|8|8,0:0|0:0|0:0,0:0:0:0:
256,125,41705,1,8,0:0:0:0:
415,41,42105,6,0,P|463:49|503:115,2,120,10|8|8,0:0|0:0|0:0,0:0:0:0:
256,125,43305,1,8,0:0:0:0:
97,41,43705,2,0,P|49:49|9:115,2,120,10|8|8,0:0|0:0|0:0,0:0:0:0:
256,125,44905,1,8,0:0:0:0:
171,284,45305,6,0,B|120:316|120:316|61:305,1,120,10|8,0:0|0:0,0:0:0:0:
60,125,46105,2,0,B|118:112|118:112|169:141,1,120,8|8,0:0|0:0,0:0:0:0:
317,246,46905,2,0,L|331:374,1,120,10|8,0:0|0:0,0:0:0:0:
485,274,47705,2,0,L|471:146,1,120,8|8,0:0|0:0,0:0:0:0:
317,61,48505,6,0,P|246:69|203:115,1,120,10|8,0:0|0:0,0:0:0:0:
63,202,49305,2,0,P|105:259|166:273,1,120,8|8,0:0|0:0,0:0:0:0:
323,224,50105,2,0,P|365:271|366:333,1,120,10|8,0:0|0:0,0:0:0:0:
470,178,50905,2,0,P|428:131|427:69,1,120,10|8,0:0|0:0,0:0:0:0:
251,28,51705,6,0,L|239:173,1,120,10|0,0:0|0:0,0:0:0:0:
183,317,52505,2,0,L|123:321,1,60,8|8,0:0|0:0,0:0:0:0:
46,272,52905,1,8,0:0:0:0:
128,111,53305,2,0,P|187:120|240:146,1,120,14|8,0:0|0:0,0:0:0:0:
409,209,54105,2,0,P|349:216|296:243,1,120,10|8,0:0|0:0,0:0:0:0:
272,329,54705,1,10,0:0:0:0:
185,353,54905,6,0,P|125:344|72:318,1,120,14|8,0:0|0:0,0:0:0:0:
27,144,55705,2,0,P|80:117|139:109,1,120,10|0,0:0|0:0,0:0:0:0:
199,42,56305,1,8,0:0:0:0:
199,42,56505,2,0,P|255:60|315:60,1,120,14|8,0:0|0:0,0:0:0:0:
394,18,57105,1,2,0:0:0:0:
469,67,57305,2,0,P|463:122|443:195,1,120,10|8,0:0|0:0,0:0:0:0:
458,273,57905,1,0,0:0:0:0:
395,338,58105,6,0,P|333:333|270:309,1,120,14|0,0:0|0:0,0:0:0:0:
154,182,58905,2,0,L|162:115,1,60,8|8,0:0|0:0,0:0:0:0:
223,57,59305,1,8,0:0:0:0:
47,16,59705,2,0,P|34:95|37:153,1,120,14|8,0:0|0:0,0:0:0:0:
61,311,60505,2,0,P|116:290|176:284,1,120,10|0,0:0|0:0,0:0:0:0:
250,232,61105,1,10,0:0:0:0:
316,292,61305,6,0,P|371:313|431:319,1,120,14|8,0:0|0:0,0:0:0:0:
476,144,62105,1,10,0:0:0:0:
423,70,62305,2,0,P|367:48|307:42,1,120,10|0,0:0|0:0,0:0:0:0:
217,43,62905,2,0,P|241:97|250:156,1,120,14|8,0:0|0:0,0:0:0:0:
200,232,63505,1,2,0:0:0:0:
212,321,63705,2,0,P|241:328|266:343,1,60,10|8,0:0|0:0,0:0:0:0:
447,352,64305,1,0,0:0:0:0:
485,270,64505,6,0,P|475:210|451:156,1,120,14|8,0:0|0:0,0:0:0:0:
319,33,65305,2,0,L|379:25,1,60,10|8,0:0|0:0,0:0:0:0:
460,62,65705,1,8,0:0:0:0:
358,210,66105,2,0,P|303:185|244:176,1,120,14|8,0:0|0:0,0:0:0:0:
162,15,66905,1,10,0:0:0:0:
77,47,67105,2,0,P|70:106|49:162,1,120,8|0,0:0|0:0,0:0:0:0:
90,242,67705,6,0,P|145:263|205:269,1,120,14|8,0:0|0:0,0:0:0:0:
384,258,68505,2,0,P|385:292|375:324,1,60,8|8,0:0|0:0,0:0:0:0:
308,373,68905,1,8,0:0:0:0:
280,195,69305,2,0,P|335:173|395:167,1,120,14|8,0:0|0:0,0:0:0:0:
460,104,69905,1,0,0:0:0:0:
415,26,70105,1,10,0:0:0:0:
415,26,70305,2,0,P|359:47|299:53,1,120,8|0,0:0|0:0,0:0:0:0:
210,40,70905,6,0,P|188:95|182:155,1,120,14|8,0:0|0:0,0:0:0:0:
223,331,71705,2,0,L|162:336,1,60,10|8,0:0|0:0,0:0:0:0:
81,372,72105,1,8,0:0:0:0:
14,204,72505,2,0,P|73:210|129:231,1,120,14|8,0:0|0:0,0:0:0:0:
294,159,73305,2,0,P|301:106|299:84,1,60,10|8,0:0|0:0,0:0:0:0:
251,23,73705,1,8,0:0:0:0:
426,64,74105,6,0,P|447:119|453:179,1,120,14|8,0:0|0:0,0:0:0:0:
481,357,74905,2,0,P|425:335|365:329,1,120,8|8,0:0|0:0,0:0:0:0:
200,257,75705,2,0,P|143:277|84:284,1,120,10|0,0:0|0:0,0:0:0:0:
23,218,76305,2,0,P|33:178|48:159,2,60,2|0|0,0:0|0:0|0:0,0:0:0:0:
254,78,77305,6,0,P|303:63|356:83,2,90.0000034332277,6|0|8,0:0|0:0|0:0,0:0:0:0:
136,214,78505,1,0,0:0:0:0:
136,214,78705,1,4,0:0:0:0:
217,251,78905,2,0,L|232:349,2,90.0000034332277,0|0|0,0:0|0:0|0:0,0:0:0:0:
282,189,79905,1,4,0:0:0:0:
365,223,80105,2,0,L|417:215,1,45.0000017166138,4|0,0:0|0:0,0:0:0:0:
484,165,80505,6,0,P|486:120|469:79,2,90.0000034332277,6|0|8,0:0|0:0|0:0,0:0:0:0:
398,323,81705,1,0,0:0:0:0:
398,323,81905,1,4,0:0:0:0:
333,260,82105,2,0,L|347:161,2,90.0000034332277,2|0|0,0:0|0:0|0:0,0:0:0:0:
259,312,83105,1,4,0:0:0:0:
188,255,83305,2,0,L|143:263,1,45.0000017166138,4|0,0:0|0:0,0:0:0:0:
54,277,83705,6,0,P|32:315|36:360,2,90.0000034332277,6|0|8,0:0|0:0|0:0,0:0:0:0:
206,181,84905,1,0,0:0:0:0:
206,181,85105,1,4,0:0:0:0:
267,248,85305,2,0,L|261:346,2,90.0000034332277,2|0|0,0:0|0:0|0:0,0:0:0:0:
334,187,86305,1,4,0:0:0:0:
312,100,86505,2,0,L|257:96,1,45.0000017166138,4|0,0:0|0:0,0:0:0:0:
195,150,86905,6,0,P|157:140|89:153,2,90.0000034332277,6|0|8,0:0|0:0|0:0,0:0:0:0:
313,285,88105,1,0,0:0:0:0:
313,285,88305,1,4,0:0:0:0:
390,238,88505,2,0,L|495:254,2,90.0000034332277,2|0|2,0:0|0:0|0:0,0:0:0:0:
329,171,89505,1,4,0:0:0:0:
393,108,89705,2,0,L|447:102,1,45.0000017166138,0|0,0:0|0:0,0:0:0:0:
395,23,90105,6,0,L|122:44,1,270.000010299683,6|0,0:0|0:0,0:0:0:0:
47,88,91505,2,0,L|271:70,1,225.000008583069,4|0,0:0|0:0,0:0:0:0:
351,113,92705,1,4,0:0:0:0:
273,160,92905,2,0,L|228:163,1,45.0000017166138,4|0,0:0|0:0,0:0:0:0:
157,108,93305,6,0,P|76:124|65:295,1,270.000010299683,6|0,0:0|0:0,0:0:0:0:
123,345,94705,2,0,P|233:332|337:372,1,225.000008583069,4|0,0:0|0:0,0:0:0:0:
422,343,95905,1,8,0:0:0:0:
354,284,96105,2,0,P|353:261|358:239,1,45.0000017166138,4|0,0:0|0:0,0:0:0:0:
426,179,96505,6,0,L|144:195,1,270.000010299683,6|0,0:0|0:0,0:0:0:0:
72,160,97905,2,0,L|296:147,1,225.000008583069,4|0,0:0|0:0,0:0:0:0:
358,82,99105,1,4,0:0:0:0:
447,70,99305,2,0,L|485:106,1,45.0000017166138,4|0,0:0|0:0,0:0:0:0:
488,190,99705,6,0,P|472:278|317:281,1,270.000010299683,6|0,0:0|0:0,0:0:0:0:
232,252,101105,2,0,P|243:141|189:45,1,225.000008583069,8|0,0:0|0:0,0:0:0:0:
105,12,102305,1,4,0:0:0:0:
36,70,102505,2,0,P|23:101|22:127,1,45.0000017166138,4|0,0:0|0:0,0:0:0:0:
41,201,102905,6,0,B|155:245|190:140|302:181,1,270.000010299683,2|0,0:0|0:0,0:0:0:0:
376,231,104305,2,0,P|459:231|477:110,1,225.000008583069,4|0,0:0|0:0,0:0:0:0:
419,43,105505,1,4,0:0:0:0:
334,75,105705,2,0,P|305:71|280:58,1,45.0000017166138,4|0,0:0|0:0,0:0:0:0:
207,28,106105,6,0,L|223:306,1,270.000010299683,6|0,0:0|0:0,0:0:0:0:
140,336,107505,2,0,L|127:111,1,225.000008583069,4|0,0:0|0:0,0:0:0:0:
57,53,108705,1,4,0:0:0:0:
8,128,108905,2,0,L|10:172,1,45.0000017166138,4|0,0:0|0:0,0:0:0:0:
72,238,109305,6,0,P|168:208|314:289,1,270.000010299683,6|0,0:0|0:0,0:0:0:0:
380,341,110705,2,0,P|435:335|429:191,1,225.000008583069,4|2,0:0|0:0,0:0:0:0:
430,107,111905,1,4,0:0:0:0:
345,75,112105,2,0,P|326:87|305:94,1,45.0000017166138,4|0,0:0|0:0,0:0:0:0:
215,102,112505,6,0,L|227:11,2,90.0000034332277,10|8|8,0:0|0:0|0:0,0:0:0:0:
146,268,113705,1,8,0:0:0:0:
146,268,113905,1,0,0:0:0:0:
93,195,114105,2,0,P|56:188|-8:200,2,90.0000034332277,10|8|10,0:0|0:0|0:0,0:0:0:0:
166,142,115105,1,0,0:0:0:0:
241,190,115305,2,0,P|250:218|249:248,1,45.0000017166138,8|0,0:0|0:0,0:0:0:0:
222,318,115705,6,0,L|122:324,2,90.0000034332277,10|8|8,0:0|0:0|0:0,0:0:0:0:
327,171,116905,1,8,0:0:0:0:
327,171,117105,1,0,0:0:0:0:
372,249,117305,2,0,P|416:243|458:258,2,90.0000034332277,10|8|8,0:0|0:0|0:0,0:0:0:0:
303,307,118305,1,0,0:0:0:0:
245,238,118505,2,0,L|237:186,1,45.0000017166138,10|8,0:0|0:0,0:0:0:0:
166,139,118905,6,0,P|145:130|122:128,2,45.0000017166138,8|8|10,0:0|0:0|0:0,0:0:0:0:
345,139,119705,2,0,P|366:130|389:128,2,45.0000017166138,10|8|8,0:0|0:0|0:0,0:0:0:0:
256,295,120505,2,0,L|256:340,1,45.0000017166138,10|8,0:0|0:0,0:0:0:0:
167,357,120905,2,0,P|142:338|112:332,2,45.0000017166138,8|8|10,0:0|0:0|0:0,0:0:0:0:
345,357,121705,2,0,P|370:338|400:332,1,45.0000017166138,8|8,0:0|0:0,0:0:0:0:
471,319,122105,6,0,L|462:221,1,90.0000034332277,10|0,0:0|0:0,0:0:0:0:
400,164,122705,1,8,0:0:0:0:
315,195,122905,2,0,P|261:197|223:178,1,90.0000034332277,10|8,0:0|0:0,0:0:0:0:
77,85,123705,2,0,B|61:121|77:157|77:157|93:193|77:229|77:229|61:265|76:303,1,225.000008583069,10|0,0:0|0:0,0:0:0:0:
158,267,124905,2,0,L|219:274,1,45.0000017166138,8|0,0:0|0:0,0:0:0:0:
273,326,125305,6,0,P|310:303|355:298,2,90.0000034332277,10|8|8,0:0|0:0|0:0,0:0:0:0:
453,341,126505,1,8,0:0:0:0:
453,341,126705,1,0,0:0:0:0:
498,263,126905,2,0,L|487:156,1,90.0000034332277,10|8,0:0|0:0,0:0:0:0:
386,24,127705,1,8,0:0:0:0:
325,90,127905,2,0,L|319:142,2,45.0000017166138,0|8|0,0:0|0:0|0:0,0:0:0:0:
253,33,128505,6,0,P|213:21|155:28,2,90.0000034332277,10|8|8,0:0|0:0|0:0,0:0:0:0:
81,90,129705,1,8,0:0:0:0:
81,90,129905,1,0,0:0:0:0:
11,147,130105,2,0,L|22:238,1,90.0000034332277,10|8,0:0|0:0,0:0:0:0:
160,351,130905,1,8,0:0:0:0:
215,280,131105,1,0,0:0:0:0:
215,280,131305,2,0,L|274:286,1,45.0000017166138,10|8,0:0|0:0,0:0:0:0:
350,283,131705,6,0,P|348:305|340:326,2,45.0000017166138,8|8|10,0:0|0:0|0:0,0:0:0:0:
350,101,132505,2,0,P|348:78|340:57,2,45.0000017166138,10|8|8,0:0|0:0|0:0,0:0:0:0:
194,192,133305,2,0,L|149:192,1,45.0000017166138,10|8,0:0|0:0,0:0:0:0:
82,130,133705,2,0,L|75:78,2,45.0000017166138,8|8|10,0:0|0:0|0:0,0:0:0:0:
33,303,134505,2,0,L|40:355,1,45.0000017166138,8|8,0:0|0:0,0:0:0:0:
127,363,134905,6,0,P|168:344|213:346,1,90.0000034332277,10|0,0:0|0:0,0:0:0:0:
299,372,135505,1,8,0:0:0:0:
373,321,135705,2,0,L|383:221,1,90.0000034332277,10|8,0:0|0:0,0:0:0:0:
449,64,136505,2,0,B|413:80|377:64|377:64|341:48|305:64|305:64|269:80|230:64,1,225.000008583069,10|0,0:0|0:0,0:0:0:0:
151,21,137705,2,0,L|97:31,1,45.0000017166138,8|0,0:0|0:0,0:0:0:0:
35,84,138105,6,0,P|31:150|47:184,1,90.0000034332277,10|8,0:0|0:0,0:0:0:0:
189,269,138905,2,0,L|244:258,1,45.0000017166138,10|8,0:0|0:0,0:0:0:0:
303,202,139305,2,0,L|311:145,2,45.0000017166138,8|8|10,0:0|0:0|0:0,0:0:0:0:
440,318,140105,2,0,L|432:375,2,45.0000017166138,10|8|8,0:0|0:0|0:0,0:0:0:0:
464,139,140905,2,0,L|407:131,1,45.0000017166138,10|8,0:0|0:0,0:0:0:0:
344,82,141305,6,0,L|336:25,2,45.0000017166138,8|8|10,0:0|0:0|0:0,0:0:0:0:
337,262,142105,2,0,L|292:255,1,45.0000017166138,8|10,0:0|0:0,0:0:0:0:
292,165,142505,2,0,L|247:158,1,45.0000017166138,8|8,0:0|0:0,0:0:0:0:
164,193,142905,1,10,0:0:0:0:
63,43,143305,1,8,0:0:0:0:
63,43,143505,2,0,L|18:49,2,45.0000017166138,10|0|8,0:0|0:0|0:0,0:0:0:0:
129,104,144105,2,0,L|173:110,1,45.0000017166138,8|8,0:0|0:0,0:0:0:0:
244,54,144505,6,0,P|314:46|405:126,1,180.000006866455,8|8,0:0|0:0,0:0:0:0:
431,192,145505,2,0,L|481:197,2,45.0000017166138,8|10|8,0:0|0:0|0:0,0:0:0:0:
354,240,146105,2,0,L|360:286,1,45.0000017166138,10|8,0:0|0:0,0:0:0:0:
269,284,146505,2,0,L|275:330,1,45.0000017166138,10|8,0:0|0:0,0:0:0:0:
192,366,146905,2,0,L|146:372,1,45.0000017166138,10|8,0:0|0:0,0:0:0:0:
138,282,147305,2,0,L|92:288,1,45.0000017166138,8|10,0:0|0:0,0:0:0:0:
32,221,147705,6,0,P|36:167|54:124,1,90.0000034332277,10|0,0:0|0:0,0:0:0:0:
208,49,148505,2,0,L|257:59,1,45.0000017166138,10|8,0:0|0:0,0:0:0:0:
337,31,148905,1,8,0:0:0:0:
481,138,149305,2,0,P|421:146|368:172,1,120,10|8,0:0|0:0,0:0:0:0:
316,345,150105,2,0,P|256:336|203:310,1,120,10|8,0:0|0:0,0:0:0:0:
149,238,150705,1,10,0:0:0:0:
180,153,150905,6,0,P|239:144|292:118,1,120,14|8,0:0|0:0,0:0:0:0:
445,212,151705,2,0,P|385:220|332:246,1,120,10|8,0:0|0:0,0:0:0:0:
270,311,152305,1,12,0:0:0:0:
270,311,152505,2,0,P|210:302|157:276,1,120,10|8,0:0|0:0,0:0:0:0:
85,221,153105,1,2,0:0:0:0:
132,144,153305,2,0,P|140:84|166:31,1,120,10|8,0:0|0:0,0:0:0:0:
252,58,153905,1,0,0:0:0:0:
338,34,154105,6,0,P|397:42|450:68,1,120,14|8,0:0|0:0,0:0:0:0:
394,239,154905,2,0,L|388:178,1,60,10|8,0:0|0:0,0:0:0:0:
319,120,155305,1,10,0:0:0:0:
162,30,155705,2,0,P|188:83|196:142,1,120,10|8,0:0|0:0,0:0:0:0:
98,293,156505,2,0,P|157:296|212:319,1,120,10|8,0:0|0:0,0:0:0:0:
302,304,157105,1,10,0:0:0:0:
386,335,157305,6,0,P|408:279|412:220,1,120,14|8,0:0|0:0,0:0:0:0:
480,53,158105,1,10,0:0:0:0:
407,106,158305,2,0,P|351:84|292:80,1,120,10|4,0:0|0:0,0:0:0:0:
209,42,158905,2,0,P|205:101|182:156,1,120,10|8,0:0|0:0,0:0:0:0:
96,127,159505,1,0,0:0:0:0:
99,217,159705,2,0,P|102:276|125:331,1,120,10|8,0:0|0:0,0:0:0:0:
211,357,160305,1,0,0:0:0:0:
292,318,160505,6,0,P|347:340|406:344,1,120,14|0,0:0|0:0,0:0:0:0:
502,191,161305,2,0,L|436:196,1,60,10|8,0:0|0:0,0:0:0:0:
373,254,161705,1,8,0:0:0:0:
309,85,162105,2,0,P|253:62|194:58,1,120,10|8,0:0|0:0,0:0:0:0:
33,140,162905,1,10,0:0:0:0:
102,196,163105,2,0,P|157:173|216:169,1,120,10|0,0:0|0:0,0:0:0:0:
281,232,163705,6,0,P|277:291|254:346,1,120,14|8,0:0|0:0,0:0:0:0:
74,344,164505,2,0,P|72:314|76:284,1,60,10|8,0:0|0:0,0:0:0:0:
102,196,164905,1,8,0:0:0:0:
73,18,165305,2,0,P|126:44|185:52,1,120,10|8,0:0|0:0,0:0:0:0:
211,231,166105,1,10,0:0:0:0:
211,231,166305,2,0,P|264:204|323:196,1,120,10|0,0:0|0:0,0:0:0:0:
394,139,166905,6,0,P|402:79|428:26,1,120,14|8,0:0|0:0,0:0:0:0:
496,193,167705,2,0,L|487:255,1,60,10|8,0:0|0:0,0:0:0:0:
419,312,168105,1,8,0:0:0:0:
244,269,168505,2,0,P|184:277|131:303,1,120,10|8,0:0|0:0,0:0:0:0:
14,167,169305,2,0,P|39:138|71:126,1,60,10|8,0:0|0:0,0:0:0:0:
148,122,169705,1,10,0:0:0:0:
308,163,170105,6,0,P|334:109|342:50,1,120,10|8,0:0|0:0,0:0:0:0:
488,114,171000,2,0,P|501:162|499:232,1,120,10|10,0:0|0:0,0:0:0:0:
502,321,171751,1,8,0:0:0:0:
422,280,171982,2,0,B|202:184|238:433|5:328,1,450.000017166138,10|0,0:0|0:0,0:0:0:0:
