osu file format v14

[General]
AudioFilename: audio.mp3
AudioLeadIn: 0
PreviewTime: 69954
Countdown: 0
SampleSet: Soft
StackLeniency: 0.5
Mode: 0
LetterboxInBreaks: 0
WidescreenStoryboard: 1

[Editor]
Bookmarks: 70489
DistanceSpacing: 0.9
BeatDivisor: 4
GridSize: 4
TimelineZoom: 0.5999998

[Metadata]
Title:Mezameta Asa ni
TitleUnicode:目覚めた朝に
Artist:Maeda Jun
ArtistUnicode:麻枝准
Creator:Gorou
Version:Normal
Source:リトルバスターズ!
Tags:wanpachi little busters! waking up in the morning ost original soundtrack video game instrumental visual novel vn key visualarts visual arts lb! リトバス! ritobasu!
BeatmapID:4472753
BeatmapSetID:2127635

[Difficulty]
HPDrainRate:4
CircleSize:3
OverallDifficulty:4
ApproachRate:5
SliderMultiplier:1.2
SliderTickRate:1

[Events]
//Background and Video events
0,0,"lb.jpg",0,0
//Break Periods
2,70689,83004
//Storyboard Layer 0 (Background)
//Storyboard Layer 1 (Fail)
//Storyboard Layer 2 (Pass)
//Storyboard Layer 3 (Foreground)
//Storyboard Layer 4 (Overlay)
//Storyboard Sound Samples

[TimingPoints]
204,428.571428571429,4,2,1,50,1,0
31061,-117.647058823529,4,2,1,50,0,0
43061,-100,4,2,1,50,0,0
70061,-117.647058823529,4,2,1,40,0,0
97918,-100,4,2,1,60,0,0
125346,-117.647058823529,4,2,1,40,0,0

[Colours]
Combo1 : 239,143,210
Combo2 : 239,239,143
Combo3 : 212,212,212
Combo4 : 191,128,128
Combo5 : 83,86,128

[HitObjects]
48,56,204,6,0,B|104:16|172:44|172:44,1,120,4|0,0:2|0:0,0:0:0:0:
244,132,1061,2,0,B|300:172|368:144|368:144,1,120,2|0,0:0|0:0,0:0:0:0:
412,120,1704,2,0,L|428:252,1,120,2|0,0:0|0:0,0:0:0:0:
440,296,2346,1,0,0:0:0:0:
348,372,2775,2,0,B|292:332|224:360|224:360,1,120,2|0,0:0|0:0,0:0:0:0:
116,340,3632,6,0,B|104:312|108:272|108:272,1,60,2|0,0:1|0:0,0:0:0:0:
148,240,4061,2,0,L|120:116,1,120,2|0,0:1|0:0,0:0:0:0:
196,28,4918,1,2,0:1:0:0:
196,28,5132,2,0,B|288:80|364:8|364:8,1,180,2|2,0:1|0:0,0:0:0:0:
476,48,6204,1,2,0:0:0:0:
408,148,6632,1,0,0:0:0:0:
408,148,6846,6,0,L|424:272,1,120,2|0,0:0|0:0,0:0:0:0:
432,328,7489,1,0,0:0:0:0:
316,356,7918,2,0,B|268:300|192:336|192:336,1,120,2|0,0:0|0:0,0:0:0:0:
156,364,8561,1,2,0:0:0:0:
60,292,8989,1,0,0:0:0:0:
60,292,9204,2,0,L|80:204,1,60,2|0,0:0|0:0,0:0:0:0:
36,188,9632,2,0,L|56:100,1,60,2|0,0:0|0:0,0:0:0:0:
104,104,10061,2,0,L|124:16,1,60,2|0,0:0|0:0,0:0:0:0:
172,16,10489,5,2,0:1:0:0:
288,52,10918,2,0,B|324:112|296:168|296:168,1,120,2|2,0:1|0:0,0:0:0:0:
192,224,11775,1,2,0:1:0:0:
192,224,11989,2,0,L|60:204,1,120,2|0,0:1|0:0,0:0:0:0:
16,228,12632,2,0,B|-20:288|8:344|8:344,1,120,0|2,0:0|0:0,0:0:0:0:
128,380,13489,1,0,0:0:0:0:
128,380,13704,1,2,0:0:0:0:
288,296,14346,5,0,0:0:0:0:
400,344,14775,2,0,B|468:352|504:296|504:296,1,120,2|0,0:0|0:0,0:0:0:0:
508,236,15418,2,0,L|492:96,1,120,2|0,0:0|0:0,0:0:0:0:
456,68,16061,2,0,B|424:72|396:52|396:52,1,60,2|0,0:0|0:0,0:0:0:0:
356,12,16489,2,0,B|324:8|296:28|296:28,1,60,2|0,0:0|0:0,0:0:0:0:
268,76,16918,2,0,L|280:148,1,60,2|0,0:0|0:0,0:0:0:0:
320,180,17346,5,2,0:1:0:0:
272,288,17775,2,0,B|224:240|152:260|152:260,1,120,2|2,0:1|0:0,0:0:0:0:
52,312,18632,1,2,0:1:0:0:
52,312,18846,2,0,L|24:168,1,120,2|0,0:1|0:0,0:0:0:0:
8,136,19489,1,0,0:0:0:0:
96,56,19918,2,0,B|144:104|216:84|216:84,1,120,2|0,0:0|0:0,0:0:0:0:
244,40,20561,6,0,L|388:12,1,120,2|0,0:0|0:0,0:0:0:0:
420,20,21204,1,0,0:0:0:0:
480,124,21632,1,2,0:0:0:0:
432,232,22061,1,0,0:0:0:0:
432,232,22275,1,2,0:0:0:0:
324,180,22704,1,0,0:0:0:0:
324,180,22918,2,0,L|248:192,1,60,2|0,0:0|0:0,0:0:0:0:
220,152,23346,2,0,L|144:164,1,60,2|0,0:0|0:0,0:0:0:0:
112,196,23775,2,0,B|88:224|96:272|96:272,1,60,2|0,0:0|0:0,0:0:0:0:
72,308,24204,5,2,0:1:0:0:
188,340,24632,2,0,B|256:360|316:304|316:304,1,120,2|2,0:1|0:0,0:0:0:0:
420,344,25489,1,2,0:1:0:0:
420,344,25704,2,0,L|436:208,1,120,2|0,0:1|0:0,0:0:0:0:
488,200,26346,1,0,0:0:0:0:
456,84,26775,2,0,B|388:104|328:48|328:48,1,120,2|0,0:0|0:0,0:0:0:0:
312,8,27418,1,2,0:0:0:0:
236,100,27846,5,0,0:0:0:0:
236,100,28061,2,0,B|248:120|256:172|256:172,1,60,2|0,0:0|0:0,0:0:0:0:
276,212,28489,2,0,B|264:232|256:284|256:284,1,60,2|0,0:0|0:0,0:0:0:0:
272,328,28918,2,0,L|188:336,1,60,2|0,0:0|0:0,0:0:0:0:
156,348,29346,1,4,0:0:0:0:
16,16,30632,2,0,L|100:24,1,60
112,68,31061,5,4,0:0:0:0:
112,68,31275,2,0,B|152:36|228:48|228:48,1,102.000001945496,2|0,0:0|0:0,0:0:0:0:
252,72,31918,2,0,L|232:188,1,102.000001945496,8|0,0:0|0:0,0:0:0:0:
192,264,32775,2,0,L|108:280,2,51.0000009727478,2|0|0,0:0|0:0|0:0,0:0:0:0:
232,296,33418,2,0,B|296:276|348:324|348:324,1,102.000001945496,2|0,0:0|0:0,0:0:0:0:
364,348,34061,1,2,0:0:0:0:
460,316,34489,1,4,0:0:0:0:
460,316,34704,6,0,L|444:196,1,102.000001945496,2|0,0:0|0:0,0:0:0:0:
412,176,35346,2,0,B|456:128|432:64|432:64,1,102.000001945496,8|0,0:0|0:0,0:0:0:0:
356,16,36204,2,0,L|280:32,1,51.0000009727478,2|0,0:0|0:0,0:0:0:0:
264,56,36632,1,0,0:0:0:0:
264,56,36846,2,0,L|136:36,1,102.000001945496
112,28,37489,1,0,0:0:0:0:
28,84,37918,5,2,0:0:0:0:
80,172,38346,1,2,0:0:0:0:
36,264,38775,2,0,B|100:264|144:308|144:308,1,102.000001945496,8|0,0:0|0:0,0:0:0:0:
156,340,39418,2,0,B|220:340|264:296|264:296,1,102.000001945496,2|0,0:0|0:0,0:0:0:0:
284,268,40061,1,0,0:0:0:0:
232,180,40489,2,0,L|248:44,1,102.000001945496,8|0,0:0|0:0,0:0:0:0:
336,32,41346,5,2,0:0:0:0:
476,180,42204,1,8,0:0:0:0:
396,240,42632,2,0,L|328:228,1,51.0000009727478,2|2,0:0|0:0,0:0:0:0:
300,192,43061,5,2,0:1:0:0:
184,228,43489,2,0,B|148:276|160:344|160:344,1,120,2|8,0:1|0:0,0:0:0:0:
48,316,44346,1,2,0:1:0:0:
48,316,44561,2,0,B|84:268|72:200|72:200,1,120,2|0,0:1|0:0,0:0:0:0:
28,160,45204,1,2,0:0:0:0:
96,60,45632,2,0,L|240:48,1,120,8|0,0:0|0:0,0:0:0:0:
276,44,46275,1,2,0:0:0:0:
276,44,46489,5,0,0:0:0:0:
316,156,46918,1,0,0:0:0:0:
208,204,47346,2,0,B|160:256|192:332|192:332,1,120,8|0,0:0|0:0,0:0:0:0:
232,356,47989,1,2,0:0:0:0:
356,344,48418,1,0,0:0:0:0:
356,344,48632,2,0,L|368:276,1,60,2|0,0:0|0:0,0:0:0:0:
424,264,49061,2,0,L|412:196,1,60,10|0,0:0|0:0,0:0:0:0:
460,168,49489,2,0,L|448:100,1,60,2|0,0:0|0:0,0:0:0:0:
424,52,49918,5,2,0:1:0:0:
316,104,50346,2,0,B|252:128|188:80|188:80,1,120,2|8,0:1|0:0,0:0:0:0:
96,44,51204,1,2,0:1:0:0:
96,44,51418,2,0,B|48:88|72:172,1,120,2|0,0:1|0:0,0:0:0:0:
92,212,52061,1,2,0:0:0:0:
208,248,52489,2,0,L|340:228,1,120,8|0,0:0|0:0,0:0:0:0:
376,196,53132,6,0,B|420:244|504:220,1,120,2|0,0:0|0:0,0:0:0:0:
512,280,53775,1,0,0:0:0:0:
408,340,54204,2,0,B|364:292|280:316,1,120,8|0,0:0|0:0,0:0:0:0:
260,360,54846,1,2,0:0:0:0:
152,304,55275,1,0,0:0:0:0:
152,304,55489,2,0,B|132:316|76:320|76:320,1,60,2|0,0:0|0:0,0:0:0:0:
48,280,55918,2,0,L|68:192,1,60,10|0,0:0|0:0,0:0:0:0:
104,180,56346,2,0,L|84:92,1,60,2|0,0:0|0:0,0:0:0:0:
84,60,56775,5,2,0:1:0:0:
196,20,57204,2,0,B|272:16|308:80|308:80,1,120,2|8,0:1|0:0,0:0:0:0:
256,180,58061,1,2,0:1:0:0:
256,180,58275,2,0,L|240:324,1,120,2|0,0:1|0:0,0:0:0:0:
264,356,58918,1,0,0:0:0:0:
384,344,59346,2,0,L|368:200,1,120,8|0,0:0|0:0,0:0:0:0:
412,180,59989,1,2,0:0:0:0:
412,180,60204,6,0,B|336:196|288:140|288:140,1,120,2|0,0:0|0:0,0:0:0:0:
256,40,61061,1,8,0:0:0:0:
140,64,61489,1,0,0:0:0:0:
140,64,61704,1,2,0:0:0:0:
32,120,62132,1,0,0:0:0:0:
32,120,62346,2,0,L|52:208,1,60,2|0,0:0|0:0,0:0:0:0:
20,232,62775,2,0,L|40:320,1,60,10|0,0:0|0:0,0:0:0:0:
84,324,63204,2,0,B|120:320|164:288|164:288,1,60,2|0,0:0|0:0,0:0:0:0:
180,256,63632,5,2,0:1:0:0:
296,224,64061,2,0,B|344:272|324:336|324:336,1,120,2|8,0:1|0:0,0:0:0:0:
444,368,64918,1,2,0:1:0:0:
444,368,65132,2,0,B|424:304|472:256,1,120,2|0,0:1|0:0,0:0:0:0:
508,208,65775,1,0,0:0:0:0:
412,140,66204,2,0,L|260:160,1,120,8|0,0:0|0:0,0:0:0:0:
248,192,66846,1,2,0:0:0:0:
132,164,67275,5,0,0:0:0:0:
132,164,67489,2,0,B|116:136|112:92|112:92,1,60,2|0,0:0|0:0,0:0:0:0:
140,52,67918,2,0,B|168:36|212:32|212:32,1,60,10|0,0:0|0:0,0:0:0:0:
248,68,68346,2,0,L|320:80,1,60,2|0,0:0|0:0,0:0:0:0:
364,60,68775,1,2,0:0:0:0:
256,192,68989,12,4,70489,0:0:0:0:
480,40,84204,6,0,B|444:84|464:152|464:152,1,102.000001945496,6|2,0:0|0:0,0:0:0:0:
392,212,85061,2,0,B|428:256|408:324|408:324,1,102.000001945496,2|2,0:0|0:0,0:0:0:0:
372,344,85704,1,2,0:0:0:0:
372,344,85918,2,0,L|232:320,1,102.000001945496,2|0,0:0|0:0,0:0:0:0:
172,356,86775,2,0,L|104:364,2,51.0000009727478,2|2|2,0:0|0:0|0:0,0:0:0:0:
192,256,87632,6,0,B|192:192|152:152|152:152,1,102.000001945496,2|2,0:0|0:0,0:0:0:0:
108,168,88275,2,0,L|128:36,1,102.000001945496,2|2,0:0|0:0,0:0:0:0:
128,16,88918,1,2,0:0:0:0:
224,52,89346,2,0,B|288:52|328:12|328:12,1,102.000001945496,6|2,0:0|0:0,0:0:0:0:
416,44,90204,2,0,L|400:120,1,51.0000009727478,2|2,0:0|0:0,0:0:0:0:
436,136,90632,2,0,L|420:212,1,51.0000009727478,2|2,0:0|0:0,0:0:0:0:
452,228,91061,6,0,L|324:240,1,102.000001945496,6|2,0:0|0:0,0:0:0:0:
264,292,91918,2,0,L|136:280,1,102.000001945496,2|2,0:0|0:0,0:0:0:0:
112,296,92561,1,2,0:0:0:0:
112,296,92775,2,0,B|80:248|100:188|100:188,1,102.000001945496,2|2,0:0|0:0,0:0:0:0:
160,116,93632,2,0,B|208:84|268:104|268:104,1,102.000001945496,2|2,0:0|0:0,0:0:0:0:
292,140,94275,5,2,0:0:0:0:
364,212,94704,1,2,0:0:0:0:
456,164,95132,1,2,0:0:0:0:
432,64,95561,1,2,0:0:0:0:
336,52,95989,1,2,0:0:0:0:
336,52,96204,2,0,B|232:80|128:28|128:28,1,204.000003890991,4|0,0:0|0:0,0:0:0:0:
52,92,97489,2,0,L|68:172,1,51.0000009727478,2|2,0:3|0:3,0:0:0:0:
92,192,97918,6,0,B|44:240|72:308|72:308,1,120,4|2,3:2|0:0,0:0:0:0:
124,344,98561,1,0,3:0:0:0:
124,344,98775,1,8,0:0:0:0:
220,272,99204,1,2,0:0:0:0:
324,332,99632,1,0,3:0:0:0:
324,332,99846,2,0,L|456:316,1,120,2|2,0:0|3:2,0:0:0:0:
480,272,100489,2,0,B|460:240|464:208|464:208,1,60,8|0,0:0|0:0,0:0:0:0:
504,168,100918,1,2,0:0:0:0:
504,168,101132,6,0,B|528:84|452:36|452:36,1,120,4|0,3:2|0:0,0:0:0:0:
424,24,101775,1,4,3:2:0:0:
312,68,102204,2,0,L|244:52,1,60,8|0,0:0|0:0,0:0:0:0:
208,16,102632,1,2,0:0:0:0:
208,16,102846,2,0,L|64:44,1,120,2|0,3:2|0:0,0:0:0:0:
32,56,103489,1,0,3:0:0:0:
88,164,103918,1,8,0:0:0:0:
32,272,104346,2,0,B|20:300|20:344|20:344,1,60,2|2,0:3|0:3,0:0:0:0:
72,364,104775,6,0,B|144:380|192:340|192:340,1,120,0|2,3:0|0:0,0:0:0:0:
252,240,105632,1,8,0:0:0:0:
180,144,106061,2,0,L|200:72,1,60,2|2,0:0|0:0,0:0:0:0:
188,28,106489,1,0,3:0:0:0:
188,28,106704,2,0,B|256:40|312:8|312:8,1,120,2|0,0:0|0:0,0:0:0:0:
352,48,107346,2,0,L|336:120,2,60,8|0|2,0:0|0:0|0:0,0:0:0:0:
404,20,107989,6,0,B|476:20|496:92|496:92,1,120,4|0,3:2|0:0,0:0:0:0:
476,144,108632,1,4,3:2:0:0:
412,244,109061,2,0,L|428:336,2,60,8|0|2,0:0|0:0|0:0,0:0:0:0:
360,212,109704,2,0,B|324:274|252:256|252:256,1,120,2|0,3:2|0:0,0:0:0:0:
212,220,110346,1,0,3:2:0:0:
260,108,110775,1,8,0:0:0:0:
172,28,111204,2,0,L|88:48,1,60,2|0,0:0|0:0,0:0:0:0:
80,92,111632,6,0,L|100:176,1,60,4|0,3:2|0:0,0:0:0:0:
128,200,112061,1,2,0:0:0:0:
64,300,112489,2,0,B|36:288|-8:288|-8:288,2,60,8|2|2,0:0|0:0|0:0,0:0:0:0:
112,336,113132,2,0,B|176:352|220:300|220:300,1,120,4|0,3:2|0:0,0:0:0:0:
248,248,113775,1,4,3:2:0:0:
204,136,114204,2,0,L|216:72,1,60,8|0,0:0|0:0,0:0:0:0:
232,20,114632,1,2,0:0:0:0:
344,68,115061,6,0,L|356:132,2,60,0|2|2,3:0|0:0|0:0,0:0:0:0:
376,16,115704,2,0,B|408:24|440:40|440:40,1,60,2|8,0:0|0:0,0:0:0:0:
492,32,116132,2,0,B|520:96|480:156|480:156,1,120,2|4,0:0|3:2,0:0:0:0:
396,228,116989,1,2,0:0:0:0:
284,184,117418,1,2,0:0:0:0:
284,184,117632,2,0,L|208:200,1,60,8|0,0:0|0:0,0:0:0:0:
180,236,118061,2,0,L|104:220,1,60,2|0,0:0|0:0,0:0:0:0:
64,204,118489,6,0,B|44:232|48:280|48:280,2,60,0|2|2,3:0|0:0|0:0,0:0:0:0:
128,104,119346,2,0,L|204:88,1,60,8|2,0:0|0:0,0:0:0:0:
228,48,119775,1,2,0:0:0:0:
228,48,119989,2,0,L|380:80,1,120,4|0,3:2|0:0,0:0:0:0:
448,136,120846,1,2,0:0:0:0:
448,136,121061,2,0,B|464:96|488:72|488:72,2,60,8|0|2,0:0|0:0|0:0,0:0:0:0:
416,184,121704,5,4,3:2:0:0:
480,288,122132,1,4,3:2:0:0:
400,376,122561,1,4,3:2:0:0:
292,328,122989,1,4,3:2:0:0:
300,208,123418,1,2,0:0:0:0:
300,208,123632,2,0,L|132:228,2,120,0|0|8,3:0|0:0|0:0,0:0:0:0:
448,68,125346,6,0,B|384:72|336:28|336:28,1,102.000001945496,2|0,0:0|0:0,0:0:0:0:
252,12,126204,2,0,B|188:8|140:52|140:52,1,102.000001945496,2|0,0:0|0:0,0:0:0:0:
124,80,126846,1,2,0:0:0:0:
16,188,127489,1,2,0:0:0:0:
64,280,127918,2,0,L|192:264,1,102.000001945496,2|0,0:0|0:0,0:0:0:0:
208,240,128561,6,0,L|336:256,1,102.000001945496,2|0,0:0|0:0,0:0:0:0:
352,284,129204,1,2,0:0:0:0:
444,244,129632,2,0,B|480:192|444:132|444:132,1,102.000001945496,2|0,0:0|0:0,0:0:0:0:
420,108,130275,1,2,0:0:0:0:
276,56,130918,1,0,0:0:0:0:
208,132,131346,1,2,0:0:0:0:
108,108,131775,2,0,L|92:40,2,51.0000009727478,0|2|4,0:0|0:0|0:0,0:0:0:0:
