osu file format v14

[General]
AudioFilename: Maeda Ai - keep on (TV Size).mp3
AudioLeadIn: 0
PreviewTime: 51757
Countdown: 0
SampleSet: None
StackLeniency: 0.7
Mode: 0
LetterboxInBreaks: 0
WidescreenStoryboard: 0

[Editor]
Bookmarks: 3412,9899,16385,22872,29358,35845,42331,48818,52061,58547,65034,71520,78007,84493,90980,97466
DistanceSpacing: 1.4
BeatDivisor: 4
GridSize: 32
TimelineZoom: 1.8

[Metadata]
Title:keep on (TV Size)
TitleUnicode:keep on (TVサイズ)
Artist:Maeda Ai
ArtistUnicode:前田愛
Creator:Kencho
Version:Normal
Source:デジモンアドベンチャー
Tags:digimon adventure monster ending childhood IamKwaN Wing My Way Hollow Wings toara_fict Nardoxyribonucleic
BeatmapID:908226
BeatmapSetID:351892

[Difficulty]
HPDrainRate:3
CircleSize:3.2
OverallDifficulty:4
ApproachRate:5
SliderMultiplier:1.2
SliderTickRate:1

[Events]
//Background and Video events
0,0,"BG.jpg",0,0
Video,0,"op.flv"
//Break Periods
//Storyboard Layer 0 (Background)
//Storyboard Layer 1 (Fail)
//Storyboard Layer 2 (Pass)
//Storyboard Layer 3 (Foreground)
//Storyboard Sound Samples

[TimingPoints]
169.616896317472,405.405405405405,4,3,1,30,1,0
3007,-100,4,2,1,70,0,0
3412,-100,4,2,1,60,0,0
9899,-100,4,2,1,50,0,0
35845,-100,4,2,1,45,0,0
45575,-100,4,2,1,40,0,0
48818,-100,4,2,1,45,0,0
50439,-100,4,2,1,60,0,0
52061,-100,4,2,1,60,0,1
78007,-100,4,2,1,60,0,0
92602,-100,4,2,1,50,0,0
93412,-100,4,2,1,55,0,0
94223,-100,4,2,1,60,0,0
95034,-100,4,2,1,65,0,0
95845,-100,4,2,1,70,0,0

[Colours]
Combo1 : 255,128,192
Combo2 : 255,128,64
Combo3 : 0,128,255
Combo4 : 255,64,64
Combo5 : 192,64,192
Combo6 : 255,255,64
Combo7 : 96,255,64
Combo8 : 96,128,192

[HitObjects]
327,178,169,6,0,L|416:180,2,90,0|0|0,0:0|0:0|0:0,0:0:0:0:
254,136,980,2,0,L|194:134,1,60,0|0,0:0|0:0,0:0:0:0:
110,131,1385,1,0,0:0:0:0:
210,265,1791,6,0,L|299:267,2,90,0|0|0,0:0|0:0|0:0,0:0:0:0:
137,223,2602,2,0,L|77:221,1,60,0|0,0:0|0:0,0:0:0:0:
77,305,3007,2,0,L|136:306,1,60,0|0,0:0|0:0,0:0:0:0:
210,264,3412,6,0,P|218:206|188:156,1,120,4|8,0:0|0:0,0:0:0:0:
123,103,4020,1,2,0:0:0:0:
123,103,4223,2,0,P|181:111|231:81,1,120,0|8,0:0|0:0,0:0:0:0:
380,3,5034,6,0,L|377:122,1,120,0|8,0:0|0:0,0:0:0:0:
324,188,5642,1,2,0:0:0:0:
324,188,5845,2,0,L|322:247,1,60,0|2,0:0|0:0,0:0:0:0:
263,308,6250,2,0,L|261:367,1,60,8|2,0:0|0:0,0:0:0:0:
344,353,6656,6,0,B|379:346|379:346|462:354,1,120,0|8,0:0|0:0,0:0:0:0:
445,271,7264,1,2,0:0:0:0:
445,271,7466,2,0,B|438:236|438:236|446:152,1,120,0|8,0:0|0:0,0:0:0:0:
312,49,8277,6,0,P|258:72|201:57,1,120,0|8,0:0|0:0,0:0:0:0:
125,21,8885,1,2,0:0:0:0:
125,21,9088,2,0,P|117:50|120:79,1,60,0|2,0:0|0:0,0:0:0:0:
179,140,9493,2,0,P|185:169|182:198,1,60,8|14,0:0|0:0,0:0:0:0:
147,276,9899,6,0,L|87:273,1,60,2|2,0:0|0:0,0:0:0:0:
67,355,10304,2,0,L|186:361,2,120,8|0|8,0:0|0:0|0:0,0:0:0:0:
6,296,11318,1,2,0:0:0:0:
6,296,11520,6,0,P|4:267|12:238,1,60,0|2,0:0|0:0,0:0:0:0:
67,174,11926,2,0,P|69:144|61:115,1,60,8|2,0:0|0:0,0:0:0:0:
28,38,12331,2,0,L|87:35,2,60,0|2|8,0:0|0:0|0:0,0:0:0:0:
178,113,13142,6,0,L|237:110,1,60,0|2,0:0|0:0,0:0:0:0:
311,151,13547,2,0,L|430:145,2,120,8|0|8,0:0|0:0|0:0,0:0:0:0:
252,212,14561,1,2,0:0:0:0:
252,212,14764,6,0,P|251:241|259:270,1,60,0|2,0:0|0:0,0:0:0:0:
341,291,15169,2,0,P|342:261|334:232,1,60,8|2,0:0|0:0,0:0:0:0:
311,151,15575,2,0,L|370:153,2,60,0|2|8,0:0|0:0|0:0,0:0:0:0:
178,254,16385,6,0,L|118:251,1,60,2|2,0:0|0:0,0:0:0:0:
56,193,16791,2,0,P|73:249|52:304,2,120,8|0|8,0:0|0:0|0:0,0:0:0:0:
10,122,17804,1,2,0:0:0:0:
10,122,18007,6,0,L|12:62,1,60,0|2,0:0|0:0,0:0:0:0:
94,41,18412,2,0,L|91:100,1,60,8|2,0:0|0:0,0:0:0:0:
175,81,18818,2,0,L|177:21,2,60,0|2|8,0:0|0:0|0:0,0:0:0:0:
170,165,19426,1,2,0:0:0:0:
170,165,19629,6,0,P|199:169|229:167,1,60,0|2,0:0|0:0,0:0:0:0:
296,116,20034,2,0,P|325:113|355:118,1,60,8|2,0:0|0:0,0:0:0:0:
411,182,20439,2,0,L|417:62,1,120,0|8,0:0|0:0,0:0:0:0:
499,44,21047,1,2,0:0:0:0:
499,44,21250,6,0,L|496:103,1,60,0|2,0:0|0:0,0:0:0:0:
493,188,21656,2,0,L|490:247,1,60,8|2,0:0|0:0,0:0:0:0:
426,302,22061,2,0,B|393:311|393:311|308:305,1,120,0|8,0:0|0:0,0:0:0:0:
245,247,22669,1,6,0:0:0:0:
245,247,22872,6,0,L|185:242,1,60,0|2,0:0|0:0,0:0:0:0:
127,181,23277,2,0,L|7:171,2,120,8|0|8,0:0|0:0|0:0,0:0:0:0:
210,163,24291,1,2,0:0:0:0:
210,163,24493,6,0,P|215:133|212:103,1,60,0|2,0:0|0:0,0:0:0:0:
177,27,24899,2,0,L|236:23,1,60,8|2,0:0|0:0,0:0:0:0:
315,52,25304,2,0,L|374:48,2,60,0|2|8,0:0|0:0|0:0,0:0:0:0:
351,216,26115,6,0,L|410:212,1,60,0|2,0:0|0:0,0:0:0:0:
465,148,26520,2,0,L|472:267,2,120,8|0|8,0:0|0:0|0:0,0:0:0:0:
421,76,27534,1,2,0:0:0:0:
421,76,27737,6,0,L|417:16,1,60,0|2,0:0|0:0,0:0:0:0:
335,35,28142,2,0,L|338:94,1,60,8|2,0:0|0:0,0:0:0:0:
256,113,28547,2,0,L|252:53,2,60,0|2|8,0:0|0:0|0:0,0:0:0:0:
267,281,29358,6,0,L|207:277,1,60,2|2,0:0|0:0,0:0:0:0:
184,359,29764,2,0,L|303:366,2,120,8|0|8,0:0|0:0|0:0,0:0:0:0:
100,350,30777,1,2,0:0:0:0:
100,350,30980,6,0,L|103:290,1,60,0|2,0:0|0:0,0:0:0:0:
148,219,31385,2,0,L|144:159,1,60,8|2,0:0|0:0,0:0:0:0:
100,87,31791,2,0,L|40:89,2,60,0|2|8,0:0|0:0|0:0,0:0:0:0:
184,85,32399,1,2,0:0:0:0:
184,85,32602,6,0,P|207:103|222:129,1,60,0|2,0:0|0:0,0:0:0:0:
233,212,33007,2,0,L|293:210,1,60,8|2,0:0|0:0,0:0:0:0:
362,162,33412,2,0,P|335:214|349:271,1,120,0|8,0:0|0:0,0:0:0:0:
419,224,34020,1,2,0:0:0:0:
419,224,34223,6,0,L|478:230,1,60,0|2,0:0|0:0,0:0:0:0:
504,150,34629,2,0,L|444:143,1,60,8|2,0:0|0:0,0:0:0:0:
362,162,35034,2,0,B|333:168|333:168|242:156,1,120,0|8,0:0|0:0,0:0:0:0:
336,18,35845,6,0,P|381:12|422:29,2,90,2|0|2,0:0|0:0|0:0,0:0:0:0:
264,60,36656,2,0,B|235:66|235:66|144:54,1,120,0|8,0:0|0:0,0:0:0:0:
68,21,37264,1,0,0:0:0:0:
68,21,37466,6,0,P|85:61|80:105,2,90,2|0|2,0:0|0:0|0:0,0:0:0:0:
1,74,38277,2,0,P|0:132|37:178,1,120,0|8,0:0|0:0,0:0:0:0:
205,198,39088,6,0,L|294:192,2,90,2|0|2,0:0|0:0|0:0,0:0:0:0:
167,272,39899,2,0,B|195:280|195:280|286:275,1,120,0|8,0:0|0:0,0:0:0:0:
362,242,40507,1,0,0:0:0:0:
362,242,40710,6,0,P|345:283|350:327,1,90,2|0,0:0|0:0,0:0:0:0:
229,360,41318,2,0,B|109:366|109:366|51:350,1,180,2|8,0:0|0:0,0:0:0:0:
151,215,42331,6,0,P|195:209|236:225,2,90,2|0|2,0:0|0:0|0:0,0:0:0:0:
94,277,43142,2,0,P|107:220|80:168,1,120,0|8,0:0|0:0,0:0:0:0:
24,231,43750,1,0,0:0:0:0:
24,231,43953,6,0,P|12:273|20:317,2,90,2|0|2,0:0|0:0|0:0,0:0:0:0:
94,277,44764,2,0,B|122:285|122:285|213:280,1,120,0|8,0:0|0:0,0:0:0:0:
273,223,45372,1,0,0:0:0:0:
273,223,45575,6,0,L|269:342,1,120,2|0,0:0|0:0,0:0:0:0:
432,379,46385,2,0,L|436:260,1,120,0|8,0:0|0:0,0:0:0:0:
364,108,47196,6,0,P|421:118|473:89,1,120,2|0,0:0|0:0,0:0:0:0:
314,30,48007,2,0,P|276:74|275:133,1,120,0|8,0:0|0:0,0:0:0:0:
339,288,48818,6,0,L|219:293,1,120,2|0,0:0|0:0,0:0:0:0:
153,241,49426,2,0,P|175:295|158:351,1,120,2|2,0:0|0:0,0:0:0:0:
92,299,50034,2,0,L|32:302,1,60,8|2,0:0|0:0,0:0:0:0:
12,220,50439,6,0,L|72:217,1,60,8|2,0:0|0:0,0:0:0:0:
153,241,50845,1,8,0:0:0:0:
153,241,51047,1,2,0:0:0:0:
324,295,52061,6,0,L|443:297,1,120,4|8,0:0|0:0,0:0:0:0:
492,229,52669,2,0,P|497:169|478:113,1,120,2|2,0:0|0:0,0:0:0:0:
396,93,53277,2,0,L|336:91,1,60,8|2,0:0|0:0,0:0:0:0:
272,35,53683,6,0,B|284:79|284:79|280:153,1,120,0|8,0:0|0:0,0:0:0:0:
227,218,54291,2,0,L|234:337,1,120,2|2,0:0|0:0,0:0:0:0:
318,343,54899,2,0,L|377:346,1,60,8|2,0:0|0:0,0:0:0:0:
461,353,55304,6,0,L|468:233,1,120,0|8,0:0|0:0,0:0:0:0:
416,167,55912,2,0,B|385:174|385:174|297:165,1,120,2|2,0:0|0:0,0:0:0:0:
233,110,56520,2,0,L|173:103,1,60,8|2,0:0|0:0,0:0:0:0:
158,186,56926,6,0,L|217:192,1,60,0|2,0:0|0:0,0:0:0:0:
297,165,57331,1,8,0:0:0:0:
297,165,57534,2,0,P|257:208|258:267,1,120,2|2,0:0|0:0,0:0:0:0:
337,239,58142,2,0,L|396:245,1,60,8|2,0:0|0:0,0:0:0:0:
480,233,58547,6,0,P|488:276|484:321,2,90,0|0|2,0:0|0:0|0:0,0:0:0:0:
428,167,59358,2,0,P|423:122|432:78,2,90,0|0|2,0:0|0:0|0:0,0:0:0:0:
396,245,60169,6,0,L|306:240,2,90,0|0|2,0:0|0:0|0:0,0:0:0:0:
396,329,60980,2,0,L|276:322,1,120,0|8,0:0|0:0,0:0:0:0:
115,268,61791,6,0,P|102:310|109:354,2,90,0|0|2,0:0|0:0|0:0,0:0:0:0:
173,206,62602,2,0,L|53:213,1,120,0|8,0:0|0:0,0:0:0:0:
31,131,63210,1,2,0:0:0:0:
31,131,63412,6,0,L|151:124,1,120,0|8,0:0|0:0,0:0:0:0:
198,285,64223,2,0,L|78:292,1,120,0|8,0:0|0:0,0:0:0:0:
31,131,65034,6,0,P|30:72|70:29,1,120,4|8,0:0|0:0,0:0:0:0:
145,66,65642,2,0,B|176:72|176:72|264:63,1,120,2|2,0:0|0:0,0:0:0:0:
340,27,66250,2,0,L|399:21,1,60,8|2,0:0|0:0,0:0:0:0:
483,14,66656,6,0,L|480:133,1,120,0|8,0:0|0:0,0:0:0:0:
418,191,67264,2,0,L|420:310,1,120,2|2,0:0|0:0,0:0:0:0:
359,368,67872,2,0,L|299:366,1,60,8|2,0:0|0:0,0:0:0:0:
215,362,68277,6,0,L|217:242,1,120,0|8,0:0|0:0,0:0:0:0:
152,190,68885,2,0,P|209:199|258:167,1,120,2|2,0:0|0:0,0:0:0:0:
282,87,69493,2,0,L|222:85,1,60,8|2,0:0|0:0,0:0:0:0:
139,104,69899,6,0,L|79:102,1,60,0|2,0:0|0:0,0:0:0:0:
8,56,70304,1,8,0:0:0:0:
8,56,70507,2,0,P|34:109|25:167,1,120,2|2,0:0|0:0,0:0:0:0:
0,248,71115,2,0,L|1:307,1,60,8|2,0:0|0:0,0:0:0:0:
83,326,71520,6,0,L|81:236,2,90,0|0|2,0:0|0:0|0:0,0:0:0:0:
163,302,72331,2,0,L|161:212,2,90,0|0|2,0:0|0:0|0:0,0:0:0:0:
244,324,73142,6,0,P|287:332|330:318,2,90,0|0|2,0:0|0:0|0:0,0:0:0:0:
282,248,73953,2,0,P|338:233|391:260,1,120,0|8,0:0|0:0,0:0:0:0:
473,113,74764,6,0,L|474:23,2,90,0|0|2,0:0|0:0|0:0,0:0:0:0:
404,161,75575,2,0,P|347:176|294:149,1,120,0|8,0:0|0:0,0:0:0:0:
240,85,76183,1,2,0:0:0:0:
240,85,76385,6,0,P|250:143|224:196,1,120,0|8,0:0|0:0,0:0:0:0:
59,162,77196,2,0,P|49:220|75:273,1,120,0|8,0:0|0:0,0:0:0:0:
224,196,78007,6,0,L|343:203,1,120,4|8,0:0|0:0,0:0:0:0:
407,148,78615,1,0,0:0:0:0:
407,148,78818,2,0,L|399:267,1,120,0|8,0:0|0:0,0:0:0:0:
257,360,79629,6,0,P|200:373|148:345,1,120,0|8,0:0|0:0,0:0:0:0:
211,290,80237,1,2,0:0:0:0:
211,290,80439,2,0,L|212:230,1,60,0|2,0:0|0:0,0:0:0:0:
281,180,80845,2,0,L|282:120,1,60,8|2,0:0|0:0,0:0:0:0:
323,44,81250,6,0,P|272:75|214:70,1,120,0|8,0:0|0:0,0:0:0:0:
154,11,81858,1,2,0:0:0:0:
154,11,82061,2,0,L|157:130,1,120,0|8,0:0|0:0,0:0:0:0:
163,299,82872,6,0,L|43:302,1,120,0|8,0:0|0:0,0:0:0:0:
6,227,83480,1,2,0:0:0:0:
6,227,83683,2,0,P|2:197|5:167,1,60,0|2,0:0|0:0,0:0:0:0:
70,113,84088,2,0,L|70:53,1,60,8|2,0:0|0:0,0:0:0:0:
154,48,84493,6,0,L|273:42,1,120,4|8,0:0|0:0,0:0:0:0:
342,91,85102,1,2,0:0:0:0:
342,91,85304,2,0,L|461:85,1,120,0|8,0:0|0:0,0:0:0:0:
409,245,86115,6,0,P|355:267|298:253,1,120,0|8,0:0|0:0,0:0:0:0:
237,195,86723,1,2,0:0:0:0:
237,195,86926,2,0,P|221:219|214:248,1,60,0|2,0:0|0:0,0:0:0:0:
228,332,87331,2,0,L|168:329,1,60,8|2,0:0|0:0,0:0:0:0:
101,381,87737,6,0,B|113:337|113:337|109:263,1,120,0|8,0:0|0:0,0:0:0:0:
102,178,88345,1,2,0:0:0:0:
102,178,88547,2,0,P|159:191|211:164,1,120,0|8,0:0|0:0,0:0:0:0:
138,14,89358,2,0,P|80:0|28:27,1,120,0|8,0:0|0:0,0:0:0:0:
90,84,89966,1,2,0:0:0:0:
90,84,90169,2,0,L|88:143,1,60,0|2,0:0|0:0,0:0:0:0:
42,215,90575,2,0,L|43:274,1,60,8|2,0:0|0:0,0:0:0:0:
113,321,90980,6,0,P|142:325|171:321,1,60,0|2,0:0|0:0,0:0:0:0:
244,277,91385,2,0,P|273:272|302:277,1,60,8|2,0:0|0:0,0:0:0:0:
362,337,91791,2,0,L|362:217,1,120
289,65,92602,6,0,L|229:65,1,60,4|2,0:0|0:0,0:0:0:0:
229,149,93007,2,0,L|289:149,1,60,8|2,0:0|0:0,0:0:0:0:
362,107,93412,2,0,L|422:107,2,60,0|2|8,0:0|0:0|0:0,0:0:0:0:
362,191,94020,1,2,0:0:0:0:
362,191,94223,6,0,L|422:191,1,60,0|2,0:0|0:0,0:0:0:0:
422,275,94629,2,0,L|362:275,1,60,8|2,0:0|0:0,0:0:0:0:
289,233,95034,2,0,L|229:233,2,60,0|2|8,0:0|0:0|0:0,0:0:0:0:
289,317,95642,1,2,0:0:0:0:
289,317,95845,6,0,L|109:317,1,180,12|12,0:0|0:0,0:0:0:0:
229,96,97061,2,0,L|289:96,1,60,12|6,0:0|0:0,0:0:0:0:
