osu file format v14

[General]
AudioFilename: Maeda Ai - keep on (TV Size).mp3
AudioLeadIn: 0
PreviewTime: 51757
Countdown: 0
SampleSet: Soft
StackLeniency: 0.7
Mode: 0
LetterboxInBreaks: 0
WidescreenStoryboard: 0

[Editor]
Bookmarks: 3412,9899,16385,22872,29358,35845,42331,48818,52061,58547,65034,71520,78007,84493,90980,97466
DistanceSpacing: 2.05
BeatDivisor: 8
GridSize: 32
TimelineZoom: 1.8

[Metadata]
Title:keep on (TV Size)
TitleUnicode:keep on (TVサイズ)
Artist:Maeda Ai
ArtistUnicode:前田愛
Creator:Kencho
Version:Insane
Source:デジモンアドベンチャー
Tags:digimon adventure monster ending childhood IamKwaN Wing My Way Hollow Wings toara_fict Nardoxyribonucleic
BeatmapID:775522
BeatmapSetID:351892

[Difficulty]
HPDrainRate:6
CircleSize:4
OverallDifficulty:7
ApproachRate:8.2
SliderMultiplier:1.6
SliderTickRate:1

[Events]
//Background and Video events
0,0,"BG.jpg",0,0
Video,0,"op.flv"
//Break Periods
//Storyboard Layer 0 (Background)
//Storyboard Layer 1 (Fail)
//Storyboard Layer 2 (Pass)
//Storyboard Layer 3 (Foreground)
//Storyboard Sound Samples

[TimingPoints]
169.616896317472,405.405405405405,4,3,1,30,1,0
3007,-100,4,2,1,70,0,0
3412,-100,4,2,1,60,0,0
9899,-100,4,2,1,50,0,0
35845,-100,4,2,1,45,0,0
45575,-100,4,2,1,40,0,0
48818,-100,4,2,1,45,0,0
50439,-100,4,2,1,60,0,0
52061,-83.3333333333333,4,2,1,60,0,1
78007,-100,4,2,1,60,0,0
92602,-100,4,2,1,50,0,0
93412,-100,4,2,1,55,0,0
94223,-100,4,2,1,60,0,0
95034,-100,4,2,1,65,0,0
95845,-100,4,2,1,70,0,0

[Colours]
Combo1 : 255,128,192
Combo2 : 255,128,64
Combo3 : 0,128,255
Combo4 : 255,64,64
Combo5 : 192,64,192
Combo6 : 255,255,64
Combo7 : 96,255,64
Combo8 : 96,128,192

[HitObjects]
162,190,169,6,0,L|240:193,1,80
277,195,473,1,0,0:0:0:0:
277,195,575,2,0,L|278:154,2,40
334,301,980,2,0,L|331:339,3,40
365,226,1385,1,0,0:0:0:0:
365,226,1791,6,0,L|285:221,1,80
249,221,2095,1,0,0:0:0:0:
249,221,2197,2,0,L|246:259,2,40
196,115,2602,2,0,L|197:74,3,40
164,190,3007,6,0,L|145:189,7,20
164,190,3412,6,0,P|202:257|177:331,1,160,4|8,0:0|0:0,0:0:0:0:
106,267,4020,1,2,0:0:0:0:
244,291,4223,2,0,P|283:294|322:284,1,80,0|2,0:0|0:0,0:0:0:0:
266,133,4629,1,8,0:0:0:0:
96,188,4831,1,2,0:0:0:0:
244,291,5034,6,0,P|256:253|256:214,1,80,0|2,0:0|0:0,0:0:0:0:
196,85,5439,1,8,0:0:0:0:
125,255,5642,1,2,0:0:0:0:
66,123,5845,1,0,0:0:0:0:
256,213,6047,1,2,0:0:0:0:
256,213,6149,1,0,0:0:0:0:
256,213,6250,2,0,P|295:213|334:204,1,80,8|2,0:0|0:0,0:0:0:0:
434,135,6656,6,0,P|407:206|442:275,1,160,0|8,0:0|0:0,0:0:0:0:
509,202,7264,1,2,0:0:0:0:
335,204,7466,2,0,P|339:243|355:280,1,80,0|2,0:0|0:0,0:0:0:0:
434,135,7872,1,8,0:0:0:0:
293,50,8075,1,2,0:0:0:0:
255,200,8277,6,0,L|335:204,1,80,0|2,0:0|0:0,0:0:0:0:
158,93,8683,2,0,L|78:89,1,80,8|2,0:0|0:0,0:0:0:0:
135,220,9088,1,0,0:0:0:0:
293,50,9291,1,2,0:0:0:0:
249,298,9493,1,8,0:0:0:0:
158,93,9696,1,14,0:0:0:0:
376,203,9899,5,2,0:0:0:0:
249,298,10102,2,0,P|210:300|171:291,1,80,2|8,0:0|0:0,0:0:0:0:
222,174,10507,1,2,0:0:0:0:
340,291,10710,2,0,L|336:371,1,80,0|2,0:0|0:0,0:0:0:0:
378,360,11014,1,0,0:0:0:0:
378,360,11115,2,0,B|402:356|402:356|458:362,1,80,8|2,0:0|0:0,0:0:0:0:
376,203,11520,6,0,L|296:196,1,80,0|2,0:0|0:0,0:0:0:0:
165,311,11926,2,0,L|245:304,1,80,8|2,0:0|0:0,0:0:0:0:
296,196,12331,1,0,0:0:0:0:
316,371,12534,1,2,0:0:0:0:
316,371,12635,1,0,0:0:0:0:
316,371,12737,1,8,0:0:0:0:
198,220,12939,1,2,0:0:0:0:
372,266,13142,6,0,P|411:265|449:252,1,80,0|2,0:0|0:0,0:0:0:0:
296,196,13547,2,0,P|277:230|269:269,1,80,8|2,0:0|0:0,0:0:0:0:
372,266,13953,1,0,0:0:0:0:
347,105,14156,1,2,0:0:0:0:
347,105,14257,1,0,0:0:0:0:
347,105,14358,2,0,P|308:95|268:98,1,80,8|2,0:0|0:0,0:0:0:0:
186,220,14764,5,0,0:0:0:0:
169,45,14966,1,2,0:0:0:0:
296,196,15169,1,8,0:0:0:0:
103,180,15372,1,2,0:0:0:0:
269,98,15575,1,0,0:0:0:0:
305,285,15777,1,2,0:0:0:0:
305,285,15879,1,0,0:0:0:0:
305,285,15980,2,0,P|305:324|297:363,1,80,8|2,0:0|0:0,0:0:0:0:
197,314,16385,5,2,0:0:0:0:
258,195,16588,2,0,P|296:184|336:186,1,80,2|8,0:0|0:0,0:0:0:0:
379,335,16993,1,2,0:0:0:0:
197,314,17196,2,0,P|189:274|189:234,1,80,0|2,0:0|0:0,0:0:0:0:
200,191,17500,1,0,0:0:0:0:
200,191,17602,2,0,L|279:196,1,80,8|2,0:0|0:0,0:0:0:0:
399,168,18007,6,0,P|402:129|392:90,1,80,0|2,0:0|0:0,0:0:0:0:
304,267,18412,2,0,L|299:346,1,80,8|2,0:0|0:0,0:0:0:0:
407,313,18818,1,0,0:0:0:0:
310,137,19020,1,2,0:0:0:0:
310,137,19122,1,0,0:0:0:0:
310,137,19223,1,8,0:0:0:0:
220,273,19426,2,0,L|259:270,1,40,2|0,0:0|0:0,0:0:0:0:
304,267,19629,6,0,L|299:346,1,80,0|2,0:0|0:0,0:0:0:0:
457,251,20034,2,0,L|452:171,1,80,8|2,0:0|0:0,0:0:0:0:
444,43,20439,1,0,0:0:0:0:
311,121,20642,1,2,0:0:0:0:
311,121,20743,1,0,0:0:0:0:
311,121,20845,2,0,P|350:124|389:115,1,80,8|2,0:0|0:0,0:0:0:0:
214,106,21250,6,0,L|218:185,1,80,0|2,0:0|0:0,0:0:0:0:
321,275,21656,1,8,0:0:0:0:
311,121,21858,1,2,0:0:0:0:
218,186,22061,1,0,0:0:0:0:
283,12,22264,1,2,0:0:0:0:
283,12,22365,1,0,0:0:0:0:
283,12,22466,1,8,0:0:0:0:
331,206,22669,1,6,0:0:0:0:
214,106,22872,5,0,0:0:0:0:
124,175,23075,2,0,P|85:183|46:180,1,80,2|8,0:0|0:0,0:0:0:0:
80,81,23480,1,2,0:0:0:0:
214,106,23683,1,0,0:0:0:0:
126,209,23885,1,2,0:0:0:0:
126,209,23987,1,0,0:0:0:0:
126,209,24088,1,8,0:0:0:0:
158,35,24291,1,2,0:0:0:0:
293,133,24493,6,0,L|372:128,1,80,0|2,0:0|0:0,0:0:0:0:
495,11,24899,2,0,L|415:15,1,80,8|2,0:0|0:0,0:0:0:0:
295,24,25304,1,0,0:0:0:0:
376,162,25507,1,2,0:0:0:0:
376,162,25608,1,0,0:0:0:0:
376,162,25710,2,0,P|404:189|442:202,1,80,8|2,0:0|0:0,0:0:0:0:
361,60,26115,6,0,P|323:70|293:97,1,80,0|2,0:0|0:0,0:0:0:0:
457,101,26520,2,0,P|466:62|458:23,1,80,8|2,0:0|0:0,0:0:0:0:
376,162,26926,1,0,0:0:0:0:
295,24,27129,1,2,0:0:0:0:
295,24,27230,1,0,0:0:0:0:
295,24,27331,2,0,L|216:28,1,80,8|2,0:0|0:0,0:0:0:0:
376,162,27737,5,0,0:0:0:0:
401,20,27939,1,2,0:0:0:0:
302,114,28142,1,8,0:0:0:0:
476,86,28345,1,2,0:0:0:0:
295,24,28547,1,0,0:0:0:0:
345,242,28750,1,2,0:0:0:0:
345,242,28852,1,0,0:0:0:0:
345,242,28953,2,0,P|384:243|423:234,1,80,8|2,0:0|0:0,0:0:0:0:
295,24,29358,5,2,0:0:0:0:
260,135,29561,2,0,P|258:174|268:213,1,80,2|8,0:0|0:0,0:0:0:0:
359,164,29966,1,2,0:0:0:0:
295,24,30169,2,0,L|215:28,1,80,0|2,0:0|0:0,0:0:0:0:
191,65,30473,1,0,0:0:0:0:
191,65,30575,2,0,L|111:61,1,80,8|2,0:0|0:0,0:0:0:0:
2,155,30980,6,0,L|82:151,1,80,0|2,0:0|0:0,0:0:0:0:
57,305,31385,2,0,P|41:268|43:229,1,80,8|2,0:0|0:0,0:0:0:0:
146,250,31791,1,0,0:0:0:0:
96,376,31993,1,2,0:0:0:0:
96,376,32095,1,0,0:0:0:0:
96,376,32196,1,8,0:0:0:0:
43,229,32399,1,2,0:0:0:0:
171,324,32602,6,0,P|210:326|248:314,1,80,0|2,0:0|0:0,0:0:0:0:
353,256,33007,2,0,L|350:335,1,80,8|2,0:0|0:0,0:0:0:0:
249,314,33412,1,0,0:0:0:0:
431,215,33615,1,2,0:0:0:0:
431,215,33716,1,0,0:0:0:0:
431,215,33818,2,0,L|428:294,1,80,8|2,0:0|0:0,0:0:0:0:
299,200,34223,6,0,L|296:120,1,80,0|2,0:0|0:0,0:0:0:0:
167,165,34629,1,8,0:0:0:0:
249,314,34831,1,2,0:0:0:0:
217,91,35034,1,0,0:0:0:0:
108,259,35237,2,0,L|147:254,1,40,2|0,0:0|0:0,0:0:0:0:
300,233,35439,5,8,0:0:0:0:
300,233,35541,1,8,0:0:0:0:
300,233,35642,1,2,0:0:0:0:
167,165,35845,6,0,P|110:148|55:169,1,120,2|0,0:0|0:0,0:0:0:0:
18,193,36250,2,0,L|14:113,1,80,0|2,0:0|0:0,0:0:0:0:
108,259,36656,2,0,L|104:339,1,80
146,328,36960,1,0,0:0:0:0:
146,328,37061,2,0,B|167:325|167:325|225:337,1,80,8|0,0:0|0:0,0:0:0:0:
339,233,37466,6,0,L|260:217,1,80,2|0,0:0|0:0,0:0:0:0:
242,229,37770,1,0,0:0:0:0:
223,241,37872,1,0,0:0:0:0:
303,380,38075,2,0,P|312:341|307:302,1,80,2|0,0:0|0:0,0:0:0:0:
273,145,38480,1,0,0:0:0:0:
368,230,38683,2,0,L|447:223,1,80,8|0,0:0|0:0,0:0:0:0:
273,145,39088,6,0,L|153:155,1,120,2|0,0:0|0:0,0:0:0:0:
109,159,39493,2,0,L|102:79,1,80,0|2,0:0|0:0,0:0:0:0:
13,213,39899,2,0,L|19:292,1,80,0|0,0:0|0:0,0:0:0:0:
10,336,40203,1,0,0:0:0:0:
10,336,40304,2,0,P|46:321|86:316,1,80,8|0,0:0|0:0,0:0:0:0:
223,362,40710,6,0,P|281:370|331:338,2,120,2|0|2,0:0|0:0|0:0,0:0:0:0:
156,272,41520,1,0,0:0:0:0:
263,291,41723,1,0,0:0:0:0:
126,357,41926,2,0,L|46:353,1,80,8|0,0:0|0:0,0:0:0:0:
220,213,42331,6,0,L|339:218,1,120,2|0,0:0|0:0,0:0:0:0:
384,221,42737,2,0,L|380:300,1,80,0|2,0:0|0:0,0:0:0:0:
468,167,43142,2,0,L|471:87,1,80,0|0,0:0|0:0,0:0:0:0:
430,104,43446,1,0,0:0:0:0:
430,104,43547,2,0,B|408:109|408:109|350:102,1,80,8|0,0:0|0:0,0:0:0:0:
198,33,43953,6,0,L|277:23,1,80,2|0,0:0|0:0,0:0:0:0:
299,19,44257,1,0,0:0:0:0:
320,15,44358,1,0,0:0:0:0:
247,184,44561,2,0,P|238:145|245:106,1,80,2|0,0:0|0:0,0:0:0:0:
351,102,44966,1,0,0:0:0:0:
393,196,45169,2,0,P|400:235|391:273,1,80,8|0,0:0|0:0,0:0:0:0:
247,184,45575,6,0,L|287:184,3,40,2|0|2|0,0:0|0:0|0:0|0:0,0:0:0:0:
179,131,45980,2,0,L|139:131,3,40,0|0|2|0,0:0|0:0|0:0|0:0,0:0:0:0:
247,78,46385,2,0,L|287:78,3,40,0|0|2|0,0:0|0:0|0:0|0:0,0:0:0:0:
179,25,46791,2,0,L|139:25,3,40,8|0|2|0,0:0|0:0|0:0|0:0,0:0:0:0:
70,65,47196,5,2,0:0:0:0:
52,80,47297,1,0,0:0:0:0:
40,102,47399,1,2,0:0:0:0:
38,125,47500,1,0,0:0:0:0:
45,148,47602,2,0,L|84:144,3,40,0|0|2|0,0:0|0:0|0:0|0:0,0:0:0:0:
169,178,48007,5,0,0:0:0:0:
187,163,48108,1,0,0:0:0:0:
199,141,48210,1,2,0:0:0:0:
201,118,48311,1,0,0:0:0:0:
194,95,48412,2,0,L|154:98,3,40,8|0|2|0,0:0|0:0|0:0|0:0,0:0:0:0:
103,28,48818,6,0,L|98:187,1,160,2|0,0:0|0:0,0:0:0:0:
220,226,49426,2,0,P|225:186|218:147,1,80,2|0,0:0|0:0,0:0:0:0:
98,188,49831,1,2,0:0:0:0:
186,312,50034,1,8,0:0:0:0:
218,147,50237,1,2,0:0:0:0:
25,275,50439,5,8,0:0:0:0:
297,206,50642,1,2,0:0:0:0:
100,370,50845,1,8,0:0:0:0:
87,95,51047,1,2,0:0:0:0:
87,95,51453,5,0,0:0:0:0:
40,211,51656,2,0,L|20:211,7,20,0|0|0|0|0|0|0|0,0:0|0:0|0:0|0:0|0:0|0:0|0:0|0:0,0:0:0:0:
40,211,52061,6,0,L|136:211,1,95.9999970703126,4|2,0:0|0:0,0:0:0:0:
236,121,52466,1,8,0:0:0:0:
92,3,52669,2,0,P|78:49|87:95,1,95.9999970703126,2|0,0:0|0:0,0:0:0:0:
136,211,53075,1,2,0:0:0:0:
186,54,53277,1,8,0:0:0:0:
36,175,53480,1,2,0:0:0:0:
159,247,53683,6,0,P|205:256|250:240,1,95.9999970703126,0|2,0:0|0:0,0:0:0:0:
198,136,54088,1,8,0:0:0:0:
52,204,54291,2,0,L|56:299,1,95.9999970703126,2|0,0:0|0:0,0:0:0:0:
159,247,54696,1,2,0:0:0:0:
49,113,54899,1,8,0:0:0:0:
56,299,55102,1,2,0:0:0:0:
190,224,55304,6,0,P|235:213|281:224,1,95.9999970703126,0|2,0:0|0:0,0:0:0:0:
234,341,55710,1,8,0:0:0:0:
106,269,55912,2,0,P|71:183|113:100,1,191.999994140625,2|2,0:0|0:0,0:0:0:0:
203,188,56520,1,8,0:0:0:0:
31,201,56723,1,2,0:0:0:0:
107,6,56926,6,0,P|119:53|113:100,1,95.9999970703126,0|2,0:0|0:0,0:0:0:0:
31,201,57331,1,8,0:0:0:0:
18,60,57534,2,0,L|209:48,1,191.999994140625,2|2,0:0|0:0,0:0:0:0:
344,39,58142,1,8,0:0:0:0:
212,168,58345,1,2,0:0:0:0:
278,8,58547,6,0,P|297:51|298:98,1,95.9999970703126,0|2,0:0|0:0,0:0:0:0:
282,140,58852,1,0,0:0:0:0:
282,140,58953,2,0,B|254:144|254:144|186:138,1,95.9999970703126,8|2,0:0|0:0,0:0:0:0:
382,89,59358,2,0,P|401:132|402:179,1,95.9999970703126,0|2,0:0|0:0,0:0:0:0:
386,221,59662,1,0,0:0:0:0:
386,221,59764,2,0,B|358:225|358:225|290:219,1,95.9999970703126,8|2,0:0|0:0,0:0:0:0:
489,172,60169,5,0,0:0:0:0:
474,282,60372,2,0,L|427:278,1,47.9999985351563,2|0,0:0|0:0,0:0:0:0:
393,248,60575,2,0,L|390:343,1,95.9999970703126,8|2,0:0|0:0,0:0:0:0:
267,291,60980,1,0,0:0:0:0:
398,125,61183,1,2,0:0:0:0:
390,343,61385,1,8,0:0:0:0:
273,166,61588,1,2,0:0:0:0:
393,248,61791,6,0,P|348:261|301:252,1,95.9999970703126
282,240,62095,1,0,0:0:0:0:
268,223,62196,1,8,0:0:0:0:
398,125,62399,1,2,0:0:0:0:
301,252,62602,1,0,0:0:0:0:
278,89,62804,1,2,0:0:0:0:
393,248,63007,1,8,0:0:0:0:
165,146,63210,1,2,0:0:0:0:
347,40,63412,6,0,P|359:85|351:132,1,95.9999970703126,0|2,0:0|0:0,0:0:0:0:
239,254,63818,2,0,P|227:209|234:162,1,95.9999970703126,8|2,0:0|0:0,0:0:0:0:
400,201,64223,2,0,P|354:213|307:204,1,95.9999970703126,0|2,0:0|0:0,0:0:0:0:
186,93,64629,2,0,P|231:80|278:89,1,95.9999970703126,8|2,0:0|0:0,0:0:0:0:
235,301,65034,5,4,0:0:0:0:
115,197,65237,1,2,0:0:0:0:
234,162,65439,1,8,0:0:0:0:
145,318,65642,2,0,P|98:321|53:306,1,95.9999970703126,2|0,0:0|0:0,0:0:0:0:
115,197,66047,1,2,0:0:0:0:
235,301,66250,1,8,0:0:0:0:
52,306,66453,1,2,0:0:0:0:
209,200,66656,5,0,0:0:0:0:
145,318,66858,1,2,0:0:0:0:
98,121,67061,1,8,0:0:0:0:
275,148,67264,2,0,P|290:193|282:240,1,95.9999970703126,2|0,0:0|0:0,0:0:0:0:
174,203,67669,1,2,0:0:0:0:
243,64,67872,1,8,0:0:0:0:
283,240,68075,1,2,0:0:0:0:
384,151,68277,6,0,P|340:134|293:139,1,95.9999970703126,0|2,0:0|0:0,0:0:0:0:
174,203,68683,1,8,0:0:0:0:
262,307,68885,2,0,P|314:230|293:139,1,191.999994140625,2|2,0:0|0:0,0:0:0:0:
132,56,69493,1,8,0:0:0:0:
174,203,69696,1,2,0:0:0:0:
328,72,69899,6,0,P|281:67|239:88,1,95.9999970703126,0|2,0:0|0:0,0:0:0:0:
174,203,70304,1,8,0:0:0:0:
298,249,70507,2,0,P|303:155|239:88,1,191.999994140625,2|2,0:0|0:0,0:0:0:0:
48,115,71115,1,8,0:0:0:0:
174,203,71318,1,2,0:0:0:0:
132,39,71520,6,0,P|120:85|130:131,1,95.9999970703126,0|2,0:0|0:0,0:0:0:0:
163,162,71825,1,0,0:0:0:0:
163,162,71926,2,0,L|156:258,1,95.9999970703126,8|2,0:0|0:0,0:0:0:0:
253,100,72331,2,0,P|206:88|160:98,1,95.9999970703126,0|2,0:0|0:0,0:0:0:0:
130,131,72635,1,0,0:0:0:0:
130,131,72737,2,0,L|34:124,1,95.9999970703126,8|2,0:0|0:0,0:0:0:0:
156,257,73142,5,0,0:0:0:0:
252,185,73345,2,0,L|299:189,1,47.9999985351563,2|0,0:0|0:0,0:0:0:0:
326,153,73547,2,0,L|230:146,1,95.9999970703126,8|2,0:0|0:0,0:0:0:0:
156,257,73953,1,0,0:0:0:0:
183,69,74156,1,2,0:0:0:0:
213,171,74358,1,8,0:0:0:0:
83,32,74561,1,2,0:0:0:0:
39,147,74764,6,0,P|85:157|130:144,1,95.9999970703126
147,130,75068,1,0,0:0:0:0:
159,112,75169,1,8,0:0:0:0:
83,32,75372,1,2,0:0:0:0:
89,208,75575,1,0,0:0:0:0:
169,73,75777,1,2,0:0:0:0:
1,130,75980,1,8,0:0:0:0:
256,113,76183,1,2,0:0:0:0:
83,32,76385,6,0,P|74:78|88:123,1,95.9999970703126,0|2,0:0|0:0,0:0:0:0:
251,205,76791,2,0,P|265:160|256:114,1,95.9999970703126,8|2,0:0|0:0,0:0:0:0:
149,236,77196,1,0,0:0:0:0:
324,265,77399,1,2,0:0:0:0:
324,265,77500,1,8,0:0:0:0:
324,265,77602,2,0,L|371:267,1,47.9999985351563,8|8,0:0|0:0,0:0:0:0:
467,273,77804,1,2,0:0:0:0:
271,356,78007,6,0,L|191:352,1,80,4|2,0:0|0:0,0:0:0:0:
133,265,78412,1,8,0:0:0:0:
237,258,78615,1,0,0:0:0:0:
109,344,78818,2,0,L|29:340,1,80,0|2,0:0|0:0,0:0:0:0:
133,265,79223,1,8,0:0:0:0:
191,352,79426,1,0,0:0:0:0:
48,259,79629,6,0,P|37:220|41:181,1,80,0|2,0:0|0:0,0:0:0:0:
184,101,80034,2,0,P|188:140|177:179,1,80,8|2,0:0|0:0,0:0:0:0:
133,265,80439,1,0,0:0:0:0:
25,107,80642,1,2,0:0:0:0:
25,107,80743,1,0,0:0:0:0:
25,107,80845,2,0,P|64:103|102:115,1,80,8|2,0:0|0:0,0:0:0:0:
177,179,81250,6,0,L|256:175,1,80,0|2,0:0|0:0,0:0:0:0:
315,88,81656,1,8,0:0:0:0:
211,81,81858,1,2,0:0:0:0:
339,167,82061,2,0,L|418:163,1,80,0|2,0:0|0:0,0:0:0:0:
315,88,82466,1,8,0:0:0:0:
257,175,82669,1,2,0:0:0:0:
340,320,82872,6,0,P|356:283|355:244,1,80,0|2,0:0|0:0,0:0:0:0:
158,155,83277,2,0,P|157:194|173:230,1,80,8|2,0:0|0:0,0:0:0:0:
257,175,83683,1,0,0:0:0:0:
184,32,83885,1,2,0:0:0:0:
184,32,83987,1,0,0:0:0:0:
184,32,84088,2,0,L|104:27,1,80,8|2,0:0|0:0,0:0:0:0:
50,237,84493,6,0,L|129:232,1,80,4|2,0:0|0:0,0:0:0:0:
215,125,84899,2,0,L|135:120,1,80,8|2,0:0|0:0,0:0:0:0:
213,260,85304,2,0,L|292:255,1,80,0|2,0:0|0:0,0:0:0:0:
378,148,85710,2,0,L|298:143,1,80,8|2,0:0|0:0,0:0:0:0:
385,247,86115,5,0,0:0:0:0:
485,155,86318,1,2,0:0:0:0:
298,143,86520,1,8,0:0:0:0:
383,278,86723,1,2,0:0:0:0:
395,94,86926,1,0,0:0:0:0:
273,241,87129,1,2,0:0:0:0:
273,241,87230,1,0,0:0:0:0:
273,241,87331,2,0,L|193:236,1,80,8|2,0:0|0:0,0:0:0:0:
327,86,87737,6,0,P|334:125|331:164,1,80,0|2,0:0|0:0,0:0:0:0:
278,320,88142,2,0,P|270:280|273:241,1,80,8|2,0:0|0:0,0:0:0:0:
436,252,88547,2,0,P|396:259|357:256,1,80,0|2,0:0|0:0,0:0:0:0:
168,152,88953,2,0,P|207:144|246:147,1,80,8|2,0:0|0:0,0:0:0:0:
213,263,89358,5,0,0:0:0:0:
86,168,89561,1,2,0:0:0:0:
86,168,89662,1,0,0:0:0:0:
86,168,89764,2,0,L|82:128,3,40,8|0|2|0,0:0|0:0|0:0|0:0,0:0:0:0:
116,251,90169,2,0,L|119:290,3,40,0|0|2|0,0:0|0:0|0:0|0:0,0:0:0:0:
168,152,90575,2,0,L|164:112,3,40,8|0|2|0,0:0|0:0|0:0|0:0,0:0:0:0:
198,235,90980,6,0,L|237:231,1,40
86,168,91183,2,0,L|46:172,1,40,2|0,0:0|0:0,0:0:0:0:
119,290,91385,1,8,0:0:0:0:
164,112,91588,1,2,0:0:0:0:
19,250,91791,1,0,0:0:0:0:
198,235,91993,1,2,0:0:0:0:
198,235,92095,1,8,0:0:0:0:
198,235,92196,2,0,L|237:231,1,40,0|8,0:0|0:0,0:0:0:0:
325,218,92399,1,2,0:0:0:0:
281,27,92602,6,0,L|276:106,1,80,4|2,0:0|0:0,0:0:0:0:
169,192,93007,2,0,L|164:112,1,80,8|2,0:0|0:0,0:0:0:0:
304,190,93412,2,0,L|299:269,1,80,0|2,0:0|0:0,0:0:0:0:
192,355,93818,2,0,L|187:275,1,80,8|2,0:0|0:0,0:0:0:0:
275,106,94223,5,0,0:0:0:0:
299,269,94426,1,2,0:0:0:0:
169,192,94629,1,8,0:0:0:0:
378,163,94831,1,2,0:0:0:0:
187,275,95034,5,0,0:0:0:0:
345,50,95237,1,2,0:0:0:0:
354,323,95439,1,8,0:0:0:0:
182,109,95642,1,2,0:0:0:0:
378,163,95845,6,0,L|298:170,1,80,12|2,0:0|0:0,0:0:0:0:
182,109,96250,1,2,0:0:0:0:
299,269,96453,6,0,L|219:276,1,80,12|2,0:0|0:0,0:0:0:0:
103,215,96858,2,0,L|129:212,2,26.6666666666667,2|2|2,0:0|0:0|0:0,0:0:0:0:
108,139,97061,5,12,0:0:0:0:
123,379,97264,1,6,0:0:0:0:
