osu file format v14

[General]
AudioFilename: Digimon Adventure ED 01.mp3
AudioLeadIn: 0
PreviewTime: 7799
Countdown: 0
SampleSet: Soft
StackLeniency: 0.7
Mode: 0
LetterboxInBreaks: 1
WidescreenStoryboard: 1

[Editor]
DistanceSpacing: 1
BeatDivisor: 4
GridSize: 4
TimelineZoom: 1

[Metadata]
Title:I Wish (TV Size)
TitleUnicode:I Wish (TV Size)
Artist:Maeda Ai
ArtistUnicode:Maeda Ai
Creator:lovhin456
Version:Hard
Source:Digimon Adventure
Tags:ending HeatKai heatwave95
BeatmapID:127722
BeatmapSetID:40211

[Difficulty]
HPDrainRate:7
CircleSize:4
OverallDifficulty:7
ApproachRate:8
SliderMultiplier:1.8
SliderTickRate:2

[Events]
//Background and Video events
Video,0,"Digimon Adventure - NC ED 01.flv"
0,0,"bg.jpg",0,0
//Break Periods
2,23908,28108
//Storyboard Layer 0 (Background)
//Storyboard Layer 1 (Fail)
//Storyboard Layer 2 (Pass)
//Storyboard Layer 3 (Foreground)
//Storyboard Sound Samples

[TimingPoints]
650,447.761194029851,4,2,1,45,1,0
23038,-100,4,2,1,30,0,0
23485,-100,4,2,1,45,0,0
29978,-200,4,2,1,45,0,0
31097,-100,4,2,1,45,0,0
61321,-100,4,2,1,45,0,1
88187,-200,4,2,1,35,0,0

[Colours]
Combo1 : 254,141,170
Combo2 : 47,109,204
Combo3 : 250,143,27
Combo4 : 247,60,60
Combo5 : 149,233,73

[HitObjects]
256,192,6023,12,4,7590,0:0:0:0:
256,192,8038,5,0,0:0:0:0:
256,192,8261,1,4,0:0:0:0:
76,192,8709,6,0,B|136:260,1,90,0|0,0:0|0:0,0:0:0:0:
436,192,9157,2,0,B|376:260,1,90,0|4,0:0|0:0,0:0:0:0:
256,192,9605,2,0,B|256:100,2,90,0|2|0,0:0|0:0|0:0,0:0:0:0:
260,280,10276,1,0,0:0:0:0:
260,280,10500,1,2,0:0:0:0:
256,8,11172,1,2,0:0:0:0:
148,156,11620,6,0,B|172:204|220:204,1,90,0|2,0:0|0:0,0:0:0:0:
364,156,12067,2,0,B|340:204|292:204,1,90,0|2,0:0|0:0,0:0:0:0:
256,108,12515,1,0,0:0:0:0:
256,108,12739,1,0,0:0:0:0:
256,17,12963,1,2,0:0:0:0:
84,72,13411,1,2,0:0:0:0:
40,248,13858,5,0,0:0:0:0:
88,324,14082,1,2,0:0:0:0:
132,248,14306,1,0,0:0:0:0:
88,172,14530,1,0,0:0:0:0:
132,248,14754,2,0,B|192:232|252:300|232:364,1,180,8|0,0:0|0:0,0:0:0:0:
324,348,15426,1,2,0:0:0:0:
404,308,15650,1,0,0:0:0:0:
440,224,15873,1,2,0:0:0:0:
424,136,16097,5,0,0:0:0:0:
364,68,16321,1,0,0:0:0:0:
276,60,16545,1,0,0:0:0:0:
200,112,16769,6,0,B|216:208|132:272,1,180,4|0,0:0|0:0,0:0:0:0:
376,269,17441,2,0,B|296:208|312:112,1,180,4|0,0:0|0:0,0:0:0:0:
256,376,18336,2,0,B|232:336|256:300|256:300|280:256|256:204,1,180,4|0,0:0|0:0,0:0:0:0:
256,24,19232,1,2,0:0:0:0:
256,204,19679,1,0,0:0:0:0:
256,204,19903,1,2,0:0:0:0:
352,180,20127,6,0,P|256:104|152:180,2,270,4|0|0,0:0|0:0|0:0,0:0:0:0:
352,180,21694,1,0,0:0:0:0:
256,332,21918,1,4,0:0:0:0:
232,48,23038,6,0,B|276:48,2,45,8|0|10,0:0|0:0|0:0,0:0:0:0:
256,136,23485,2,0,L|256:228,1,90,8|2,0:0|0:0,0:0:0:0:
256,84,28858,6,0,B|256:40,4,45,8|0|8|0|2,0:0|0:0|0:0|0:0|0:0,0:0:0:0:
256,176,29530,1,8,0:0:0:0:
256,176,29642,1,0,0:0:0:0:
256,176,29754,1,8,0:0:0:0:
204,248,29978,6,0,P|256:284|308:248,1,135,0|2,0:0|0:0,0:0:0:0:
256,80,31097,5,4,0:0:0:0:
76,68,31545,2,0,P|92:108|76:152,2,90,8|0|0,0:0|0:0|0:0,0:0:0:0:
24,224,32217,1,0,0:0:0:0:
52,308,32441,1,8,0:0:0:0:
140,304,32664,1,0,0:0:0:0:
208,244,32888,2,0,B|304:228|364:312,1,180,0|8,0:0|0:0,0:0:0:0:
363,311,33560,1,0,0:0:0:0:
448,284,33784,1,0,0:0:0:0:
472,196,34008,1,0,0:0:0:0:
440,112,34232,6,0,B|392:112|364:68,2,90,8|0|0,0:0|0:0|0:0,0:0:0:0:
280,36,34903,1,0,0:0:0:0:
192,28,35127,1,8,0:0:0:0:
108,60,35351,1,0,0:0:0:0:
108,60,35799,1,0,0:0:0:0:
52,132,36023,1,8,0:0:0:0:
32,312,36247,6,0,B|132:328|192:252,1,180,2|0,0:0|0:0,0:0:0:0:
364,308,36918,1,8,0:0:0:0:
452,288,37142,1,0,0:0:0:0:
452,288,37254,1,0,0:0:0:0:
452,288,37366,1,8,0:0:0:0:
452,196,37590,2,0,B|408:184|396:128,1,90,0|8,0:0|0:0,0:0:0:0:
404,108,37926,1,0,0:0:0:0:
416,88,38038,1,0,0:0:0:0:
152,40,38261,5,2,0:0:0:0:
32,176,38709,1,8,0:0:0:0:
212,156,39157,1,0,0:0:0:0:
168,232,39381,2,0,B|212:256|256:232,2,90,0|8|0,0:0|0:0|0:0,0:0:0:0:
296,360,40052,2,0,B|256:332|212:336,2,90,0|0|8,0:0|0:0|0:0,0:0:0:0:
368,304,40724,1,0,0:0:0:0:
432,240,40948,2,0,L|372:172,2,90,0|0|8,0:0|0:0|0:0,0:0:0:0:
496,176,41620,1,0,0:0:0:0:
464,92,41844,5,0,0:0:0:0:
376,80,42067,1,0,0:0:0:0:
296,124,42291,1,8,0:0:0:0:
216,168,42515,2,0,P|136:200|68:148,1,180,2|0,0:0|0:0,0:0:0:0:
40,64,43187,5,8,0:0:0:0:
40,64,43411,1,4,0:0:0:0:
144,212,43858,1,0,0:0:0:0:
148,304,44082,1,8,0:0:0:0:
168,300,44194,1,0,0:0:0:0:
188,296,44306,2,0,B|224:332,2,45,4|0|8,0:0|0:0|0:0,0:0:0:0:
228,120,44978,1,8,0:0:0:0:
228,120,45090,1,0,0:0:0:0:
228,120,45202,1,8,0:0:0:0:
392,48,45426,6,0,B|440:132|396:220,1,180,2|8,0:0|0:0,0:0:0:0:
132,284,46097,1,0,0:0:0:0:
132,284,46321,2,0,P|100:200|128:116,1,180,0|8,0:0|0:0,0:0:0:0:
256,144,46993,2,0,B|256:52,2,90
296,224,47664,1,8,0:0:0:0:
212,252,47888,1,2,0:0:0:0:
256,328,48112,1,0,0:0:0:0:
112,100,48560,1,8,0:0:0:0:
112,100,48784,1,0,0:0:0:0:
112,100,49008,6,0,B|40:152|40:152|20:200|68:228,1,180,0|8,0:0|0:0,0:0:0:0:
244,184,49903,2,0,B|288:212|280:260|280:260|204:316,1,180,0|8,0:0|0:0,0:0:0:0:
280,368,50575,1,0,0:0:0:0:
368,352,50799,5,0,0:0:0:0:
440,300,51023,1,0,0:0:0:0:
468,216,51247,1,8,0:0:0:0:
464,128,51470,1,8,0:0:0:0:
464,128,51582,1,0,0:0:0:0:
464,128,51694,1,2,0:0:0:0:
300,56,52142,1,8,0:0:0:0:
280,48,52254,1,0,0:0:0:0:
260,56,52366,1,0,0:0:0:0:
196,120,52590,5,2,0:0:0:0:
196,212,52814,2,0,B|228:252|204:296,2,90,0|8|0,0:0|0:0|0:0,0:0:0:0:
376,212,53485,1,0,0:0:0:0:
376,212,53709,2,0,B|344:252|368:296,2,90,0|8|0,0:0|0:0|0:0,0:0:0:0:
456,252,54381,6,0,P|456:168|380:120,1,180,4|8,0:0|0:0,0:0:0:0:
316,56,55052,1,0,0:0:0:0:
248,116,55276,2,0,P|204:188|112:192,1,180,2|8,0:0|0:0,0:0:0:0:
156,112,55948,1,0,0:0:0:0:
64,112,56172,2,0,P|16:184|48:264,1,180,4|8,0:0|0:0,0:0:0:0:
132,292,56844,1,0,0:0:0:0:
304,338,57067,1,2,0:0:0:0:
269,161,57291,2,0,L|305:133,2,45,0|0|8,0:0|0:0|0:0,0:0:0:0:
256,192,57739,12,4,59530,0:0:0:0:
256,56,59978,5,4,0:0:0:0:
256,56,60202,1,4,0:0:0:0:
256,328,60650,5,4,0:0:0:0:
256,328,60873,1,0,0:0:0:0:
256,284,60985,1,0,0:0:0:0:
256,240,61097,1,0,0:0:0:0:
256,148,61321,6,0,B|256:60,1,90,4|0,0:0|0:0,0:0:0:0:
256,148,61769,1,2,0:0:0:0:
212,324,62217,2,0,B|256:352|296:324,1,90,0|2,0:0|0:0,0:0:0:0:
420,192,62888,1,0,0:0:0:0:
464,112,63112,1,2,0:0:0:0:
300,40,63560,5,0,0:0:0:0:
212,52,63784,2,0,L|124:36,1,90,2|0,0:0|0:0,0:0:0:0:
60,100,64232,2,0,B|60:148|20:180,1,90,0|2,0:0|0:0,0:0:0:0:
12,268,64679,1,0,0:0:0:0:
96,236,64903,2,0,P|84:324|8:360,1,180,2|2,0:0|0:0,0:0:0:0:
252,244,65799,6,0,B|204:248|184:300,1,90,0|2,0:0|0:0,0:0:0:0:
264,328,66247,2,0,B|316:316|328:272,1,90
328,271,66694,1,2,0:0:0:0:
456,144,67142,5,0,0:0:0:0:
412,68,67366,2,0,P|380:36|336:28,2,90,2|0|0,0:0|0:0|0:0,0:0:0:0:
56,144,68038,5,2,0:0:0:0:
100,68,68262,2,0,P|132:36|176:28,2,90,0|2|0,0:0|0:0|0:0,0:0:0:0:
256,164,68933,1,2,0:0:0:0:
84,220,69381,1,0,0:0:0:0:
84,220,69605,1,2,0:0:0:0:
248,296,70052,1,0,0:0:0:0:
248,296,70276,1,2,0:0:0:0:
300,124,70724,5,0,0:0:0:0:
352,52,70948,1,2,0:0:0:0:
448,48,71172,1,0,0:0:0:0:
352,52,71396,1,0,0:0:0:0:
264,32,71620,1,0,0:0:0:0:
352,52,71844,1,0,0:0:0:0:
300,124,72067,1,2,0:0:0:0:
132,184,72515,5,0,0:0:0:0:
152,272,72739,1,2,0:0:0:0:
224,324,72963,1,0,0:0:0:0:
314,324,73187,1,2,0:0:0:0:
388,272,73411,1,0,0:0:0:0:
416,188,73635,1,2,0:0:0:0:
416,188,73858,1,8,0:0:0:0:
260,100,74306,6,0,B|288:60|340:72,2,90,0|0|4,0:0|0:0|0:0,0:0:0:0:
184,152,74978,2,0,B|140:180|96:152,2,90,0|2|0,0:0|0:0|0:0,0:0:0:0:
140,72,75649,1,4,0:0:0:0:
64,236,76097,1,2,0:0:0:0:
216,332,76545,2,0,B|292:284,1,90,0|2,0:0|0:0,0:0:0:0:
472,260,77217,2,0,B|396:312,2,90,0|2|0,0:0|0:0|0:0,0:0:0:0:
448,172,77888,6,0,B|436:124|392:100,1,90,0|2,0:0|0:0,0:0:0:0:
312,64,78336,1,0,0:0:0:0:
224,52,78560,1,2,0:0:0:0:
136,68,78784,1,0,0:0:0:0:
68,128,79008,1,0,0:0:0:0:
68,128,79232,1,2,0:0:0:0:
48,308,79679,1,2,0:0:0:0:
224,348,80127,6,0,B|272:328|280:284,1,90,0|2,0:0|0:0,0:0:0:0:
296,196,80575,1,0,0:0:0:0:
280,108,80799,1,2,0:0:0:0:
212,48,81023,1,8,0:0:0:0:
296,196,81470,1,0,0:0:0:0:
296,196,81582,1,0,0:0:0:0:
296,196,81694,1,0,0:0:0:0:
220,244,81918,1,0,0:0:0:0:
124,92,82142,5,2,0:0:0:0:
52,148,82366,2,0,B|52:244,1,90
52,238,82814,1,0,0:0:0:0:
224,296,83038,6,0,P|312:280|360:348,1,180,4|0,0:0|0:0,0:0:0:0:
476,208,83709,1,4,0:0:0:0:
476,208,84157,1,2,0:0:0:0:
476,208,84381,1,0,0:0:0:0:
340,92,84605,6,0,P|256:116|196:56,1,180,4|0,0:0|0:0,0:0:0:0:
108,68,85276,1,0,0:0:0:0:
60,144,85500,1,2,0:0:0:0:
160,292,85948,5,2,0:0:0:0:
333,338,86172,1,0,0:0:0:0:
284,167,86396,1,4,0:0:0:0:
256,192,86508,12,4,88187,0:0:0:0:
196,256,89306,6,0,B|256:304|320:252,2,135,8|0|0,0:0|0:0|0:0,0:0:0:0:
256,192,91097,2,0,B|256:52,2,135,0|0|0,0:0|0:0|0:0,0:0:0:0:
172,352,93336,5,8,0:0:0:0:
171,352,93560,2,0,P|254:324|339:351,1,180,8|0,0:0|0:0,0:0:0:0:
339,351,94679,1,0,0:0:0:0:
256,192,95127,5,8,0:0:0:0:
256,56,95351,1,4,0:0:0:0:
