osu file format v14

[General]
AudioFilename: audio.mp3
AudioLeadIn: 0
PreviewTime: 52209
Countdown: 0
SampleSet: Soft
StackLeniency: 0.7
Mode: 0
LetterboxInBreaks: 0
WidescreenStoryboard: 0

[Editor]
Bookmarks: 11066,22037,38505,65933,82390,109819,115305
DistanceSpacing: 1
BeatDivisor: 4
GridSize: 8
TimelineZoom: 1.8

[Metadata]
Title:Got Me Thinking
TitleUnicode:Got Me Thinking
Artist:Maduk ft. Veela
ArtistUnicode:Maduk ft. Veela
Creator:Evelynn
Version:Sky High
Source:Hospital Records
Tags:xKito Hospital Records Maduk Veela dnb Lili X Miss Overmap -BlastTheKidd- XFroceS
BeatmapID:1435786
BeatmapSetID:679072

[Difficulty]
HPDrainRate:6.5
CircleSize:4
OverallDifficulty:8
ApproachRate:9
SliderMultiplier:1.5
SliderTickRate:1

[Events]
//Background and Video events
0,0,"8.jpg",0,0
//Break Periods
//Storyboard Layer 0 (Background)
//Storyboard Layer 1 (Fail)
//Storyboard Layer 2 (Pass)
//Storyboard Layer 3 (Foreground)
//Storyboard Sound Samples

[TimingPoints]
105,342.857142857143,4,2,0,100,1,0
11076,-125,4,2,0,100,0,0
33019,-111.111111111111,4,2,0,60,0,0
38505,-111.111111111111,4,2,0,70,0,0
43990,-100,4,2,0,80,0,0
49476,-100,4,2,0,90,0,0
52219,-166.666666666667,4,2,0,100,0,0
54962,-83.3333333333333,4,3,0,100,0,1
76905,-90.9090909090909,4,2,0,100,0,0
98847,-100,4,2,0,100,0,1
120790,-100,4,2,0,100,0,0

[Colours]
Combo1 : 145,200,255
Combo2 : 245,245,245
Combo3 : 215,242,255
Combo4 : 255,221,204

[HitObjects]
32,160,11076,6,0,B|112:120|136:240|216:192,1,180,2|0,0:0|0:0,0:0:0:0:
248,112,12105,1,0,0:0:0:0:
196,200,12276,1,0,0:0:0:0:
64,304,12619,5,0,0:0:0:0:
136,256,12790,1,0,0:0:0:0:
152,176,12962,1,0,0:0:0:0:
80,136,13133,1,0,0:0:0:0:
144,352,13476,1,0,0:0:0:0:
312,144,13819,6,0,P|368:128|432:152,1,120,2|0,0:0|0:0,0:0:0:0:
512,128,14333,2,0,P|504:192|456:232,1,120
376,240,14847,1,0,0:0:0:0:
376,240,15019,1,0,0:0:0:0:
248,256,15362,5,0,0:0:0:0:
224,176,15533,1,0,0:0:0:0:
264,104,15705,1,0,0:0:0:0:
344,88,15876,1,0,0:0:0:0:
176,232,16219,1,0,0:0:0:0:
360,328,16562,6,0,B|368:272|360:224|360:224|344:256,1,120,2|0,0:0|0:0,0:0:0:0:
304,176,17076,2,0,B|248:232|296:288,1,120
360,328,17590,1,0,0:0:0:0:
353,237,17762,1,0,0:0:0:0:
440,224,18105,5,0,0:0:0:0:
464,144,18276,1,0,0:0:0:0:
464,56,18447,1,0,0:0:0:0:
352,160,18619,1,0,0:0:0:0:
368,248,18790,1,0,0:0:0:0:
440,304,18962,1,0,0:0:0:0:
440,304,19305,6,0,B|384:296|328:320|328:320|256:296,1,180,2|0,0:0|0:0,0:0:0:0:
104,272,20333,1,0,0:0:0:0:
104,272,20505,1,0,0:0:0:0:
248,160,20847,5,0,0:0:0:0:
328,176,21019,1,0,0:0:0:0:
408,192,21190,1,0,0:0:0:0:
320,96,21362,1,0,0:0:0:0:
264,296,21705,1,0,0:0:0:0:
464,152,22047,6,0,B|384:112|360:232|280:184,1,180,2|0,0:0|0:0,0:0:0:0:
256,104,23076,1,0,0:0:0:0:
306,192,23247,1,0,0:0:0:0:
448,304,23590,5,0,0:0:0:0:
376,256,23761,1,0,0:0:0:0:
376,168,23933,1,0,0:0:0:0:
456,136,24104,1,0,0:0:0:0:
368,352,24447,1,0,0:0:0:0:
200,144,24790,6,0,P|144:128|80:152,1,120,2|0,0:0|0:0,0:0:0:0:
0,128,25304,2,0,P|8:192|56:232,1,120
136,240,25818,1,0,0:0:0:0:
136,240,25990,1,0,0:0:0:0:
264,256,26333,5,0,0:0:0:0:
288,176,26504,1,0,0:0:0:0:
248,104,26676,1,0,0:0:0:0:
168,80,26847,1,0,0:0:0:0:
336,232,27190,1,0,0:0:0:0:
152,328,27533,6,0,B|144:272|152:224|152:224|168:256,1,120,2|0,0:0|0:0,0:0:0:0:
208,176,28047,2,0,B|264:232|216:288,1,120
219,284,28561,1,0,0:0:0:0:
219,284,28733,1,0,0:0:0:0:
72,224,29076,5,0,0:0:0:0:
48,144,29247,1,0,0:0:0:0:
48,56,29418,1,0,0:0:0:0:
160,160,29590,1,0,0:0:0:0:
144,248,29761,1,0,0:0:0:0:
72,304,29933,1,0,0:0:0:0:
72,304,30276,6,0,B|128:296|184:320|184:320|256:296,1,180,2|0,0:0|0:0,0:0:0:0:
408,272,31304,1,0,0:0:0:0:
408,272,31476,1,0,0:0:0:0:
264,160,31818,5,0,0:0:0:0:
184,176,31990,1,0,0:0:0:0:
104,192,32161,1,0,0:0:0:0:
192,96,32333,1,0,0:0:0:0:
248,296,32676,1,0,0:0:0:0:
392,176,33019,6,0,L|312:168,1,67.4999979400635,2|0,0:0|0:0,0:0:0:0:
296,168,33276,1,0,0:0:0:0:
264,168,33362,1,8,0:0:0:0:
152,232,33533,1,0,0:0:0:0:
56,320,33705,6,0,P|32:280|32:248,1,67.4999979400635
40,224,33962,1,0,0:0:0:0:
56,192,34047,1,8,0:0:0:0:
176,64,34219,1,0,0:0:0:0:
192,96,34305,1,0,0:0:0:0:
200,128,34390,1,0,0:0:0:0:
160,272,34562,5,0,0:0:0:0:
248,336,34733,1,8,0:0:0:0:
320,264,34905,1,0,0:0:0:0:
416,304,35076,1,0,0:0:0:0:
480,224,35247,1,0,0:0:0:0:
480,192,35333,1,0,0:0:0:0:
472,168,35419,1,8,0:0:0:0:
416,80,35590,1,0,0:0:0:0:
256,88,35762,6,0,P|248:144|256:176,1,67.4999979400635
200,312,36105,2,0,P|208:272|208:232,1,67.4999979400635,8|0,0:0|0:0,0:0:0:0:
152,120,36447,1,0,0:0:0:0:
72,224,36619,1,0,0:0:0:0:
64,256,36705,1,0,0:0:0:0:
64,288,36790,1,8,0:0:0:0:
160,344,36962,1,0,0:0:0:0:
248,296,37133,6,0,L|328:288,1,67.4999979400635
344,288,37390,1,0,0:0:0:0:
376,296,37476,1,8,0:0:0:0:
472,352,37647,1,0,0:0:0:0:
432,240,37819,2,0,P|424:208|424:160,1,67.4999979400635
424,144,38076,1,0,0:0:0:0:
432,112,38162,2,0,P|384:128|336:120,1,67.4999979400635,8|0,0:0|0:0,0:0:0:0:
208,72,38505,6,0,P|248:32|280:24,1,67.4999979400635
288,24,38762,1,0,0:0:0:0:
320,32,38847,1,8,0:0:0:0:
367,127,39019,1,0,0:0:0:0:
336,240,39190,2,0,P|288:248|240:232,1,67.4999979400635
240,232,39447,1,0,0:0:0:0:
216,208,39533,1,8,0:0:0:0:
288,344,39705,1,0,0:0:0:0:
416,240,39876,1,0,0:0:0:0:
352,112,40048,5,0,0:0:0:0:
264,48,40219,1,8,0:0:0:0:
192,120,40391,1,0,0:0:0:0:
96,80,40562,1,0,0:0:0:0:
32,160,40733,1,0,0:0:0:0:
32,192,40819,1,0,0:0:0:0:
40,216,40905,1,8,0:0:0:0:
96,304,41076,1,0,0:0:0:0:
256,296,41248,6,0,P|264:240|256:208,1,67.4999979400635
312,72,41591,2,0,P|304:112|304:152,1,67.4999979400635,8|0,0:0|0:0,0:0:0:0:
360,264,41933,1,0,0:0:0:0:
440,160,42105,1,0,0:0:0:0:
448,128,42191,1,0,0:0:0:0:
448,96,42276,1,8,0:0:0:0:
352,40,42448,1,0,0:0:0:0:
264,88,42619,6,0,L|184:96,1,67.4999979400635
168,96,42876,1,0,0:0:0:0:
136,88,42962,1,8,0:0:0:0:
40,32,43133,1,0,0:0:0:0:
80,144,43305,2,0,P|88:176|88:224,1,67.4999979400635
88,240,43562,1,0,0:0:0:0:
80,272,43647,1,8,0:0:0:0:
40,352,43819,1,0,0:0:0:0:
192,304,43990,6,0,P|240:296|280:304,2,75,0|0|8,0:0|0:0|0:0,0:0:0:0:
72,288,44505,1,0,0:0:0:0:
104,168,44676,2,0,P|144:192|168:232,2,75,0|0|8,0:0|0:0|0:0,0:0:0:0:
0,128,45190,1,0,0:0:0:0:
160,40,45362,6,0,P|168:88|152:120,1,75
0,136,45705,2,0,P|8:96|32:64,1,75,8|0,0:0|0:0,0:0:0:0:
52,45,45962,1,0,0:0:0:0:
88,32,46047,1,0,0:0:0:0:
208,40,46219,1,0,0:0:0:0:
304,120,46390,2,0,P|320:160|320:216,1,75,8|0,0:0|0:0,0:0:0:0:
312,224,46647,1,0,0:0:0:0:
288,248,46733,6,0,L|392:288,1,75
432,224,47076,1,8,0:0:0:0:
488,152,47247,1,0,0:0:0:0:
304,120,47419,2,0,L|208:88,1,75
136,16,47762,1,8,0:0:0:0:
48,112,47933,1,0,0:0:0:0:
40,144,48019,1,0,0:0:0:0:
48,176,48105,6,0,L|96:248,1,75
184,312,48447,2,0,B|216:336|216:336|216:216,1,150,8|0,0:0|0:0,0:0:0:0:
224,112,48962,1,0,0:0:0:0:
312,224,49133,1,8,0:0:0:0:
336,120,49305,1,0,0:0:0:0:
256,280,49476,6,0,P|240:304|224:352,2,75,0|0|8,0:0|0:0|0:0,0:0:0:0:
384,296,49991,1,0,0:0:0:0:
408,168,50162,2,0,P|368:192|344:232,2,75,0|0|8,0:0|0:0|0:0,0:0:0:0:
512,128,50676,1,0,0:0:0:0:
352,40,50848,6,0,P|344:88|360:120,1,75
512,136,51190,2,0,P|504:96|480:64,1,75,8|0,0:0|0:0,0:0:0:0:
460,45,51448,1,0,0:0:0:0:
424,32,51533,1,0,0:0:0:0:
304,40,51705,1,0,0:0:0:0:
208,120,51876,2,0,P|192:160|192:216,1,75,8|0,0:0|0:0,0:0:0:0:
200,224,52133,1,0,0:0:0:0:
224,248,52219,6,0,L|48:328,1,179.999994506836
192,256,54619,5,8,0:0:0:0:
304,152,54790,1,8,0:0:0:0:
128,144,54962,6,0,P|64:120|48:88,1,89.9999972534181,12|0,0:0|0:0,0:0:0:0:
224,72,55305,1,8,0:0:0:0:
240,104,55390,1,0,0:0:0:0:
240,144,55476,1,0,0:0:0:0:
136,312,55647,1,0,0:0:0:0:
48,184,55819,1,0,0:0:0:0:
32,320,55990,1,8,0:0:0:0:
144,216,56162,2,0,P|192:216|232:312,1,134.999995880127
272,344,56505,5,0,0:0:0:0:
344,208,56676,1,8,0:0:0:0:
400,320,56847,1,0,0:0:0:0:
496,200,57019,1,0,0:0:0:0:
504,312,57190,1,0,0:0:0:0:
400,184,57362,1,8,0:0:0:0:
320,352,57533,1,0,0:0:0:0:
320,352,57619,1,0,0:0:0:0:
320,352,57705,1,0,0:0:0:0:
216,272,57876,6,0,L|136:320,1,89.9999972534181,0|8,0:0|0:0,0:0:0:0:
96,152,58219,1,0,0:0:0:0:
224,184,58390,1,0,0:0:0:0:
184,320,58562,1,0,0:0:0:0:
48,280,58733,1,8,0:0:0:0:
152,160,58905,1,0,0:0:0:0:
224,312,59076,1,0,0:0:0:0:
88,352,59247,2,0,L|40:256,1,89.9999972534181,0|8,0:0|0:0,0:0:0:0:
64,144,59590,5,0,0:0:0:0:
192,144,59762,1,0,0:0:0:0:
192,280,59933,1,0,0:0:0:0:
56,280,60105,1,8,0:0:0:0:
104,72,60276,1,0,0:0:0:0:
136,56,60362,1,0,0:0:0:0:
168,64,60447,6,0,P|216:72|296:64,1,89.9999972534181
352,16,60790,1,8,0:0:0:0:
472,104,60962,1,0,0:0:0:0:
384,240,61133,1,0,0:0:0:0:
256,144,61305,1,0,0:0:0:0:
400,144,61476,1,8,0:0:0:0:
400,320,61647,1,0,0:0:0:0:
256,320,61819,1,0,0:0:0:0:
136,272,61990,6,0,L|40:312,1,89.9999972534181,0|8,0:0|0:0,0:0:0:0:
152,176,62333,1,0,0:0:0:0:
224,104,62505,1,0,0:0:0:0:
120,80,62676,2,0,L|32:64,1,89.9999972534181,0|8,0:0|0:0,0:0:0:0:
192,24,63019,1,0,0:0:0:0:
80,160,63190,6,0,P|88:224|112:256,1,89.9999972534181
224,312,63533,1,8,0:0:0:0:
232,320,63619,1,0,0:0:0:0:
240,328,63705,1,0,0:0:0:0:
392,328,63876,2,0,P|432:304|456:256,1,89.9999972534181
464,160,64219,1,8,0:0:0:0:
432,72,64390,2,0,P|392:96|376:168,1,89.9999972534181
304,224,64733,2,0,L|304:120,1,89.9999972534181,0|8,0:0|0:0,0:0:0:0:
304,48,65076,1,0,0:0:0:0:
304,312,65247,1,0,0:0:0:0:
224,216,65419,2,0,L|224:120,1,89.9999972534181,0|8,0:0|0:0,0:0:0:0:
304,312,65762,1,0,0:0:0:0:
400,240,65933,6,0,P|424:184|408:136,1,89.9999972534181,4|0,0:0|0:0,0:0:0:0:
288,72,66276,1,8,0:0:0:0:
272,104,66361,1,0,0:0:0:0:
272,144,66447,1,0,0:0:0:0:
376,312,66618,1,0,0:0:0:0:
464,184,66790,1,0,0:0:0:0:
480,320,66961,1,8,0:0:0:0:
368,216,67133,2,0,P|320:216|280:312,1,134.999995880127
272,312,67476,5,0,0:0:0:0:
192,208,67647,1,8,0:0:0:0:
112,320,67818,1,0,0:0:0:0:
24,160,67990,1,0,0:0:0:0:
8,312,68161,1,0,0:0:0:0:
112,184,68333,1,8,0:0:0:0:
192,352,68504,1,0,0:0:0:0:
192,352,68590,1,0,0:0:0:0:
192,352,68676,1,0,0:0:0:0:
296,272,68847,6,0,L|376:320,1,89.9999972534181,0|8,0:0|0:0,0:0:0:0:
416,152,69190,1,0,0:0:0:0:
288,184,69361,1,0,0:0:0:0:
328,320,69533,1,0,0:0:0:0:
464,280,69705,1,8,0:0:0:0:
360,160,69876,1,0,0:0:0:0:
288,312,70047,1,0,0:0:0:0:
424,352,70218,2,0,L|472:256,1,89.9999972534181,0|8,0:0|0:0,0:0:0:0:
448,144,70561,5,0,0:0:0:0:
320,144,70733,1,0,0:0:0:0:
320,280,70904,1,0,0:0:0:0:
456,280,71076,1,8,0:0:0:0:
408,72,71247,1,0,0:0:0:0:
376,56,71333,1,0,0:0:0:0:
344,64,71418,6,0,P|296:72|216:64,1,89.9999972534181
160,16,71761,1,8,0:0:0:0:
32,104,71933,1,0,0:0:0:0:
128,240,72104,1,0,0:0:0:0:
256,144,72276,1,0,0:0:0:0:
112,144,72447,1,8,0:0:0:0:
112,320,72618,1,0,0:0:0:0:
256,320,72790,1,0,0:0:0:0:
376,272,72961,6,0,L|472:312,1,89.9999972534181,0|8,0:0|0:0,0:0:0:0:
360,176,73304,1,0,0:0:0:0:
288,104,73476,1,0,0:0:0:0:
392,80,73647,2,0,L|480:64,1,89.9999972534181,0|8,0:0|0:0,0:0:0:0:
320,24,73990,1,0,0:0:0:0:
432,160,74161,6,0,P|424:224|400:256,1,89.9999972534181,8|0,0:0|0:0,0:0:0:0:
280,312,74504,1,8,0:0:0:0:
280,320,74590,1,0,0:0:0:0:
272,328,74676,1,0,0:0:0:0:
120,328,74847,2,0,P|80:304|56:256,1,89.9999972534181,8|0,0:0|0:0,0:0:0:0:
48,160,75190,1,8,0:0:0:0:
80,72,75361,2,0,P|120:96|136:168,1,89.9999972534181,0|8,0:0|0:0,0:0:0:0:
208,224,75704,2,0,L|208:120,1,89.9999972534181,8|8,0:0|0:0,0:0:0:0:
208,48,76047,1,0,0:0:0:0:
208,312,76218,1,8,0:0:0:0:
288,216,76390,2,0,L|288:120,1,89.9999972534181,8|0,0:0|0:0,0:0:0:0:
288,216,76733,1,8,0:0:0:0:
392,296,76905,6,0,P|424:224|424:184,1,82.5000025177003,4|0,0:0|0:0,0:0:0:0:
416,128,77247,1,8,0:0:0:0:
336,48,77419,2,0,L|448:48,1,82.5000025177003
496,96,77762,1,0,0:0:0:0:
496,96,77933,1,8,0:0:0:0:
256,152,78105,6,0,P|240:200|320:280,1,165.000005035401
328,176,78619,2,0,P|328:120|296:88,1,82.5000025177003,8|0,0:0|0:0,0:0:0:0:
128,136,78962,1,0,0:0:0:0:
160,312,79133,2,0,B|208:336|208:336|256:336,1,82.5000025177003,0|8,0:0|0:0,0:0:0:0:
344,304,79476,1,0,0:0:0:0:
424,256,79647,5,0,0:0:0:0:
504,256,79819,1,0,0:0:0:0:
424,248,79990,1,8,0:0:0:0:
504,248,80162,1,0,0:0:0:0:
424,232,80333,1,0,0:0:0:0:
504,232,80505,1,0,0:0:0:0:
424,208,80676,1,8,0:0:0:0:
504,208,80847,1,0,0:0:0:0:
504,208,80933,1,0,0:0:0:0:
504,208,81019,1,0,0:0:0:0:
432,128,81190,6,0,P|376:104|320:104,1,82.5000025177003,0|8,0:0|0:0,0:0:0:0:
296,40,81533,2,0,P|264:80|264:128,1,82.5000025177003
304,208,81876,1,0,0:0:0:0:
223,36,82047,2,0,L|271:132,1,82.5000025177003,8|0,0:0|0:0,0:0:0:0:
384,304,82390,6,0,P|376:264|328:208,1,82.5000025177003,4|0,0:0|0:0,0:0:0:0:
248,184,82733,1,8,0:0:0:0:
144,240,82905,2,0,L|80:304,1,82.5000025177003
24,224,83247,1,0,0:0:0:0:
24,224,83419,1,8,0:0:0:0:
200,72,83590,2,0,P|248:96|248:208,1,165.000005035401
152,128,84105,6,0,P|128:56|144:32,1,82.5000025177003,8|0,0:0|0:0,0:0:0:0:
240,0,84447,1,0,0:0:0:0:
352,48,84619,2,0,B|384:88|384:88|408:144,1,82.5000025177003,0|8,0:0|0:0,0:0:0:0:
392,232,84962,1,0,0:0:0:0:
272,336,85133,5,0,0:0:0:0:
296,256,85305,1,0,0:0:0:0:
256,336,85476,1,8,0:0:0:0:
280,256,85647,1,0,0:0:0:0:
240,336,85819,1,0,0:0:0:0:
264,256,85990,1,0,0:0:0:0:
224,336,86162,1,8,0:0:0:0:
248,256,86333,1,0,0:0:0:0:
248,256,86419,1,0,0:0:0:0:
248,256,86505,1,0,0:0:0:0:
256,152,86676,6,0,P|248:112|208:80,1,82.5000025177003,0|8,0:0|0:0,0:0:0:0:
184,64,86933,1,0,0:0:0:0:
152,64,87019,2,0,B|96:72|96:72|56:96,1,82.5000025177003
72,192,87362,1,0,0:0:0:0:
73,2,87533,2,0,L|73:98,1,82.5000025177003,8|0,0:0|0:0,0:0:0:0:
160,192,87876,6,0,P|208:200|248:192,1,82.5000025177003,4|0,0:0|0:0,0:0:0:0:
312,120,88219,1,8,0:0:0:0:
200,64,88390,2,0,B|168:48|168:48|96:64,1,82.5000025177003
16,96,88733,1,0,0:0:0:0:
16,96,88905,1,8,0:0:0:0:
256,152,89076,6,0,P|272:200|192:280,1,165.000005035401
184,176,89590,2,0,P|184:120|216:88,1,82.5000025177003,8|0,0:0|0:0,0:0:0:0:
384,136,89933,1,0,0:0:0:0:
352,312,90104,2,0,B|304:336|304:336|256:336,1,82.5000025177003,0|8,0:0|0:0,0:0:0:0:
168,304,90447,1,0,0:0:0:0:
88,256,90618,5,0,0:0:0:0:
8,256,90790,1,0,0:0:0:0:
88,248,90961,1,8,0:0:0:0:
8,248,91133,1,0,0:0:0:0:
88,232,91304,1,0,0:0:0:0:
8,232,91476,1,0,0:0:0:0:
88,208,91647,1,8,0:0:0:0:
8,208,91818,1,0,0:0:0:0:
8,208,91904,1,0,0:0:0:0:
8,208,91990,1,0,0:0:0:0:
80,128,92161,6,0,P|136:104|192:104,1,82.5000025177003,0|8,0:0|0:0,0:0:0:0:
216,40,92504,2,0,P|248:80|248:128,1,82.5000025177003
208,208,92847,1,0,0:0:0:0:
289,36,93019,2,0,L|241:132,1,82.5000025177003,8|0,0:0|0:0,0:0:0:0:
128,304,93361,6,0,P|136:264|184:208,1,82.5000025177003,4|0,0:0|0:0,0:0:0:0:
264,184,93704,1,8,0:0:0:0:
368,240,93876,2,0,L|432:304,1,82.5000025177003
488,224,94218,1,0,0:0:0:0:
488,224,94390,1,8,0:0:0:0:
312,72,94561,2,0,P|264:96|264:208,1,165.000005035401
360,128,95076,6,0,P|384:56|368:32,1,82.5000025177003,8|0,0:0|0:0,0:0:0:0:
272,0,95418,1,0,0:0:0:0:
160,48,95590,2,0,B|128:88|128:88|104:144,1,82.5000025177003,0|8,0:0|0:0,0:0:0:0:
120,232,95933,1,0,0:0:0:0:
240,336,96104,5,8,0:0:0:0:
216,256,96276,1,0,0:0:0:0:
256,336,96447,1,8,0:0:0:0:
232,256,96618,1,0,0:0:0:0:
272,336,96790,1,8,0:0:0:0:
248,256,96961,1,0,0:0:0:0:
288,336,97133,1,8,0:0:0:0:
264,256,97304,1,0,0:0:0:0:
264,256,97390,1,0,0:0:0:0:
264,256,97476,1,4,0:0:0:0:
392,312,97647,5,8,0:0:0:0:
384,184,97819,1,8,0:0:0:0:
488,304,97990,1,0,0:0:0:0:
488,304,98076,1,0,0:0:0:0:
488,304,98162,1,4,0:0:0:0:
456,72,98333,1,8,0:0:0:0:
424,248,98505,1,0,0:0:0:0:
256,96,98676,1,8,0:0:0:0:
112,312,98847,5,4,0:0:0:0:
24,192,99019,1,0,0:0:0:0:
160,104,99190,1,8,0:0:0:0:
240,232,99362,1,0,0:0:0:0:
96,232,99533,1,2,0:0:0:0:
96,72,99705,1,0,0:0:0:0:
248,80,99876,1,8,0:0:0:0:
176,272,100047,1,0,0:0:0:0:
40,176,100219,5,0,0:0:0:0:
128,112,100390,1,0,0:0:0:0:
216,192,100562,1,8,0:0:0:0:
344,112,100733,1,0,0:0:0:0:
432,256,100905,1,2,0:0:0:0:
496,80,101076,1,0,0:0:0:0:
496,80,101162,1,0,0:0:0:0:
496,80,101247,2,0,L|488:160,1,75,8|0,0:0|0:0,0:0:0:0:
304,320,101590,5,0,0:0:0:0:
384,264,101762,1,0,0:0:0:0:
304,248,101933,1,8,0:0:0:0:
432,208,102105,1,0,0:0:0:0:
288,136,102276,1,2,0:0:0:0:
384,264,102447,1,0,0:0:0:0:
384,264,102619,2,0,L|328:328,1,75,8|0,0:0|0:0,0:0:0:0:
232,320,102962,5,0,0:0:0:0:
224,152,103133,2,0,L|160:232,1,75,0|8,0:0|0:0,0:0:0:0:
64,248,103476,1,0,0:0:0:0:
112,344,103647,2,0,P|168:352|208:336,1,75,2|0,0:0|0:0,0:0:0:0:
272,320,103990,1,8,0:0:0:0:
288,168,104162,1,0,0:0:0:0:
400,312,104333,5,4,0:0:0:0:
488,192,104505,1,0,0:0:0:0:
352,104,104676,1,8,0:0:0:0:
272,232,104848,1,0,0:0:0:0:
416,232,105019,1,2,0:0:0:0:
416,72,105191,1,0,0:0:0:0:
264,80,105362,1,8,0:0:0:0:
336,272,105533,1,0,0:0:0:0:
472,176,105705,5,0,0:0:0:0:
384,112,105876,1,0,0:0:0:0:
296,192,106047,1,8,0:0:0:0:
168,112,106219,1,0,0:0:0:0:
80,256,106391,1,2,0:0:0:0:
16,80,106562,1,0,0:0:0:0:
16,80,106648,1,0,0:0:0:0:
16,80,106733,2,0,L|24:160,1,75,8|0,0:0|0:0,0:0:0:0:
208,320,107076,5,0,0:0:0:0:
128,264,107248,1,0,0:0:0:0:
208,248,107419,1,8,0:0:0:0:
80,208,107591,1,0,0:0:0:0:
224,136,107762,1,2,0:0:0:0:
128,264,107933,1,0,0:0:0:0:
128,264,108105,2,0,L|184:328,1,75,8|0,0:0|0:0,0:0:0:0:
280,320,108448,5,0,0:0:0:0:
288,152,108619,2,0,L|352:232,1,75,0|8,0:0|0:0,0:0:0:0:
448,248,108962,1,0,0:0:0:0:
400,344,109133,2,0,P|344:352|304:336,1,75,2|0,0:0|0:0,0:0:0:0:
240,320,109476,1,8,0:0:0:0:
448,248,109648,1,0,0:0:0:0:
328,256,109819,6,0,B|320:216|320:216|320:152,1,75
368,88,110162,1,8,0:0:0:0:
472,56,110333,1,0,0:0:0:0:
376,96,110505,1,0,0:0:0:0:
480,64,110676,1,0,0:0:0:0:
384,104,110847,1,8,0:0:0:0:
488,72,111019,1,0,0:0:0:0:
488,72,111190,6,0,B|448:64|448:64|416:24,1,75
328,24,111533,2,0,B|312:64|312:64|288:96,1,75,8|0,0:0|0:0,0:0:0:0:
200,160,111876,1,0,0:0:0:0:
192,296,112047,2,0,P|248:304|288:296,1,75,0|8,0:0|0:0,0:0:0:0:
352,168,112390,1,0,0:0:0:0:
208,160,112562,5,4,0:0:0:0:
128,240,112733,1,0,0:0:0:0:
240,96,112905,2,0,P|272:128|280:168,1,75,8|0,0:0|0:0,0:0:0:0:
280,256,113247,1,0,0:0:0:0:
279,80,113419,2,0,L|279:168,1,75,0|8,0:0|0:0,0:0:0:0:
280,256,113762,1,0,0:0:0:0:
280,256,113847,1,0,0:0:0:0:
280,256,113933,1,0,0:0:0:0:
344,336,114105,6,0,B|384:352|384:352|432:352,1,75,0|8,0:0|0:0,0:0:0:0:
488,256,114447,1,0,0:0:0:0:
488,256,114533,1,0,0:0:0:0:
488,256,114619,1,0,0:0:0:0:
448,168,114790,2,0,P|416:192|400:232,1,75,0|8,0:0|0:0,0:0:0:0:
448,72,115133,1,0,0:0:0:0:
336,48,115305,6,0,P|272:56|240:72,1,75,4|0,0:0|0:0,0:0:0:0:
144,88,115648,1,8,0:0:0:0:
40,56,115819,1,0,0:0:0:0:
136,96,115991,1,0,0:0:0:0:
32,64,116162,1,0,0:0:0:0:
128,104,116333,1,8,0:0:0:0:
24,72,116505,1,0,0:0:0:0:
24,72,116676,6,0,B|64:64|64:64|96:24,1,75
184,24,117019,2,0,B|200:64|200:64|224:96,1,75,8|0,0:0|0:0,0:0:0:0:
312,160,117362,1,0,0:0:0:0:
320,296,117533,2,0,P|264:304|224:296,1,75,0|8,0:0|0:0,0:0:0:0:
160,168,117876,1,0,0:0:0:0:
304,160,118048,5,4,0:0:0:0:
384,240,118219,1,0,0:0:0:0:
272,96,118391,2,0,P|240:128|232:168,1,75,8|0,0:0|0:0,0:0:0:0:
232,256,118733,1,0,0:0:0:0:
233,80,118905,2,0,L|233:168,1,75,0|8,0:0|0:0,0:0:0:0:
232,256,119248,1,0,0:0:0:0:
232,256,119333,1,0,0:0:0:0:
232,256,119419,1,0,0:0:0:0:
168,336,119591,6,0,B|128:352|128:352|80:352,1,75
312,256,119933,2,0,P|352:248|400:248,1,75
472,288,120276,1,0,0:0:0:0:
472,288,120447,1,0,0:0:0:0:
472,288,120619,1,0,0:0:0:0:
472,288,120790,1,4,0:0:0:0:
